osu file format v14

[General]
AudioFilename: audio.mp3
AudioLeadIn: 0
PreviewTime: 113731
Countdown: 0
SampleSet: Soft
StackLeniency: 0.7
Mode: 0
LetterboxInBreaks: 0
WidescreenStoryboard: 1

[Editor]
Bookmarks: 11720,23246,33352,43457,53562,101415,144498,164720,174825,195036,230234
DistanceSpacing: 0.6
BeatDivisor: 4
GridSize: 8
TimelineZoom: 2.5

[Metadata]
Title:99
TitleUnicode:99
Artist:MOB CHOIR
ArtistUnicode:MOB CHOIR
Creator:AirinCat
Version:INSANE
Source:モブサイコ100
Tags:FuJu Mob Psycho 100 opening first season 1 1st anime japanese english Hyaku One Hundred full version sana sajou no hana rock jrock
BeatmapID:2542023
BeatmapSetID:1221343

[Difficulty]
HPDrainRate:5
CircleSize:4
OverallDifficulty:8
ApproachRate:9
SliderMultiplier:1.6
SliderTickRate:1

[Events]
//Background and Video events
0,0,"mobukun.png",0,0
//Break Periods
2,175036,183710
//Storyboard Layer 0 (Background)
//Storyboard Layer 1 (Fail)
//Storyboard Layer 2 (Pass)
//Storyboard Layer 3 (Foreground)
//Storyboard Layer 4 (Overlay)
//Storyboard Sound Samples

[TimingPoints]
521,315.789473684211,4,2,1,25,1,0
1073,-100,4,2,1,32,0,0
1152,-100,4,2,1,36,0,0
1468,-100,4,2,1,40,0,0
1784,-100,4,2,1,45,0,0
2099,-100,4,2,1,50,0,0
2415,-250.000000000001,4,2,1,55,0,0
2731,-250.000000000001,4,2,1,5,0,0
2889,-250.000000000001,4,2,1,10,0,0
3047,-285.714285714286,4,2,1,25,0,0
11731,-80,4,2,1,50,0,0
11810,-80,4,2,1,5,0,0
13152,-125,4,2,1,60,0,0
20731,-111.111111111111,4,2,1,60,0,0
21994,-125,4,2,1,70,0,0
22942,-125,4,2,1,60,0,0
23257,-90.9090909090909,4,2,1,66,0,0
42836,-99.9999999999999,4,2,1,66,0,0
43468,-111.111111111111,4,2,1,50,0,0
45836,-100,4,2,1,60,0,0
48521,-90.9090909090909,4,2,1,70,0,0
52310,-76.9230769230769,4,2,1,70,0,0
53573,-83.3333333333333,4,2,1,76,0,1
63521,-80,4,2,1,80,0,1
72521,-100,4,2,1,60,0,0
73784,-111.111111111111,4,2,1,60,0,0
82626,-111.111111111111,4,2,1,40,0,0
83573,-166.666666666666,4,2,1,40,0,0
83889,-125,4,2,1,50,0,0
87915,-125,4,2,1,5,0,0
87994,-125,4,2,1,50,0,0
88231,-125,4,2,1,5,0,0
88310,-125,4,2,1,50,0,0
93284,-125,4,2,1,5,0,0
93363,-125,4,2,1,50,0,0
93994,-117.647058823529,4,2,1,56,0,0
99047,-105.263157894737,4,2,1,60,0,0
104099,-95.2380952380952,4,2,1,66,0,0
109152,-90.9090909090909,4,2,1,66,0,0
112942,-76.9230769230769,4,2,1,70,0,0
114205,-83.3333333333333,4,2,1,76,0,1
124152,-80,4,2,1,80,0,1
133152,-100,4,2,1,60,0,0
139468,-100,4,2,1,66,0,0
143257,-100,4,2,1,60,0,0
144521,-83.3333333333333,4,2,1,76,0,0
153363,-125,4,2,1,40,0,0
154468,-83.3333333333333,4,2,1,76,0,0
162521,-76.9230769230769,4,2,1,78,0,0
163310,-83.3333333333333,4,2,1,70,0,0
164415,-111.111111111111,4,2,1,60,0,0
164731,-111.111111111111,4,2,1,50,0,0
169784,-100,4,2,1,70,0,0
172310,-90.9090909090909,4,2,1,70,0,0
184310,-125,4,2,1,30,0,0
184626,-125,4,2,1,5,0,0
184942,-125,4,2,1,50,0,0
193784,-111.111111111111,4,2,1,50,0,0
195047,-83.3333333333333,4,2,1,80,0,1
213994,-90.9090909090909,4,2,1,70,0,0
215257,-83.3333333333333,4,2,1,80,0,1
220310,-80,4,2,1,84,0,1
225363,-90.9090909090909,4,2,1,60,0,0
226626,-100,4,2,1,60,0,0
230257,-95.2380952380952,4,2,1,60,0,0

[Colours]
Combo1 : 217,179,255
Combo2 : 187,220,184
Combo3 : 244,174,228
Combo4 : 228,203,203

[HitObjects]
8,251,521,6,0,L|12:290,6,40,2|0|0|0|0|0|0,1:2|2:2|2:2|2:2|2:2|2:2|0:0,0:0:0:0:
86,341,1073,1,8,0:2:0:0:
98,347,1152,2,0,L|93:294,3,40,2|0|0|0,3:2|3:2|3:2|3:2,0:0:0:0:
171,275,1468,2,0,L|166:227,3,40,8|0|0|0,3:2|3:2|3:2|3:2,0:0:0:0:
256,333,1784,6,0,P|309:310|360:337,1,120,10|0,0:2|3:2,0:0:0:0:
360,337,2099,2,0,L|366:297,1,40,8|0,3:2|3:2,0:0:0:0:
431,247,2257,2,0,L|424:207,1,40,8|0,3:2|3:2,0:0:0:0:
455,135,2415,6,0,P|408:126|368:150,1,96,4|0,1:3|0:2,0:0:0:0:
239,251,3047,6,0,P|226:194|210:138,3,111.999996582031,4|2|2|2,1:2|0:2|0:2|0:2,0:0:0:0:
211,142,5573,2,0,P|158:156|90:173,3,111.999996582031,2|2|2|2,0:2|0:2|0:2|0:2,0:0:0:0:
102,169,8099,2,0,B|115:218|115:218|123:230|123:230|134:277,3,111.999996582031,2|2|2|2,0:2|0:2|0:2|0:2,0:0:0:0:
133,275,10626,2,0,P|196:269|232:303,1,111.999996582031,2|2,0:2|0:2,0:0:0:0:
229,299,11731,6,0,L|226:356,1,50,12|0,0:2|0:2,0:0:0:0:
226,348,13152,5,4,1:2:0:0:
279,178,13310,1,4,1:3:0:0:
363,259,13468,5,4,1:3:0:0:
363,259,13784,1,2,0:2:0:0:
363,259,14415,1,2,0:2:0:0:
363,259,15047,1,2,0:2:0:0:
143,161,15521,5,0,1:2:0:0:
143,161,15599,1,0,1:2:0:0:
143,161,15678,1,4,1:2:0:0:
88,334,15836,1,4,1:3:0:0:
20,260,15994,1,4,1:3:0:0:
20,260,16310,1,2,0:2:0:0:
20,260,16942,1,2,0:2:0:0:
111,226,17257,1,2,0:2:0:0:
188,300,17573,2,0,L|261:294,1,64,2|0,1:2|1:2,0:0:0:0:
376,284,17889,1,10,0:2:0:0:
376,284,18205,5,6,1:3:0:0:
325,145,18363,1,4,1:3:0:0:
334,133,18836,1,6,1:3:0:0:
211,231,18994,1,4,1:3:0:0:
230,240,19468,1,6,1:3:0:0:
127,83,19626,1,4,1:3:0:0:
156,81,20099,1,6,1:3:0:0:
39,287,20257,1,4,1:3:0:0:
46,302,20731,6,0,L|86:304,1,35.9999989013672,10|4,0:3|0:3,0:0:0:0:
176,310,20889,2,0,L|232:314,5,35.9999989013672,10|4|4|4|4|4,0:3|0:3|0:3|0:3|0:3|0:3,0:0:0:0:
135,235,21363,6,0,L|138:181,1,47.9999985351563,10|8,0:3|0:3,0:0:0:0:
147,51,21573,2,0,L|146:99,3,47.9999985351563,4|4|4|4,0:3|0:3|0:3|0:3,0:0:0:0:
226,145,21994,6,0,P|265:145|307:147,1,64,6|0,1:2|0:2,0:0:0:0:
321,25,22310,2,0,P|340:59|359:96,1,64,2|0,0:2|0:2,0:0:0:0:
480,40,22626,2,0,P|459:73|437:109,1,64,2|0,0:2|0:2,0:0:0:0:
380,181,22942,5,8,0:2:0:0:
377,194,23021,1,8,0:2:0:0:
374,207,23099,1,8,0:2:0:0:
370,219,23178,1,8,0:2:0:0:
368,230,23257,6,0,P|409:210|487:253,1,132.00000402832,6|0,1:2|1:2,0:0:0:0:
482,244,23573,1,8,0:2:0:0:
425,367,23731,1,0,0:2:0:0:
309,318,23889,2,0,L|213:338,1,88.000002685547,2|0,1:2|0:2,0:0:0:0:
130,254,24205,1,8,0:2:0:0:
62,368,24363,1,0,0:2:0:0:
130,254,24521,6,0,L|114:155,1,88.000002685547,2|0,1:2|1:2,0:0:0:0:
115,167,24757,1,0,1:2:0:0:
115,167,24836,2,0,L|16:186,1,88.000002685547,8|0,0:2|1:2,0:0:0:0:
166,43,25152,2,0,P|224:68|236:136,1,132.00000402832,2|0,1:2|0:2,0:0:0:0:
237,129,25468,2,0,L|342:107,1,88.000002685547,8|0,0:2|0:2,0:0:0:0:
397,9,25784,5,2,1:2:0:0:
397,9,25863,1,0,1:2:0:0:
397,9,25942,1,0,1:2:0:0:
509,132,26099,2,0,P|520:90|496:55,1,88.000002685547,10|2,0:2|0:2,0:0:0:0:
406,189,26415,1,2,1:2:0:0:
406,189,26494,1,0,1:2:0:0:
406,189,26573,1,0,1:2:0:0:
507,267,26731,1,10,0:0:0:0:
358,329,26889,6,0,B|313:346|258:301|302:291|258:252|209:264,1,176.000005371094,2|2,0:2|1:2,0:0:0:0:
215,271,27284,1,0,1:2:0:0:
215,271,27363,1,8,0:2:0:0:
135,141,27521,1,2,1:2:0:0:
12,237,27678,2,0,P|75:267|114:218,1,132.00000402832,2|0,1:2|0:2,0:0:0:0:
112,228,27994,2,0,P|92:265|102:311,1,88.000002685547,8|0,0:2|0:2,0:0:0:0:
231,384,28310,5,2,1:2:0:0:
231,384,28389,1,0,1:2:0:0:
231,384,28468,1,0,1:2:0:0:
301,289,28626,2,0,L|201:268,1,88.000002685547,8|0,0:2|0:2,0:0:0:0:
291,177,28942,1,2,1:2:0:0:
291,177,29021,1,0,1:2:0:0:
291,177,29099,1,0,1:2:0:0:
402,265,29257,2,0,P|410:219|420:169,1,88.000002685547,8|0,0:2|0:2,0:0:0:0:
482,12,29573,6,0,P|490:57|500:108,1,88.000002685547,2|0,1:2|1:2,0:0:0:0:
498,98,29810,1,0,1:2:0:0:
498,98,29889,1,8,0:2:0:0:
391,37,30047,1,0,1:2:0:0:
330,129,30205,2,0,P|293:136|238:146,1,88.000002685547,2|0,1:2|0:0,0:0:0:0:
83,72,30521,1,8,0:2:0:0:
147,0,30678,2,0,B|183:27|183:27|175:69,1,88.000002685547,2|0,1:2|1:2,0:0:0:0:
102,193,30994,6,0,L|-2:174,1,88.000002685547,2|8,1:2|0:2,0:0:0:0:
0,286,31310,2,0,L|86:302,1,88.000002685547,2|0,0:2|1:2,0:0:0:0:
198,364,31626,1,2,1:2:0:0:
198,364,31705,1,0,1:2:0:0:
198,364,31784,2,0,P|221:330|213:284,1,88.000002685547,10|0,0:2|0:2,0:0:0:0:
89,113,32099,5,2,1:2:0:0:
199,170,32257,1,2,1:2:0:0:
199,170,32336,1,0,1:2:0:0:
199,170,32415,2,0,L|297:148,1,88.000002685547,10|0,0:2|1:2,0:0:0:0:
464,121,32731,2,0,P|404:136|412:210,1,132.00000402832,2|0,0:2|0:2,0:0:0:0:
401,198,33047,1,8,0:2:0:0:
353,63,33205,1,8,0:2:0:0:
320,250,33363,5,2,1:2:0:0:
320,250,33442,1,0,1:2:0:0:
320,250,33521,1,0,1:2:0:0:
424,308,33678,2,0,L|522:287,1,88.000002685547,12|0,0:2|0:2,0:0:0:0:
341,384,33994,1,2,1:2:0:0:
341,384,34073,1,0,1:2:0:0:
341,384,34152,1,0,1:2:0:0:
240,328,34310,2,0,L|138:343,1,88.000002685547,8|0,0:2|0:2,0:0:0:0:
41,264,34626,6,0,P|24:223|39:182,1,88.000002685547,2|0,1:2|1:2,0:0:0:0:
39,182,34863,1,0,1:2:0:0:
39,182,34942,1,14,0:2:0:0:
143,232,35099,1,0,1:2:0:0:
240,151,35257,2,0,P|200:99|137:104,1,132.00000402832,2|0,0:2|0:2,0:0:0:0:
137,104,35573,2,0,P|133:59|128:15,1,88.000002685547,10|0,0:2|1:2,0:0:0:0:
329,62,35889,5,2,1:2:0:0:
329,62,35968,1,0,1:2:0:0:
329,62,36047,1,0,1:2:0:0:
442,76,36205,1,10,0:2:0:0:
378,171,36363,1,2,0:2:0:0:
485,233,36521,1,2,1:2:0:0:
485,233,36599,1,0,1:2:0:0:
485,233,36678,1,0,1:2:0:0:
401,311,36836,1,10,0:0:0:0:
287,258,36994,6,0,B|263:218|263:218|276:135|276:135|257:94,1,176.000005371094,2|0,0:2|1:2,0:0:0:0:
257,94,37389,1,0,1:2:0:0:
257,94,37468,2,0,L|352:63,1,88.000002685547,10|0,0:2|1:2,0:0:0:0:
175,162,37784,2,0,P|112:170|70:123,1,132.00000402832,2|0,0:2|0:2,0:0:0:0:
69,123,38099,2,0,L|91:210,1,88.000002685547,8|2,0:2|0:2,0:0:0:0:
11,372,38415,5,2,1:2:0:0:
11,372,38494,1,0,1:2:0:0:
11,372,38573,1,0,1:2:0:0:
117,310,38731,2,0,L|29:289,1,88.000002685547,12|0,0:2|0:2,0:0:0:0:
182,232,39047,1,2,1:2:0:0:
182,232,39205,1,0,1:2:0:0:
251,347,39363,2,0,L|267:260,1,88.000002685547,8|0,0:2|0:2,0:0:0:0:
401,215,39678,6,0,L|495:234,1,88.000002685547,2|0,1:2|1:2,0:0:0:0:
487,232,39915,1,0,1:2:0:0:
487,232,39994,1,12,0:2:0:0:
433,99,40152,1,0,1:2:0:0:
308,166,40310,2,0,P|250:138|257:69,1,132.00000402832,2|0,0:2|0:2,0:0:0:0:
251,76,40626,1,10,0:2:0:0:
114,29,40784,1,2,1:2:0:0:
114,29,40863,1,0,1:0:0:0:
114,29,40942,2,0,L|136:124,1,88.000002685547,0|0,1:2|1:2,0:0:0:0:
77,214,41257,6,0,P|35:223|-8:197,1,88.000002685547,10|0,0:2|1:2,0:0:0:0:
153,289,41573,2,0,P|218:216|295:251,1,176.000005371094,2|8,1:2|0:2,0:0:0:0:
253,356,42047,1,2,0:2:0:0:
404,191,42205,5,10,0:2:0:0:
463,348,42363,1,2,1:2:0:0:
463,348,42442,1,0,1:2:0:0:
463,348,42521,1,0,1:2:0:0:
512,232,42678,1,10,0:2:0:0:
352,292,42836,2,0,L|269:276,1,80,2|0,1:2|1:2,0:0:0:0:
166,344,43152,2,0,L|73:357,1,80,8|8,0:2|0:3,0:0:0:0:
141,104,43468,5,4,1:2:0:0:
141,104,43784,2,0,L|155:174,1,71.9999978027344,10|0,0:2|0:2,0:0:0:0:
95,262,44099,1,8,0:2:0:0:
77,265,44178,1,8,0:2:0:0:
204,361,44415,1,10,0:2:0:0:
220,358,44494,1,8,0:2:0:0:
267,215,44731,5,8,0:3:0:0:
450,354,45047,1,10,0:2:0:0:
457,343,45126,1,8,0:2:0:0:
475,214,45363,1,10,0:0:0:0:
381,204,45521,1,10,0:0:0:0:
345,288,45678,2,0,L|354:359,1,71.9999978027344,10|8,0:3|3:2,0:0:0:0:
161,271,45994,5,4,1:2:0:0:
161,271,46073,1,0,3:2:0:0:
161,271,46152,2,0,L|214:264,1,40,0|0,3:2|3:2,0:0:0:0:
108,332,46310,2,0,P|70:287|84:228,1,120,10|8,0:2|3:2,0:0:0:0:
110,156,46626,2,0,L|99:94,3,40,2|0|0|0,1:2|3:2|3:2|3:2,0:0:0:0:
157,56,46942,2,0,L|258:39,1,80,10|8,0:2|3:3,0:0:0:0:
367,86,47257,6,0,L|381:167,1,80,4|8,1:2|0:2,0:0:0:0:
374,177,47494,1,8,0:2:0:0:
367,187,47573,2,0,L|353:106,1,80,10|0,0:2|3:2,0:0:0:0:
491,241,47889,5,6,1:3:0:0:
393,323,48047,1,6,1:3:0:0:
287,249,48205,1,6,1:3:0:0:
192,335,48363,1,6,1:3:0:0:
101,185,48521,6,0,P|109:119|119:54,1,132.00000402832,12|0,1:2|0:2,0:0:0:0:
119,54,48836,2,0,L|32:43,1,88.000002685547,2|0,1:2|0:2,0:0:0:0:
191,166,49152,1,8,1:2:0:0:
191,166,49310,1,0,1:2:0:0:
272,87,49468,2,0,P|277:44|285:-17,1,88.000002685547,2|0,1:2|1:2,0:0:0:0:
460,120,49784,5,8,1:2:0:0:
460,120,49942,1,0,1:2:0:0:
397,209,50099,2,0,P|346:202|290:195,1,88.000002685547,2|0,1:2|1:2,0:0:0:0:
131,278,50415,1,10,1:2:0:0:
236,322,50573,1,0,1:2:0:0:
208,230,50731,1,10,1:2:0:0:
208,230,50889,1,0,1:2:0:0:
158,370,51047,5,12,1:2:0:0:
158,370,51205,1,0,1:2:0:0:
66,207,51363,2,0,L|48:293,1,88.000002685547,2|0,1:2|1:2,0:0:0:0:
215,139,51678,1,8,1:2:0:0:
215,139,51836,1,0,1:2:0:0:
93,103,51994,2,0,P|50:92|5:81,1,88.000002685547,2|0,1:2|1:2,0:0:0:0:
298,76,52310,6,0,P|338:105|340:156,1,103.999995239258,14|0,1:2|0:2,0:0:0:0:
281,212,52547,1,8,0:2:0:0:
280,231,52626,2,0,P|319:199|414:251,1,155.999992858887,10|8,0:2|0:2,0:0:0:0:
445,302,52942,1,10,0:2:0:0:
74,6,53573,6,0,P|50:110|34:215,1,191.999994140625,4|8,1:0|0:2,0:0:0:0:
142,322,54047,2,0,P|187:334|234:308,1,95.9999970703126,2|0,0:2|1:2,0:0:0:0:
179,189,54363,1,2,1:2:0:0:
61,287,54521,1,8,0:2:0:0:
179,189,54678,6,0,P|232:199|294:211,1,95.9999970703126,2|0,1:2|0:2,0:0:0:0:
399,289,54994,2,0,P|429:253|426:207,1,95.9999970703126,2|8,1:2|0:2,0:0:0:0:
368,50,55310,2,0,P|355:96|340:162,1,95.9999970703126,2|0,0:2|1:2,0:0:0:0:
512,244,55626,1,2,1:2:0:0:
471,103,55784,1,10,0:2:0:0:
347,223,55942,6,0,B|293:233|265:183|265:183|218:153|174:193,1,191.999994140625,6|2,1:2|1:2,0:0:0:0:
81,115,56415,1,8,0:2:0:0:
15,257,56573,2,0,P|-9:218|7:163,1,95.9999970703126,2|0,0:2|1:2,0:0:0:0:
143,298,56889,1,2,1:2:0:0:
13,358,57047,1,10,0:2:0:0:
83,203,57205,6,0,L|188:186,1,95.9999970703126,2|0,0:2|1:2,0:0:0:0:
314,77,57521,2,0,L|219:62,1,95.9999970703126,2|8,1:2|0:2,0:0:0:0:
343,204,57836,1,2,0:2:0:0:
422,143,57994,2,0,P|445:102|432:57,1,95.9999970703126,0|0,1:0|1:2,0:0:0:0:
264,164,58310,1,10,0:2:0:0:
352,298,58468,6,0,P|405:227|496:257,1,191.999994140625,6|0,1:2|1:2,0:0:0:0:
441,341,58942,1,10,0:2:0:0:
273,256,59099,1,2,0:2:0:0:
208,337,59257,2,0,L|113:318,1,95.9999970703126,0|0,1:2|1:2,0:0:0:0:
0,227,59573,1,10,0:2:0:0:
7,327,59731,6,0,P|88:285|77:193,1,191.999994140625,2|0,1:2|1:2,0:0:0:0:
24,83,60205,1,10,0:2:0:0:
180,36,60363,2,0,L|161:132,1,95.9999970703126,2|0,0:2|1:2,0:0:0:0:
255,227,60678,1,0,1:2:0:0:
430,102,60836,1,10,0:2:0:0:
293,48,60994,6,0,B|332:71|332:71|347:165|347:165|390:193,1,191.999994140625,6|0,1:2|1:2,0:0:0:0:
481,250,61468,2,0,B|519:219|519:219|496:178,1,95.9999970703126,8|0,0:2|1:2,0:0:0:0:
242,131,61784,2,0,L|256:235,1,95.9999970703126,10|0,0:2|1:2,0:0:0:0:
390,193,62099,1,8,0:2:0:0:
264,52,62257,6,0,B|216:24|151:77|201:76|154:139|102:109,1,191.999994140625,6|8,1:2|0:2,0:0:0:0:
0,88,62731,1,4,0:3:0:0:
47,0,62889,1,0,1:2:0:0:
0,88,63047,2,0,L|19:188,1,95.9999970703126,8|0,0:2|1:2,0:0:0:0:
40,286,63363,1,8,0:2:0:0:
175,145,63521,6,0,P|218:122|266:134,1,100,2|8,1:2|0:2,0:0:0:0:
295,298,63836,2,0,P|251:320|203:308,1,100,2|8,1:2|0:2,0:0:0:0:
363,88,64152,2,0,P|374:136|391:195,1,100,2|8,1:2|0:2,0:0:0:0:
488,339,64468,2,0,P|499:291|516:232,1,100,2|8,1:2|0:2,0:0:0:0:
302,208,64784,5,2,1:2:0:0:
383,305,64942,1,8,0:2:0:0:
281,373,65099,2,0,L|171:350,1,100,2|8,1:2|0:2,0:0:0:0:
50,268,65415,2,0,P|18:304|23:352,1,100,2|8,1:2|0:2,0:0:0:0:
159,261,65731,1,2,1:2:0:0:
38,167,65889,1,10,0:2:0:0:
190,129,66047,6,0,B|289:81|289:81|339:97|373:132,1,200,6|2,1:2|1:2,0:0:0:0:
446,262,66521,1,10,0:2:0:0:
335,315,66678,2,0,P|311:272|325:225,1,100,2|8,1:2|0:2,0:0:0:0:
434,25,66994,1,2,1:2:0:0:
502,161,67152,1,10,0:2:0:0:
366,125,67310,6,0,P|316:131|264:139,1,100,2|8,1:2|0:2,0:0:0:0:
108,26,67626,2,0,L|209:8,1,100,2|8,1:2|0:2,0:0:0:0:
62,211,67942,2,0,P|25:178|27:130,1,100,2|8,1:2|0:2,0:0:0:0:
160,131,68257,1,0,1:2:0:0:
160,131,68336,1,0,1:2:0:0:
160,131,68415,1,10,0:2:0:0:
176,283,68573,6,0,P|91:245|38:321,1,200,6|0,1:2|1:2,0:0:0:0:
127,372,69047,1,10,0:2:0:0:
268,273,69205,1,2,1:2:0:0:
334,351,69363,2,0,L|441:334,1,100,10|0,0:2|1:2,0:0:0:0:
509,244,69678,1,10,0:2:0:0:
391,144,69836,6,0,P|368:93|389:49,1,100,2|8,1:2|0:2,0:0:0:0:
478,92,70152,1,0,1:2:0:0:
413,232,70310,1,10,0:2:0:0:
301,165,70468,2,0,P|251:172|203:185,1,100,2|8,1:2|0:0,0:0:0:0:
81,140,70784,1,0,1:0:0:0:
196,37,70942,1,10,0:0:0:0:
29,59,71099,6,0,P|54:141|79:274,1,200,6|0,1:2|1:2,0:0:0:0:
202,305,71573,1,8,0:2:0:0:
103,381,71731,1,0,1:2:0:0:
202,305,71889,2,0,P|252:309|301:322,1,100,8|0,0:2|1:2,0:0:0:0:
425,271,72205,1,8,0:0:0:0:
413,163,72363,1,0,1:0:0:0:
311,125,72521,5,12,0:2:0:0:
311,125,73152,5,8,0:2:0:0:
297,135,73257,2,0,L|313:214,1,53.3333333333333,8|4,0:2|0:3,0:0:0:0:
222,280,73468,1,4,1:3:0:0:
236,270,73573,2,0,L|220:191,1,53.3333333333333,4|0,1:3|1:2,0:0:0:0:
113,168,73784,6,0,L|34:182,1,71.9999978027344,2|0,1:2|1:2,0:0:0:0:
56,280,74099,1,0,1:2:0:0:
56,280,74257,1,0,1:2:0:0:
56,280,74415,2,0,L|134:265,1,71.9999978027344,2|0,1:2|1:2,0:0:0:0:
213,328,74731,1,0,1:2:0:0:
213,328,74889,1,0,1:2:0:0:
213,328,75047,6,0,L|302:314,1,71.9999978027344,2|0,1:2|1:2,0:0:0:0:
384,350,75363,1,0,1:2:0:0:
384,350,75521,1,0,1:2:0:0:
384,350,75678,2,0,L|373:257,1,71.9999978027344,2|0,1:2|1:2,0:0:0:0:
449,204,75994,1,0,1:2:0:0:
449,204,76152,1,0,1:2:0:0:
361,146,76310,6,0,L|287:158,2,71.9999978027344,10|0|0,1:2|1:2|1:2,0:0:0:0:
425,75,76784,1,0,1:2:0:0:
425,75,76942,2,0,L|512:62,1,71.9999978027344,2|0,1:2|1:2,0:0:0:0:
346,7,77257,1,0,1:2:0:0:
346,7,77415,1,0,1:2:0:0:
279,86,77573,6,0,L|290:164,1,71.9999978027344,2|0,1:2|1:2,0:0:0:0:
184,80,77889,2,0,L|136:142,1,71.9999978027344,2|0,1:2|1:2,0:0:0:0:
136,5,78205,2,0,L|58:16,1,71.9999978027344,2|0,1:2|1:2,0:0:0:0:
47,107,78521,1,0,1:2:0:0:
47,107,78678,1,0,1:2:0:0:
151,208,78836,6,0,L|140:135,1,71.9999978027344,6|0,1:2|1:2,0:0:0:0:
67,240,79152,1,0,1:2:0:0:
135,295,79310,1,0,1:2:0:0:
71,347,79468,2,0,L|-2:358,1,71.9999978027344,10|0,1:2|1:2,0:0:0:0:
211,264,79784,1,0,1:0:0:0:
277,323,79942,1,0,1:0:0:0:
330,188,80099,6,0,L|341:260,1,71.9999978027344,6|0,1:2|1:2,0:0:0:0:
273,96,80415,1,0,1:0:0:0:
225,169,80573,1,0,1:0:0:0:
93,86,80731,2,0,L|166:75,1,71.9999978027344,10|0,1:2|1:0,0:0:0:0:
173,86,80968,1,0,1:0:0:0:
184,96,81047,2,0,L|111:107,1,71.9999978027344,0|0,1:0|1:0,0:0:0:0:
344,0,81363,6,0,L|353:73,1,71.9999978027344,14|0,1:2|1:0,0:0:0:0:
404,230,81678,1,0,1:0:0:0:
442,124,81836,1,0,1:0:0:0:
287,170,81994,2,0,L|360:160,1,71.9999978027344,14|0,1:2|1:0,0:0:0:0:
505,207,82310,1,0,1:0:0:0:
480,299,82468,1,0,1:0:0:0:
378,310,82626,1,2,0:0:0:0:
351,303,82942,1,2,0:0:0:0:
323,296,83257,1,2,0:0:0:0:
301,289,83573,2,0,L|285:338,1,47.9999985351563,2|2,0:0|0:0,0:0:0:0:
234,233,83889,6,0,P|189:275|124:251,1,128,6|0,1:3|1:0,0:0:0:0:
49,279,84363,1,2,0:3:0:0:
33,194,84521,2,0,P|49:126|59:58,1,128,2|0,1:3|1:0,0:0:0:0:
0,10,84994,1,2,0:3:0:0:
57,68,85152,6,0,B|94:71|94:71|141:46|141:46|178:47,1,128,6|0,1:3|1:0,0:0:0:0:
268,87,85626,1,2,0:3:0:0:
334,36,85784,2,0,P|316:97|307:160,1,128,2|0,1:3|1:0,0:0:0:0:
365,243,86257,1,2,0:3:0:0:
474,181,86415,5,6,1:3:0:0:
512,290,86573,1,2,0:0:0:0:
512,290,86731,2,0,L|449:275,1,64,10|2,1:2|0:0,0:0:0:0:
375,335,87047,2,0,L|312:320,1,64,2|2,1:2|0:0,0:0:0:0:
235,246,87363,1,10,1:2:0:0:
235,246,87678,6,0,L|211:357,1,96,2|0,1:2|0:0,0:0:0:0:
214,339,87994,2,0,P|168:347|131:318,1,96,10|0,1:2|0:0,0:0:0:0:
131,318,88310,2,0,P|84:278|26:299,1,128,2|8,1:2|1:2,0:0:0:0:
0,203,88784,5,2,0:3:0:0:
0,203,88863,1,2,0:3:0:0:
0,203,88942,2,0,P|56:175|49:102,1,128,6|0,1:3|1:0,0:0:0:0:
10,43,89415,1,2,0:3:0:0:
58,115,89573,2,0,P|111:108|208:101,1,128,2|0,1:3|1:0,0:0:0:0:
241,25,90047,1,2,0:3:0:0:
290,120,90205,6,0,P|270:182|255:264,1,128,6|0,1:3|1:0,0:0:0:0:
168,278,90678,1,2,0:3:0:0:
237,350,90836,2,0,L|306:338,1,64,2|4,1:3|0:3,0:0:0:0:
450,311,91152,1,2,1:3:0:0:
450,311,91310,2,0,L|381:323,1,64,4|0,0:3|1:0,0:0:0:0:
484,171,91626,6,0,L|496:238,2,64,2|8|2,0:0|1:2|0:0,0:0:0:0:
512,101,92099,1,2,1:2:0:0:
452,49,92257,1,2,0:0:0:0:
390,95,92415,1,10,1:2:0:0:
390,95,92731,6,0,L|320:107,1,64,2|2,1:2|0:0,0:0:0:0:
236,162,93047,2,0,P|189:161|161:125,1,96,10|0,1:2|0:0,0:0:0:0:
161,125,93363,2,0,P|140:185|79:199,1,128,2|10,1:2|1:2,0:0:0:0:
58,99,93836,1,2,0:3:0:0:
9,325,93994,6,0,P|59:283|123:299,1,136.000002593994,6|10,1:3|1:3,0:0:0:0:
259,384,94468,1,2,0:3:0:0:
324,317,94626,2,0,P|311:246|304:170,1,136.000002593994,10|10,1:3|1:3,0:0:0:0:
145,76,95099,1,2,0:3:0:0:
150,164,95257,6,0,P|211:142|229:79,1,136.000002593994,6|10,1:3|1:3,0:0:0:0:
41,48,95731,1,2,0:3:0:0:
54,136,95889,2,0,L|75:286,1,136.000002593994,10|10,1:3|1:3,0:0:0:0:
153,331,96363,1,2,0:3:0:0:
262,264,96521,5,6,1:3:0:0:
162,207,96678,1,2,0:0:0:0:
262,264,96836,2,0,L|336:249,1,68.0000012969971,10|0,1:2|0:0,0:0:0:0:
419,328,97152,2,0,P|480:310|478:231,1,136.000002593994,2|10,1:2|1:2,0:0:0:0:
432,162,97626,6,0,L|447:92,1,68.0000012969971,2|0,0:0|1:0,0:0:0:0:
358,17,97942,2,0,L|343:87,1,68.0000012969971,2|8,0:0|1:2,0:0:0:0:
265,143,98257,1,2,0:0:0:0:
186,86,98415,2,0,B|140:78|113:98|139:110|101:139|58:121,1,136.000002593994,2|8,1:2|1:3,0:0:0:0:
55,2,98889,1,2,1:3:0:0:
180,173,99047,6,0,L|167:248,1,75.9999979705811,10|0,1:3|1:0,0:0:0:0:
84,289,99363,1,0,1:0:0:0:
84,289,99521,1,0,1:0:0:0:
159,355,99678,2,0,L|245:344,1,75.9999979705811,10|0,1:3|1:0,0:0:0:0:
299,272,99994,1,0,1:0:0:0:
299,272,100152,1,0,1:0:0:0:
400,373,100310,6,0,L|390:298,1,75.9999979705811,10|0,1:3|1:0,0:0:0:0:
471,232,100626,1,0,1:0:0:0:
471,232,100784,1,0,1:0:0:0:
401,165,100942,2,0,L|326:175,1,75.9999979705811,10|0,1:3|1:0,0:0:0:0:
315,73,101257,1,10,1:3:0:0:
315,73,101415,2,0,L|390:63,1,75.9999979705811,2|0,1:3|1:0,0:0:0:0:
290,264,101731,6,0,P|225:219|235:147,1,151.999995941162,2|0,1:2|1:0,0:0:0:0:
370,208,102205,1,2,1:2:0:0:
391,291,102363,1,2,1:2:0:0:
315,355,102521,2,0,L|230:345,1,75.9999979705811,10|0,1:2|1:0,0:0:0:0:
19,320,102836,5,2,1:2:0:0:
157,232,102994,1,2,1:2:0:0:
121,371,103152,2,0,L|99:287,1,75.9999979705811,10|0,1:2|0:0,0:0:0:0:
125,56,103468,5,2,0:3:0:0:
38,40,103626,1,2,0:3:0:0:
0,118,103784,1,10,0:3:0:0:
59,179,103942,1,2,0:3:0:0:
227,142,104099,5,6,1:2:0:0:
227,142,104415,2,0,L|136:150,1,83.9999974365235,10|0,0:0|1:0,0:0:0:0:
252,26,104731,1,8,0:0:0:0:
252,26,105047,2,0,L|352:20,1,83.9999974365235,10|0,0:0|1:0,0:0:0:0:
453,83,105363,5,0,1:0:0:0:
394,171,105521,1,0,1:0:0:0:
394,171,105599,1,0,1:0:0:0:
393,171,105678,2,0,L|407:262,1,83.9999974365235,10|0,0:2|1:0,0:0:0:0:
405,254,105915,1,0,1:0:0:0:
404,253,105994,2,0,P|443:263|480:245,1,83.9999974365235,10|0,0:0|1:0,0:0:0:0:
348,341,106310,2,0,P|275:289|212:340,1,167.999994873047,14|0,0:0|1:0,0:0:0:0:
110,372,106784,5,0,1:0:0:0:
110,372,106863,1,0,1:0:0:0:
110,372,106942,2,0,L|102:288,1,83.9999974365235,10|0,0:0|0:0,0:0:0:0:
98,163,107257,1,8,0:0:0:0:
98,163,107573,2,0,L|14:170,1,83.9999974365235,10|0,0:0|1:0,0:0:0:0:
87,24,107889,5,8,0:0:0:0:
179,117,108047,1,8,0:0:0:0:
290,37,108205,1,2,1:2:0:0:
290,37,108521,5,14,1:3:0:0:
313,143,108678,1,6,1:3:0:0:
420,122,108836,1,6,1:3:0:0:
391,16,108994,1,6,1:3:0:0:
313,143,109152,6,0,L|327:238,1,88.000002685547,6|0,1:2|1:0,0:0:0:0:
447,319,109468,2,0,L|468:222,1,88.000002685547,10|0,0:0|1:0,0:0:0:0:
353,382,109784,1,8,0:0:0:0:
353,382,110099,2,0,L|256:361,1,88.000002685547,10|0,0:0|1:0,0:0:0:0:
132,322,110415,5,0,1:0:0:0:
230,275,110573,1,0,1:0:0:0:
230,275,110652,1,0,1:0:0:0:
230,275,110731,2,0,L|249:176,1,88.000002685547,10|0,0:0|1:0,0:0:0:0:
246,188,110968,1,0,1:0:0:0:
246,188,111047,2,0,P|208:166|166:175,1,88.000002685547,10|0,0:0|1:0,0:0:0:0:
319,283,111363,2,0,P|367:208|448:227,1,176.000005371094,14|8,0:0|0:0,0:0:0:0:
410,324,111836,1,0,1:0:0:0:
443,222,111994,6,0,L|430:134,1,88.000002685547,10|0,0:0|1:0,0:0:0:0:
367,16,112310,1,8,0:0:0:0:
512,30,112468,1,0,1:0:0:0:
367,16,112626,2,0,L|280:29,1,88.000002685547,10|0,0:0|1:0,0:0:0:0:
229,219,112942,6,0,P|159:193|151:119,1,155.999992858887,14|0,0:0|0:0,0:0:0:0:
152,120,113257,2,0,P|141:184|136:305,1,155.999992858887,14|0,0:0|0:0,0:0:0:0:
135,274,113573,5,14,1:2:0:0:
135,274,113652,1,4,0:3:0:0:
135,274,113731,1,4,0:3:0:0:
135,274,113810,1,4,0:3:0:0:
135,274,113889,2,0,L|77:262,3,51.999997619629,8|8|4|4,0:3|0:3|0:3|0:3,0:0:0:0:
56,341,114205,6,0,P|145:315|260:298,1,191.999994140625,4|8,1:0|0:0,0:0:0:0:
368,366,114678,2,0,P|393:322|383:276,1,95.9999970703126,2|0,0:2|1:2,0:0:0:0:
280,168,114994,1,2,1:2:0:0:
242,299,115152,1,8,0:2:0:0:
393,181,115310,6,0,P|443:171|505:157,1,95.9999970703126,2|0,1:2|0:2,0:0:0:0:
458,21,115626,2,0,P|412:29|341:46,1,95.9999970703126,2|8,1:2|0:2,0:0:0:0:
232,110,115942,2,0,P|203:63|219:18,1,95.9999970703126,2|0,0:2|1:2,0:0:0:0:
343,120,116257,1,2,1:2:0:0:
237,208,116415,1,10,0:2:0:0:
330,316,116573,6,0,P|272:247|181:270,1,191.999994140625,6|2,1:2|1:2,0:0:0:0:
96,339,117047,1,8,0:2:0:0:
19,207,117205,2,0,L|-2:308,1,95.9999970703126,2|0,0:2|1:2,0:0:0:0:
137,177,117521,1,2,1:2:0:0:
17,94,117678,1,10,0:2:0:0:
137,177,117836,6,0,P|182:189|223:167,1,95.9999970703126,2|0,0:2|1:2,0:0:0:0:
206,18,118152,2,0,P|160:5|119:27,1,95.9999970703126,2|8,1:2|0:2,0:0:0:0:
329,171,118468,1,2,0:2:0:0:
397,94,118626,2,0,L|376:-13,1,95.9999970703126,0|0,1:0|1:2,0:0:0:0:
172,96,118942,1,10,0:2:0:0:
329,171,119099,6,0,B|376:238|376:238|350:287|339:340,1,191.999994140625,6|0,1:2|1:2,0:0:0:0:
274,263,119573,1,10,0:2:0:0:
433,335,119731,1,2,0:2:0:0:
493,263,119889,2,0,L|473:165,1,95.9999970703126,0|0,1:2|1:2,0:0:0:0:
512,56,120205,1,10,0:2:0:0:
367,114,120363,6,0,B|271:72|271:72|218:77|210:123,1,191.999994140625,2|0,1:2|1:2,0:0:0:0:
134,235,120836,1,10,0:2:0:0:
20,155,120994,2,0,L|20:58,1,95.9999970703126,2|0,0:2|1:2,0:0:0:0:
124,134,121310,1,0,1:2:0:0:
14,260,121468,1,10,0:2:0:0:
167,336,121626,6,0,B|219:328|219:328|263:259|263:259|319:248,1,191.999994140625,6|0,1:2|1:2,0:0:0:0:
436,181,122099,2,0,B|473:212|473:212|447:257,1,95.9999970703126,8|0,0:2|1:2,0:0:0:0:
276,154,122415,2,0,L|267:44,1,95.9999970703126,10|0,0:2|1:2,0:0:0:0:
388,61,122731,1,8,0:2:0:0:
319,247,122889,6,0,P|228:255|178:179,1,191.999994140625,6|8,1:2|0:2,0:0:0:0:
145,78,123363,1,4,0:3:0:0:
46,66,123521,1,0,1:2:0:0:
0,150,123678,2,0,L|13:245,1,95.9999970703126,8|0,0:2|1:2,0:0:0:0:
32,339,123994,1,8,0:2:0:0:
193,277,124152,6,0,L|177:175,1,100,2|8,1:2|0:2,0:0:0:0:
217,54,124468,2,0,P|258:26|305:36,1,100,2|8,1:2|0:2,0:0:0:0:
389,170,124784,2,0,P|347:195|299:186,1,100,2|8,1:2|0:2,0:0:0:0:
450,11,125099,2,0,P|462:57|480:114,1,100,2|8,1:2|0:2,0:0:0:0:
378,269,125415,6,0,P|383:214|390:158,1,100,2|8,1:2|0:2,0:0:0:0:
476,348,125731,2,0,P|487:299|512:256,1,100,2|8,1:2|0:2,0:0:0:0:
302,360,126047,2,0,P|290:312|263:271,1,100,2|8,1:2|0:2,0:0:0:0:
105,238,126363,1,2,1:2:0:0:
127,384,126521,1,10,0:2:0:0:
0,268,126678,6,0,P|23:178|36:67,1,200,6|2,1:2|1:2,0:0:0:0:
158,1,127152,1,10,0:2:0:0:
221,124,127310,1,2,1:2:0:0:
385,36,127468,2,0,P|340:24|286:11,1,100,10|0,0:2|1:2,0:0:0:0:
360,145,127784,1,10,0:2:0:0:
464,107,127942,6,0,P|494:68|490:19,1,100,2|8,1:2|0:2,0:0:0:0:
360,145,128257,2,0,P|368:194|378:251,1,100,2|8,1:2|0:2,0:0:0:0:
288,348,128573,2,0,P|242:366|198:345,1,100,2|8,1:2|0:2,0:0:0:0:
247,216,128889,1,0,1:2:0:0:
247,216,128968,1,0,1:2:0:0:
247,216,129047,1,10,0:2:0:0:
180,345,129205,6,0,B|130:373|130:373|55:299|115:227,1,200,6|0,1:2|1:2,0:0:0:0:
178,146,129678,1,10,0:2:0:0:
39,59,129836,1,2,1:2:0:0:
1,148,129994,2,0,P|47:161|90:138,1,100,8|0,0:2|1:2,0:0:0:0:
179,37,130310,1,10,0:2:0:0:
272,154,130468,6,0,P|265:199|257:266,1,100,2|8,1:2|0:2,0:0:0:0:
158,374,130784,1,0,1:2:0:0:
154,236,130942,1,10,0:2:0:0:
271,349,131099,2,0,P|318:337|388:322,1,100,2|8,1:2|0:2,0:0:0:0:
430,210,131415,1,0,1:0:0:0:
507,349,131573,1,10,0:0:0:0:
512,160,131731,6,0,P|432:103|353:155,1,200,6|0,1:2|1:2,0:0:0:0:
304,248,132205,1,8,0:2:0:0:
368,325,132363,1,0,1:2:0:0:
304,248,132521,2,0,P|261:254|205:266,1,100,10|0,0:2|1:2,0:0:0:0:
121,164,132836,1,8,0:2:0:0:
40,234,132994,1,2,1:2:0:0:
59,341,133152,5,12,0:2:0:0:
59,341,133784,5,8,0:0:0:0:
66,327,133889,2,0,L|129:340,1,53.3333333333333,8|4,0:0|0:3,0:0:0:0:
234,258,134099,1,8,0:3:0:0:
227,272,134205,2,0,L|164:259,1,53.3333333333333,8|0,0:3|1:0,0:0:0:0:
87,192,134415,5,6,1:2:0:0:
111,99,134573,1,6,1:3:0:0:
136,9,134731,1,6,1:3:0:0:
256,192,134810,12,0,136784,0:0:0:0:
171,78,136942,5,6,1:3:0:0:
154,173,137099,1,6,1:3:0:0:
139,265,137257,1,6,1:3:0:0:
256,192,137336,12,0,138678,0:0:0:0:
173,217,138836,5,4,0:3:0:0:
173,217,138994,1,0,1:0:0:0:
228,142,139152,1,8,0:0:0:0:
228,142,139468,5,6,1:3:0:0:
288,263,139626,1,6,1:3:0:0:
274,280,140099,1,6,1:3:0:0:
386,151,140257,1,6,1:3:0:0:
368,143,140731,1,6,1:3:0:0:
143,84,140889,1,6,1:3:0:0:
166,68,141363,1,6,1:3:0:0:
223,314,141521,1,6,1:3:0:0:
215,329,141994,6,0,L|175:331,1,40,8|4,1:3|0:3,0:0:0:0:
82,337,142152,2,0,L|42:339,5,40,8|4|4|4|4|4,0:3|0:3|0:3|0:3|0:3|0:3,0:0:0:0:
125,258,142626,6,0,L|120:202,1,53.3333333333333,8|4,0:3|0:3,0:0:0:0:
113,68,142836,2,0,L|117:123,3,53.3333333333333,8|4|4|4,0:3|0:3|0:3|0:3,0:0:0:0:
26,170,143257,5,6,1:2:0:0:
211,155,143415,1,6,1:3:0:0:
211,155,143889,2,0,P|268:150|293:98,1,120,2|8,0:0|0:0,0:0:0:0:
293,98,144205,1,8,0:0:0:0:
293,98,144284,1,8,0:0:0:0:
6,5,144521,6,0,P|25:98|36:194,1,191.999994140625,4|10,1:2|0:2,0:0:0:0:
31,295,144994,1,2,0:2:0:0:
172,297,145152,1,2,1:2:0:0:
123,187,145310,1,2,1:2:0:0:
86,360,145468,1,10,0:2:0:0:
269,280,145626,6,0,B|321:271|321:271|387:341|387:341|441:336,1,191.999994140625,2|0,1:2|1:2,0:0:0:0:
512,248,146099,2,0,L|492:146,1,95.9999970703126,10|0,0:2|0:2,0:0:0:0:
364,71,146415,1,2,1:2:0:0:
364,71,146494,1,2,0:2:0:0:
364,71,146573,1,2,1:2:0:0:
493,18,146731,1,10,0:2:0:0:
379,170,146889,6,0,B|319:172|319:172|279:128|279:128|238:117|188:143,1,191.999994140625,6|0,1:2|1:2,0:0:0:0:
42,203,147363,1,10,0:2:0:0:
147,232,147521,1,2,0:2:0:0:
114,137,147678,1,2,1:2:0:0:
114,137,147757,1,2,1:2:0:0:
114,137,147836,1,2,1:2:0:0:
71,301,147994,1,10,0:2:0:0:
239,323,148152,6,0,P|227:238|206:125,1,191.999994140625,2|0,0:2|1:2,0:0:0:0:
269,20,148626,2,0,P|311:0|354:17,1,95.9999970703126,8|0,0:2|0:2,0:0:0:0:
455,171,148942,2,0,P|457:127|467:72,1,95.9999970703126,2|2,1:2|1:2,0:0:0:0:
319,130,149257,1,10,0:2:0:0:
501,246,149415,6,0,P|418:198|356:263,1,191.999994140625,6|0,1:2|1:2,0:0:0:0:
414,370,149889,2,0,P|461:357|525:345,1,95.9999970703126,10|2,0:2|0:2,0:0:0:0:
357,254,150205,1,2,1:2:0:0:
271,340,150363,1,2,1:2:0:0:
163,300,150521,1,10,0:2:0:0:
103,351,150678,1,2,0:2:0:0:
26,320,150836,6,0,P|-3:258|38:195,1,143.999995605469,2|0,0:2|0:2,0:0:0:0:
48,201,151152,1,8,0:2:0:0:
200,123,151389,5,8,0:2:0:0:
203,110,151468,1,2,1:2:0:0:
104,112,151626,1,2,1:2:0:0:
155,205,151784,1,10,0:2:0:0:
261,193,151942,5,6,1:3:0:0:
261,193,153363,6,0,L|270:278,1,64,8|0,0:2|1:2,0:0:0:0:
325,352,153678,1,8,0:3:0:0:
363,267,153836,1,4,0:3:0:0:
243,337,153994,5,10,0:2:0:0:
419,350,154152,1,10,0:2:0:0:
419,350,154231,1,10,0:2:0:0:
419,350,154310,1,10,0:2:0:0:
268,256,154468,6,0,B|224:223|169:256|197:279|149:316|97:284,1,191.999994140625,6|0,1:2|1:2,0:0:0:0:
21,172,154942,2,0,L|41:76,1,95.9999970703126,8|0,0:2|0:2,0:0:0:0:
160,4,155257,1,2,1:2:0:0:
271,82,155415,1,2,1:2:0:0:
278,76,155494,2,0,L|290:134,1,47.9999985351563,2|8,0:0|0:0,0:0:0:0:
267,213,155731,6,0,P|341:150|413:207,1,191.999994140625,2|0,1:2|1:2,0:0:0:0:
508,285,156205,2,0,P|413:289|303:327,1,191.999994140625,8|0,0:2|1:2,0:0:0:0:
209,367,156678,1,2,1:2:0:0:
209,367,156757,1,2,1:2:0:0:
209,367,156836,1,10,0:2:0:0:
74,323,156994,6,0,B|22:246|22:246|49:202|68:151,1,191.999994140625,6|0,1:2|1:2,0:0:0:0:
148,55,157468,2,0,B|115:0|115:0|23:26|23:26|56:46,1,191.999994140625,10|0,0:2|1:2,0:0:0:0:
65,157,157942,1,0,1:2:0:0:
236,135,158099,1,10,0:2:0:0:
165,240,158257,1,2,0:2:0:0:
236,135,158415,6,0,L|331:155,1,95.9999970703126,2|0,1:2|1:2,0:0:0:0:
475,115,158731,2,0,P|499:73|482:23,1,95.9999970703126,8|0,0:2|0:2,0:0:0:0:
372,66,159047,1,2,1:2:0:0:
372,66,159126,1,2,0:2:0:0:
372,66,159205,1,2,1:2:0:0:
445,206,159363,2,0,P|422:206|399:214,1,47.9999985351563,10|2,0:0|0:0,0:0:0:0:
324,256,159521,6,0,P|237:218|136:215,1,191.999994140625,6|0,1:2|1:2,0:0:0:0:
22,277,159994,2,0,P|-8:236|3:189,1,95.9999970703126,10|2,0:2|0:2,0:0:0:0:
73,101,160310,1,2,1:2:0:0:
73,101,160468,1,2,1:2:0:0:
142,215,160626,1,14,0:2:0:0:
218,93,160784,6,0,B|261:85|261:85|267:88|267:88|329:77,1,95.9999970703126,2|0,1:2|0:2,0:0:0:0:
466,65,161099,1,2,1:2:0:0:
466,65,161178,1,2,0:2:0:0:
466,65,161257,2,0,L|458:2,3,47.9999985351563,10|2|2|2,0:2|0:2|0:2|0:2,0:0:0:0:
394,123,161573,2,0,L|401:190,3,47.9999985351563,2|2|2|2,1:2|0:2|1:2|0:2,0:0:0:0:
504,244,161889,1,10,0:2:0:0:
504,244,161968,1,2,0:2:0:0:
504,244,162047,2,0,L|497:176,1,47.9999985351563,2|2,1:2|0:2,0:0:0:0:
413,271,162205,2,0,L|420:339,3,47.9999985351563,2|2|2|0,0:2|0:2|1:2|0:2,0:0:0:0:
325,223,162521,5,14,0:2:0:0:
325,223,162599,1,2,1:2:0:0:
325,223,162678,2,0,P|300:216|274:221,1,51.999997619629,2|2,1:2|0:2,0:0:0:0:
187,324,162836,1,14,0:2:0:0:
187,324,162915,1,2,1:2:0:0:
187,324,162994,2,0,P|211:330|237:325,1,51.999997619629,2|2,1:2|0:2,0:0:0:0:
149,212,163152,2,0,P|124:205|98:210,1,51.999997619629,14|2,0:2|0:2,0:0:0:0:
25,276,163310,6,0,P|76:200|27:113,1,191.999994140625,6|8,1:2|0:2,0:0:0:0:
35,117,163705,1,8,0:2:0:0:
35,117,163784,1,8,0:2:0:0:
65,22,163942,1,8,0:2:0:0:
153,74,164099,2,0,L|211:63,3,47.9999985351563,8|8|4|4,0:3|0:3|0:3|0:3,0:0:0:0:
200,65,164415,2,0,L|273:51,1,71.9999978027344,8|4,0:3|0:3,0:0:0:0:
400,19,164731,5,4,1:2:0:0:
400,19,165047,2,0,L|415:94,1,71.9999978027344,10|0,0:2|0:2,0:0:0:0:
441,187,165363,1,8,0:2:0:0:
441,187,165521,1,8,0:2:0:0:
348,164,165678,2,0,L|277:178,1,71.9999978027344,10|0,0:2|0:2,0:0:0:0:
170,194,165994,5,8,0:2:0:0:
244,299,166152,1,2,0:2:0:0:
244,299,166231,1,2,0:2:0:0:
244,299,166310,2,0,L|234:248,2,35.9999989013672,10|8|2,0:2|0:2|0:2,0:0:0:0:
144,348,166626,2,0,L|132:275,1,71.9999978027344,10|0,0:2|0:2,0:0:0:0:
41,381,166942,2,0,L|29:309,1,71.9999978027344,8|8,0:3|0:2,0:0:0:0:
29,309,167178,1,8,0:2:0:0:
29,309,167257,1,0,1:2:0:0:
51,216,167415,5,8,0:2:0:0:
51,216,167494,1,8,0:2:0:0:
51,216,167573,2,0,L|39:146,1,71.9999978027344,10|0,0:2|0:2,0:0:0:0:
38,145,167810,1,8,0:2:0:0:
38,145,167889,1,8,0:2:0:0:
169,25,168126,1,8,0:2:0:0:
184,24,168205,2,0,L|196:94,1,71.9999978027344,10|8,0:2|0:2,0:0:0:0:
219,212,168521,5,8,0:2:0:0:
219,212,168599,1,8,0:2:0:0:
219,212,168678,2,0,L|170:222,2,35.9999989013672,10|10|8,0:2|0:2|0:3,0:0:0:0:
183,219,169152,5,6,1:3:0:0:
248,322,169310,1,6,1:3:0:0:
369,340,169468,1,6,1:3:0:0:
462,261,169626,1,6,1:3:0:0:
400,85,169784,6,0,L|390:164,1,80,4|0,1:2|1:2,0:0:0:0:
323,270,170099,2,0,P|269:231|282:166,1,120,14|0,0:2|1:2,0:0:0:0:
270,182,170415,2,0,L|188:172,1,80,12|0,0:2|1:0,0:0:0:0:
53,281,170731,6,0,B|99:279|111:241|111:241|88:140,1,160,10|8,0:2|0:2,0:0:0:0:
124,2,171205,1,2,1:2:0:0:
23,73,171363,1,14,0:0:0:0:
189,86,171521,1,2,1:2:0:0:
196,89,171599,1,0,1:2:0:0:
202,93,171678,2,0,L|190:172,1,80,10|0,0:2|1:2,0:0:0:0:
264,278,171994,2,0,P|321:280|355:234,1,120,10|0,0:2|1:2,0:0:0:0:
355,234,172310,6,0,P|333:270|345:311,1,88.000002685547,6|0,1:2|1:2,0:0:0:0:
490,322,172626,2,0,P|511:285|499:244,1,88.000002685547,10|0,0:2|1:2,0:0:0:0:
418,162,172942,1,8,0:2:0:0:
487,80,173099,1,0,1:2:0:0:
373,0,173257,2,0,L|361:109,1,88.000002685547,10|0,0:2|1:2,0:0:0:0:
284,205,173573,5,14,1:2:0:0:
206,38,173810,1,8,0:2:0:0:
206,23,173889,1,10,1:2:0:0:
85,169,174126,1,8,0:2:0:0:
70,181,174205,1,8,1:2:0:0:
186,135,174836,5,4,0:3:0:0:
253,330,184310,6,0,B|286:354|286:354|234:372|191:334|234:307|161:291|124:313,1,224,2|0,0:2|0:2,0:0:0:0:
124,313,184942,6,0,P|159:263|112:192,1,128,2|0,1:3|1:2,0:0:0:0:
45,166,185415,1,2,0:0:0:0:
89,85,185573,2,0,P|156:69|241:50,1,128,8|0,0:0|0:0,0:0:0:0:
309,77,186047,6,0,L|327:143,1,64,8|0,0:2|1:2,0:0:0:0:
274,228,186363,2,0,L|234:238,2,32,2|0|0,0:2|1:2|1:2,0:0:0:0:
363,302,186678,1,2,1:2:0:0:
363,302,186757,1,0,1:2:0:0:
363,302,186836,2,0,L|402:290,3,32,8|0|0|0,0:2|1:2|1:2|1:2,0:0:0:0:
393,292,187152,2,0,L|371:212,1,64,2|2,1:2|0:2,0:0:0:0:
497,100,187468,6,0,P|483:156|470:249,2,128,2|0|8,1:3|1:2|0:2,0:0:0:0:
497,100,188573,1,10,0:2:0:0:
416,35,188731,1,0,1:2:0:0:
416,35,188810,1,0,1:2:0:0:
416,35,188889,2,0,L|408:-6,2,32,2|0|0,1:2|1:2|1:2,0:0:0:0:
361,127,189205,1,2,1:2:0:0:
361,127,189284,1,0,1:0:0:0:
361,127,189363,2,0,L|374:199,1,64,10|0,0:2|1:2,0:0:0:0:
372,189,189599,1,0,1:2:0:0:
372,189,189678,2,0,L|386:261,1,64,2|2,1:2|0:2,0:0:0:0:
310,349,189994,6,0,P|241:351|208:288,1,128,2|0,1:3|1:2,0:0:0:0:
289,265,190468,1,2,0:2:0:0:
212,200,190626,2,0,P|136:215|71:230,1,128,8|0,0:2|0:2,0:0:0:0:
7,169,191099,1,10,0:2:0:0:
79,96,191257,6,0,L|159:82,1,64,0|0,1:2|1:2,0:0:0:0:
143,85,191494,1,0,1:2:0:0:
143,85,191573,1,2,1:2:0:0:
207,0,191731,1,2,1:2:0:0:
298,46,191889,2,0,L|307:93,3,32,8|0|0|0,0:2|1:2|1:2|1:2,0:0:0:0:
304,77,192205,2,0,L|317:145,1,64,2|0,1:2|0:2,0:0:0:0:
344,229,192521,5,6,1:3:0:0:
344,229,193784,5,2,1:3:0:0:
323,236,193863,1,2,1:3:0:0:
301,236,193942,1,2,1:3:0:0:
280,230,194021,1,2,1:3:0:0:
267,213,194099,2,0,L|267:163,3,35.9999989013672,8|8|8|8,1:2|0:2|0:2|0:2,0:0:0:0:
210,100,194415,5,6,1:2:0:0:
180,79,194494,1,0,1:0:0:0:
143,78,194573,1,4,0:3:0:0:
110,93,194652,1,4,0:3:0:0:
88,121,194731,2,0,L|89:171,3,35.9999989013672,8|8|6|4,0:3|0:3|0:3|0:3,0:0:0:0:
140,218,195047,6,0,P|76:184|6:270,1,191.999994140625,4|8,1:0|0:2,0:0:0:0:
112,359,195521,1,2,1:2:0:0:
112,359,195599,1,0,1:2:0:0:
112,359,195678,1,8,0:2:0:0:
214,280,195836,2,0,P|265:268|320:267,1,95.9999970703126,2|8,1:2|0:2,0:0:0:0:
485,315,196152,6,0,P|510:275|501:229,1,95.9999970703126,2|8,1:2|0:2,0:0:0:0:
373,113,196468,2,0,P|383:172|390:227,1,95.9999970703126,2|8,1:2|0:2,0:0:0:0:
307,352,196784,1,2,1:2:0:0:
307,352,196863,1,0,1:2:0:0:
307,352,196942,2,0,P|352:340|420:337,1,95.9999970703126,8|0,0:2|1:2,0:0:0:0:
233,199,197257,1,10,0:2:0:0:
110,323,197415,6,0,P|36:267|67:181,1,191.999994140625,6|2,1:2|1:2,0:0:0:0:
62,184,197810,1,0,1:2:0:0:
62,184,197889,1,8,0:2:0:0:
193,79,198047,2,0,P|145:72|87:62,1,95.9999970703126,2|8,1:2|0:2,0:0:0:0:
233,199,198363,1,2,1:2:0:0:
325,83,198521,1,10,0:2:0:0:
433,171,198678,6,0,P|423:221|416:287,1,95.9999970703126,2|8,1:2|0:2,0:0:0:0:
312,355,198994,2,0,P|266:365|224:342,1,95.9999970703126,2|8,1:2|0:2,0:0:0:0:
235,205,199310,1,2,1:2:0:0:
235,205,199389,1,0,1:2:0:0:
235,205,199468,2,0,P|278:191|322:211,1,95.9999970703126,8|0,0:2|1:2,0:0:0:0:
408,361,199784,1,10,0:2:0:0:
510,217,199942,6,0,B|517:169|529:115|529:115|498:65|452:82,1,191.999994140625,6|0,1:2|1:2,0:0:0:0:
337,133,200415,1,10,0:2:0:0:
241,10,200573,1,2,1:2:0:0:
241,10,200652,1,0,1:2:0:0:
241,10,200731,2,0,P|286:19|350:32,1,95.9999970703126,8|0,0:2|1:2,0:0:0:0:
179,122,201047,1,10,0:2:0:0:
104,0,201205,1,2,1:2:0:0:
25,150,201363,6,0,P|17:102|8:55,1,95.9999970703126,8|0,0:2|1:2,0:0:0:0:
159,206,201678,1,10,0:2:0:0:
99,314,201836,2,0,P|56:334|11:323,1,95.9999970703126,2|8,1:2|0:2,0:0:0:0:
44,233,202152,1,0,1:2:0:0:
175,372,202310,1,10,0:2:0:0:
247,161,202468,6,0,B|303:174|303:174|341:252|341:252|393:268,1,191.999994140625,6|0,1:2|1:2,0:0:0:0:
502,316,202942,2,0,B|533:278|533:278|502:229,1,95.9999970703126,8|0,0:2|1:2,0:0:0:0:
507,238,203178,1,0,1:2:0:0:
507,238,203257,1,10,0:2:0:0:
412,142,203415,1,0,1:2:0:0:
506,57,203573,1,8,0:2:0:0:
412,142,203731,6,0,P|367:134|317:127,1,95.9999970703126,2|8,1:2|0:2,0:0:0:0:
208,45,204047,1,0,1:0:0:0:
87,159,204205,2,0,P|70:108|99:68,1,95.9999970703126,8|0,0:2|1:2,0:0:0:0:
199,209,204521,1,8,0:2:0:0:
41,252,204678,1,8,0:2:0:0:
144,334,204836,1,8,0:2:0:0:
144,334,204915,1,8,0:2:0:0:
144,334,204994,1,8,0:2:0:0:
199,209,205152,6,0,P|248:219|309:232,1,95.9999970703126,4|2,1:1|1:2,0:0:0:0:
428,226,205468,1,8,0:2:0:0:
353,115,205626,1,2,1:2:0:0:
353,115,205705,1,0,1:2:0:0:
353,115,205784,1,8,0:2:0:0:
453,42,205942,2,0,P|479:80|474:127,1,95.9999970703126,2|8,1:2|0:2,0:0:0:0:
266,23,206257,6,0,L|158:7,1,95.9999970703126,2|8,1:2|0:2,0:0:0:0:
35,40,206573,2,0,P|9:79|21:124,1,95.9999970703126,2|8,1:2|0:2,0:0:0:0:
125,217,206889,1,2,1:2:0:0:
125,217,206968,1,0,1:2:0:0:
125,217,207047,1,8,0:2:0:0:
105,91,207205,1,2,1:2:0:0:
10,224,207363,1,10,0:2:0:0:
191,140,207521,6,0,B|233:113|300:151|258:151|309:203|365:175,1,191.999994140625,6|2,1:2|1:2,0:0:0:0:
365,174,207915,1,0,1:2:0:0:
365,174,207994,1,10,0:2:0:0:
496,231,208152,2,0,P|512:187|491:145,1,95.9999970703126,2|8,1:2|0:2,0:0:0:0:
378,287,208468,1,2,1:2:0:0:
494,349,208626,1,10,0:2:0:0:
378,287,208784,6,0,P|335:296|265:310,1,95.9999970703126,2|8,1:2|0:2,0:0:0:0:
157,376,209099,2,0,P|127:335|142:285,1,95.9999970703126,2|8,1:2|0:2,0:0:0:0:
200,118,209415,1,2,1:2:0:0:
200,111,209494,1,0,1:2:0:0:
201,104,209573,2,0,P|230:144|215:194,1,95.9999970703126,8|0,0:2|1:2,0:0:0:0:
55,199,209889,1,10,0:2:0:0:
91,42,210047,6,0,P|190:20|281:10,1,191.999994140625,6|0,1:2|1:2,0:0:0:0:
427,42,210521,1,10,0:2:0:0:
346,129,210678,1,2,1:2:0:0:
346,129,210757,1,0,1:2:0:0:
346,129,210836,2,0,L|366:232,1,95.9999970703126,8|0,0:2|1:2,0:0:0:0:
497,376,211152,1,10,0:2:0:0:
502,218,211310,1,10,0:2:0:0:
386,336,211468,6,0,P|340:343|284:359,1,95.9999970703126,8|0,0:2|1:2,0:0:0:0:
140,312,211784,1,10,0:2:0:0:
232,186,211942,1,2,1:2:0:0:
236,181,212021,1,0,1:2:0:0:
240,175,212099,2,0,P|250:221|265:279,1,95.9999970703126,8|0,0:2|1:2,0:0:0:0:
346,129,212415,1,10,0:2:0:0:
166,45,212573,6,0,P|76:56|60:145,1,191.999994140625,6|0,1:2|1:2,0:0:0:0:
59,143,212968,1,0,1:2:0:0:
59,143,213047,1,8,0:2:0:0:
155,238,213205,1,0,1:2:0:0:
60,350,213363,2,0,P|47:297|30:245,1,95.9999970703126,10|0,0:2|1:2,0:0:0:0:
199,153,213678,1,8,0:2:0:0:
241,264,213836,1,10,0:2:0:0:
365,297,213994,6,0,P|430:275|512:263,1,132.00000402832,6|0,1:2|1:2,0:0:0:0:
492,264,214310,2,0,L|484:215,3,44.0000013427735,0|0|8|0,1:2|1:2|1:3|1:2,0:0:0:0:
460,140,214626,2,0,L|452:96,3,44.0000013427735,10|8|8|8,1:2|1:3|1:3|1:3,0:0:0:0:
501,31,214942,1,10,1:3:0:0:
368,17,215099,5,2,1:2:0:0:
368,17,215178,1,4,1:3:0:0:
368,17,215257,2,0,B|317:5|317:5|245:60|245:60|179:42,1,191.999994140625,6|0,1:2|1:2,0:0:0:0:
91,9,215731,1,8,0:2:0:0:
19,169,215889,2,0,B|-11:131|-11:131|15:91,1,95.9999970703126,2|8,1:2|0:2,0:0:0:0:
147,129,216205,1,0,1:2:0:0:
147,129,216284,1,0,1:2:0:0:
147,129,216363,1,8,0:2:0:0:
93,248,216521,6,0,L|-20:276,1,95.9999970703126,2|8,1:2|0:2,0:0:0:0:
202,381,216836,2,0,L|193:334,2,47.9999985351563,0|0|8,1:2|1:2|0:2,0:0:0:0:
269,222,217152,2,0,P|314:198|358:215,1,95.9999970703126,2|8,1:2|0:2,0:0:0:0:
333,329,217468,1,0,1:2:0:0:
333,329,217547,1,0,1:2:0:0:
333,329,217626,1,8,0:2:0:0:
497,365,217784,6,0,L|513:266,1,95.9999970703126,2|8,1:2|0:2,0:0:0:0:
342,165,218099,2,0,L|357:223,2,47.9999985351563,0|0|8,1:2|1:2|0:2,0:0:0:0:
491,32,218415,2,0,P|438:18|399:43,1,95.9999970703126,2|8,1:2|0:2,0:0:0:0:
469,172,218731,1,0,1:2:0:0:
469,172,218810,1,0,1:2:0:0:
469,172,218889,1,8,0:2:0:0:
284,68,219047,6,0,P|241:82|181:98,1,95.9999970703126,2|8,1:2|0:2,0:0:0:0:
192,95,219284,1,8,0:2:0:0:
192,95,219363,1,0,1:2:0:0:
112,10,219521,1,8,0:3:0:0:
25,84,219678,1,2,1:2:0:0:
25,84,219757,1,0,1:2:0:0:
25,84,219836,1,8,0:3:0:0:
93,174,219994,2,0,P|85:221|78:289,1,95.9999970703126,8|4,1:3|0:3,0:0:0:0:
265,384,220310,6,0,B|312:372|312:372|321:375|321:375|389:358,1,100,14|8,1:2|1:2,0:0:0:0:
492,306,220626,1,2,1:2:0:0:
377,217,220784,1,2,1:2:0:0:
377,217,220863,1,0,1:2:0:0:
377,217,220942,2,0,P|356:172|372:126,1,100,10|8,1:2|1:2,0:0:0:0:
511,176,221257,1,2,1:2:0:0:
511,176,221336,1,0,1:2:0:0:
511,176,221415,1,2,1:2:0:0:
480,38,221573,6,0,P|430:28|381:21,1,100,10|8,1:2|1:2,0:0:0:0:
252,83,221889,1,2,1:2:0:0:
252,83,221968,1,0,1:2:0:0:
252,83,222047,1,2,1:2:0:0:
322,239,222205,2,0,B|361:202|361:202|344:159,1,100,10|8,1:2|1:2,0:0:0:0:
201,199,222521,1,2,1:2:0:0:
201,199,222599,1,0,1:2:0:0:
201,199,222678,1,2,1:2:0:0:
152,342,222836,6,0,L|199:325,2,50,10|0|8,1:2|1:0|1:2,0:0:0:0:
0,273,223152,1,2,1:2:0:0:
74,142,223310,1,2,1:2:0:0:
74,142,223389,1,0,1:2:0:0:
74,142,223468,2,0,L|104:255,1,100,10|8,1:2|1:2,0:0:0:0:
39,368,223784,1,2,1:2:0:0:
39,368,223863,1,0,1:2:0:0:
39,368,223942,1,2,1:2:0:0:
196,235,224099,5,10,1:2:0:0:
287,368,224257,1,10,1:2:0:0:
405,260,224415,1,0,1:2:0:0:
393,232,224494,1,0,1:2:0:0:
367,216,224573,1,4,0:3:0:0:
337,214,224652,1,4,0:3:0:0:
309,226,224731,2,0,L|316:174,3,50,10|4|8|8,1:2|0:3|1:2|1:3,0:0:0:0:
249,109,225047,2,0,L|255:59,3,50,8|8|8|8,1:3|1:3|1:3|1:3,0:0:0:0:
342,28,225363,6,0,P|400:69|457:32,1,132.00000402832,6|4,1:2|3:3,0:0:0:0:
449,45,225678,2,0,B|412:9|412:9|435:145,1,176.000005371094,8|4,0:2|0:3,0:0:0:0:
474,340,226231,1,8,0:3:0:0:
483,342,226310,2,0,L|474:283,2,44.0000013427735,4|4|4,0:3|0:3|0:3,0:0:0:0:
375,343,226626,6,0,P|322:317|270:352,1,120,4|4,1:3|0:3,0:0:0:0:
273,347,226942,1,8,0:3:0:0:
150,327,227178,1,8,0:3:0:0:
151,350,227257,1,8,0:3:0:0:
10,226,227573,5,4,0:3:0:0:
9,211,227652,1,8,0:2:0:0:
81,170,227810,1,8,0:2:0:0:
76,147,227889,1,14,0:3:0:0:
0,116,228047,6,0,P|76:111|174:113,1,160,6|4,1:2|0:3,0:0:0:0:
281,28,228599,5,4,0:3:0:0:
419,83,228915,5,4,0:3:0:0:
422,202,229310,5,4,0:3:0:0:
337,261,229784,5,4,0:3:0:0:
264,218,230257,5,4,0:3:0:0:
