osu file format v14

[General]
AudioFilename: audio.mp3
AudioLeadIn: 0
PreviewTime: 113731
Countdown: 0
SampleSet: Soft
StackLeniency: 0.7
Mode: 0
LetterboxInBreaks: 0
WidescreenStoryboard: 1

[Editor]
Bookmarks: 510,13141,23246,33352,43457,53562,63510,73773,83878,93983,104088,114194,124141,134404,144510,154457,164720,174825,184931,195036,204983,215246,220299,225352,230246
DistanceSpacing: 0.2
BeatDivisor: 4
GridSize: 4
TimelineZoom: 2.5

[Metadata]
Title:99
TitleUnicode:99
Artist:MOB CHOIR
ArtistUnicode:MOB CHOIR
Creator:AirinCat
Version:FUJU'S EXPERT
Source:モブサイコ100
Tags:FuJu Mob Psycho 100 opening first season 1 1st anime japanese english Hyaku One Hundred full version sana sajou no hana rock jrock
BeatmapID:2548619
BeatmapSetID:1221343

[Difficulty]
HPDrainRate:5.5
CircleSize:4.1
OverallDifficulty:8.5
ApproachRate:9.1
SliderMultiplier:1.6
SliderTickRate:1

[Events]
//Background and Video events
0,0,"shigeo.jpg",0,0
//Break Periods
2,175036,183726
//Storyboard Layer 0 (Background)
//Storyboard Layer 1 (Fail)
//Storyboard Layer 2 (Pass)
//Storyboard Layer 3 (Foreground)
//Storyboard Layer 4 (Overlay)
//Storyboard Sound Samples

[TimingPoints]
521,315.789473684211,4,2,1,30,1,0
521,-105.263157894737,4,2,1,30,0,0
1073,-105.263157894737,4,2,1,32,0,0
1152,-105.263157894737,4,2,1,36,0,0
1468,-105.263157894737,4,2,1,40,0,0
1784,-105.263157894737,4,2,1,45,0,0
2099,-105.263157894737,4,2,1,50,0,0
2415,-250.000000000001,4,2,1,55,0,0
3047,-285.714285714287,4,2,1,25,0,0
11731,-60.6060606060606,4,2,1,50,0,0
11809,-60.6060606060606,4,2,1,5,0,0
11888,-60.6060606060606,4,2,1,70,0,0
13152,-125,4,2,1,60,0,0
20731,-90.9090909090909,4,2,1,60,0,0
21994,-125,4,2,1,70,0,0
22942,-125,4,2,1,60,0,0
23257,-95.238095238095,4,2,1,66,0,0
24521,-95.238095238095,4,2,1,66,0,0
26889,-95.238095238095,4,2,1,66,0,0
33047,-95.238095238095,4,2,1,66,0,0
36994,-95.238095238095,4,2,1,66,0,0
39047,-95.238095238095,4,2,1,66,0,0
40626,-95.238095238095,4,2,1,66,0,0
40784,-95.238095238095,4,2,1,66,0,0
41573,-95.238095238095,4,2,1,66,0,0
41888,-95.238095238095,4,2,1,66,0,0
42047,-95.238095238095,4,2,1,66,0,0
43468,-117.647058823529,4,2,1,50,0,0
45363,-117.647058823529,4,2,1,50,0,0
45678,-117.647058823529,4,2,1,50,0,0
45836,-117.647058823529,4,2,1,60,0,0
47967,-117.647058823529,4,2,1,5,0,0
48047,-117.647058823529,4,2,1,60,0,0
48125,-117.647058823529,4,2,1,5,0,0
48205,-117.647058823529,4,2,1,60,0,0
48283,-117.647058823529,4,2,1,5,0,0
48363,-117.647058823529,4,2,1,60,0,0
48441,-117.647058823529,4,2,1,5,0,0
48521,-105.263157894737,4,2,1,70,0,0
52310,-86.9565217391304,4,2,1,70,0,0
53099,-153.846153846154,4,2,1,40,0,0
53573,-86.9565217391304,4,2,1,76,0,1
63521,-83.3333333333333,4,2,1,80,0,1
72521,-250.000000000001,4,2,1,60,0,0
72836,-250.000000000001,4,2,1,5,0,0
73152,-117.647058823529,4,2,1,60,0,0
73784,-105.263157894737,4,2,1,60,0,0
80415,-105.263157894737,4,2,1,60,0,0
82626,-105.263157894737,4,2,1,40,0,0
83889,-117.647058823529,4,2,1,50,0,0
86099,-117.647058823529,4,2,1,50,0,0
87599,-117.647058823529,4,2,1,5,0,0
87678,-117.647058823529,4,2,1,50,0,0
87914,-117.647058823529,4,2,1,5,0,0
87994,-117.647058823529,4,2,1,50,0,0
88230,-117.647058823529,4,2,1,5,0,0
88310,-117.647058823529,4,2,1,50,0,0
88546,-117.647058823529,4,2,1,5,0,0
88626,-117.647058823529,4,2,1,50,0,0
93283,-117.647058823529,4,2,1,5,0,0
93363,-117.647058823529,4,2,1,50,0,0
93994,-111.111111111111,4,2,1,56,0,0
95731,-111.111111111111,4,2,1,56,0,0
99047,-111.111111111111,4,2,1,60,0,0
100310,-105.263157894737,4,2,1,60,0,0
104099,-86.9565217391306,4,2,1,66,0,0
108599,-86.9565217391306,4,2,1,5,0,0
108678,-86.9565217391306,4,2,1,66,0,0
108756,-86.9565217391306,4,2,1,5,0,0
108836,-86.9565217391306,4,2,1,66,0,0
108914,-86.9565217391306,4,2,1,5,0,0
108993,-86.9565217391306,4,2,1,66,0,0
109073,-86.9565217391306,4,2,1,5,0,0
109152,-83.3333333333333,4,2,1,66,0,0
112942,-83.3333333333333,4,2,1,70,0,0
114205,-86.9565217391304,4,2,1,76,0,1
114521,-86.9565217391304,4,2,1,76,0,1
124152,-83.3333333333333,4,2,1,80,0,1
133152,-250,4,2,1,60,0,0
133468,-250,4,2,1,5,0,0
133784,-117.647058823529,4,2,1,60,0,0
136942,-117.647058823529,4,2,1,60,0,0
139468,-105.263157894737,4,2,1,66,0,0
143257,-100,4,2,1,60,0,0
144521,-86.9565217391304,4,2,1,76,0,0
153363,-86.9565217391304,4,2,1,40,0,0
153521,-86.9565217391304,4,2,1,40,0,0
154468,-86.9565217391304,4,2,1,76,0,0
162521,-80,4,2,1,78,0,0
164415,-117.647058823529,4,2,1,60,0,0
164731,-117.647058823529,4,2,1,50,0,0
165994,-117.647058823529,4,2,1,50,0,0
169231,-117.647058823529,4,2,1,5,0,0
169310,-117.647058823529,4,2,1,50,0,0
169389,-117.647058823529,4,2,1,5,0,0
169468,-117.647058823529,4,2,1,50,0,0
169547,-117.647058823529,4,2,1,5,0,0
169626,-117.647058823529,4,2,1,50,0,0
169705,-117.647058823529,4,2,1,5,0,0
169784,-86.9565217391304,4,2,1,70,0,0
172310,-83.3333333333333,4,2,1,70,0,0
184310,-250,4,2,1,30,0,0
184626,-250,4,2,1,5,0,0
184862,-250,4,2,1,5,0,0
184942,-117.647058823529,4,2,1,50,0,0
193784,-95.238095238095,4,2,1,50,0,0
195047,-83.3333333333333,4,2,1,80,0,1
204994,-80,4,2,1,80,0,1
213994,-86.9565217391304,4,2,1,70,0,0
215257,-86.9565217391304,4,2,1,80,0,1
220310,-80,4,2,1,84,0,1
225363,-83.3333333333333,4,2,1,60,0,0
228599,-83.3333333333333,4,2,1,60,0,0
230257,-95.2380952380952,4,2,1,60,0,0

[Colours]
Combo1 : 217,179,255
Combo2 : 187,220,184
Combo3 : 244,174,228
Combo4 : 228,203,203

[HitObjects]
32,61,521,6,0,L|40:24,5,37.9999989852906,2|0|0|0|0|0,1:2|2:2|2:2|2:2|2:2|2:2,2:2:0:0:
60,136,994,1,0,3:0:0:0:
68,128,1073,1,8,3:2:0:0:
76,122,1152,2,0,P|95:116|113:112,3,37.9999989852906,2|0|0|0,3:2|3:2|3:2|3:2,0:2:0:0:
150,36,1468,2,0,P|167:45|183:55,3,37.9999989852906,8|0|0|0,3:2|3:2|3:2|3:2,0:2:0:0:
192,132,1784,5,10,0:2:0:0:
136,249,1942,1,0,3:2:0:0:
131,238,2021,1,0,3:2:0:0:
127,227,2099,2,0,L|134:190,1,37.9999989852906,8|0,3:2|3:2,0:2:0:0:
51,275,2257,2,0,L|29:243,1,37.9999989852906,8|0,3:2|3:2,0:2:0:0:
58,363,2415,5,4,1:3:0:0:
68,369,3047,6,0,P|115:335|173:346,3,111.999996582031,4|2|2|2,1:2|0:2|0:2|0:2,0:2:0:0:
471,384,5573,2,0,P|479:328|489:273,3,111.999996582031,2|2|2|2,0:2|0:2|0:2|0:2,0:2:0:0:
180,97,8099,2,0,P|227:131|285:120,3,111.999996582031,2|2|2|2,0:2|0:2|0:2|0:2,0:2:0:0:
68,369,10626,2,0,B|34:324|34:324|51:271,1,111.999996582031,2|2,0:2|0:2,0:2:0:0:
50,271,11731,6,0,P|67:241|61:211,1,66.0000006294251,12|0,0:2|0:2,0:2:0:0:
19,150,11889,1,2,0:0:0:0:
332,117,13152,6,0,L|399:127,1,64,4|4,1:2|1:3,0:0:0:0:
472,84,13468,5,4,1:3:0:0:
472,84,13784,1,2,0:2:0:0:
260,159,14415,1,2,0:2:0:0:
260,159,15047,1,2,0:2:0:0:
180,267,15521,5,0,1:2:0:0:
180,267,15599,1,0,1:2:0:0:
180,267,15678,2,0,L|116:256,1,64,4|4,1:2|1:3,0:0:0:0:
40,300,15994,1,4,1:3:0:0:
40,300,16310,1,2,0:2:0:0:
263,151,16942,6,0,L|327:162,1,64,2|0,0:2|0:0,0:0:0:0:
427,195,17257,1,2,0:2:0:0:
427,195,17573,1,2,1:2:0:0:
394,292,17731,1,0,1:2:0:0:
296,261,17889,1,10,0:2:0:0:
309,82,18205,6,0,L|296:2,1,64,6|4,1:3|1:3,0:0:0:0:
404,0,18836,1,6,1:3:0:0:
402,12,18994,1,4,1:3:0:0:
209,234,19468,6,0,L|221:313,1,64,6|4,1:3|1:3,0:0:0:0:
144,356,20099,1,6,1:3:0:0:
146,344,20257,1,2,1:3:0:0:
114,118,20731,5,10,0:3:0:0:
114,118,20810,1,4,0:3:0:0:
114,118,20889,1,10,0:3:0:0:
114,118,20968,1,4,0:3:0:0:
114,118,21047,2,0,L|109:73,3,44.0000013427735,4|4|4|4,0:3|0:3|0:3|0:3,0:2:0:0:
185,186,21363,5,10,0:3:0:0:
192,176,21468,2,0,L|250:168,1,58.6666684570313,8|4,0:3|0:3,0:2:0:0:
426,261,21678,1,4,0:3:0:0:
419,271,21784,2,0,L|360:278,1,58.6666684570313,4|4,0:3|0:3,0:2:0:0:
341,187,21994,5,6,1:2:0:0:
327,100,22152,1,0,0:2:0:0:
313,13,22310,1,2,0:2:0:0:
321,8,22468,1,0,0:2:0:0:
250,167,22626,2,0,L|179:177,1,64,2|0,0:2|0:2,0:2:0:0:
361,278,22942,5,8,0:2:0:0:
408,278,23021,1,8,0:2:0:0:
440,311,23099,1,8,0:2:0:0:
439,358,23178,1,8,0:2:0:0:
405,383,23257,6,0,P|322:368|239:355,1,167.999994873047,6|8,1:2|0:2,0:2:0:0:
206,268,23731,1,0,0:2:0:0:
121,381,23889,2,0,P|106:342|118:303,1,83.9999974365235,2|0,1:2|0:2,0:2:0:0:
206,268,24205,1,8,0:2:0:0:
38,214,24363,1,0,1:2:0:0:
44,219,24442,1,0,1:0:0:0:
50,224,24521,6,0,P|91:216|132:210,1,83.9999974365235,2|0,1:2|1:2,0:2:0:0:
193,124,24836,1,8,0:2:0:0:
287,212,24994,1,0,1:2:0:0:
427,68,25152,2,0,B|367:77|367:77|357:89|357:89|304:99,1,125.999996154785,2|0,1:2|0:2,0:2:0:0:
308,98,25468,2,0,P|287:63|300:25,1,83.9999974365235,8|0,0:2|0:2,0:2:0:0:
427,153,25784,5,2,1:2:0:0:
420,157,25863,1,0,1:2:0:0:
413,162,25942,2,0,L|399:226,1,41.9999987182618,0|0,1:2|1:2,0:2:0:0:
444,286,26099,1,10,0:2:0:0:
376,349,26257,1,2,0:2:0:0:
295,303,26415,1,2,1:2:0:0:
288,299,26494,1,0,1:2:0:0:
281,294,26573,2,0,L|267:230,1,41.9999987182618,0|0,1:2|1:2,0:2:0:0:
183,200,26731,2,0,P|186:179|194:159,1,41.9999987182618,10|0,0:0|0:0,0:0:0:0:
118,277,26889,6,0,B|30:247|30:247|-11:260|0:306,1,167.999994873047,2|2,0:2|1:2,0:2:0:0:
3,314,27284,1,0,1:2:0:0:
8,319,27363,1,8,0:2:0:0:
97,185,27521,1,2,1:2:0:0:
74,0,27678,2,0,P|59:61|42:122,1,125.999996154785,2|0,1:2|0:2,0:2:0:0:
42,121,27994,2,0,B|73:95|73:95|121:104,1,83.9999974365235,8|0,0:2|0:2,0:2:0:0:
188,227,28310,5,2,1:2:0:0:
186,218,28389,1,0,1:2:0:0:
185,209,28468,2,0,P|189:188|194:168,1,41.9999987182618,0|0,1:2|1:2,0:2:0:0:
282,101,28626,2,0,P|304:126|299:173,1,83.9999974365235,8|0,0:2|0:2,0:2:0:0:
126,282,28942,5,2,1:2:0:0:
120,275,29021,1,0,1:2:0:0:
114,269,29099,2,0,P|93:263|72:259,1,41.9999987182618,0|0,1:2|1:2,0:2:0:0:
163,363,29257,2,0,P|199:342|240:344,1,83.9999974365235,8|0,0:2|0:2,0:2:0:0:
400,289,29573,2,0,P|358:283|317:274,1,83.9999974365235,2|0,1:2|1:2,0:2:0:0:
310,269,29810,1,0,1:2:0:0:
302,264,29889,1,8,0:2:0:0:
339,362,30047,1,0,1:2:0:0:
261,156,30205,6,0,P|211:190|215:250,1,125.999996154785,2|0,1:2|0:2,0:2:0:0:
215,250,30521,2,0,P|216:206|175:173,1,83.9999974365235,8|0,0:2|1:2,0:2:0:0:
94,137,30836,1,0,1:2:0:0:
125,237,30994,1,2,1:2:0:0:
125,237,31073,1,0,1:2:0:0:
125,237,31152,1,8,0:2:0:0:
172,81,31310,6,0,P|213:76|255:71,1,83.9999974365235,2|0,0:2|1:2,0:2:0:0:
395,28,31626,1,2,1:2:0:0:
399,34,31705,1,0,1:2:0:0:
404,40,31784,2,0,P|395:80|385:121,1,83.9999974365235,10|0,0:2|0:2,0:2:0:0:
481,97,32099,1,2,1:2:0:0:
313,184,32257,5,2,1:2:0:0:
305,180,32336,1,0,1:2:0:0:
298,175,32415,2,0,P|278:139|288:99,1,83.9999974365235,10|0,0:2|1:2,0:2:0:0:
430,313,32731,2,0,P|439:273|449:232,1,83.9999974365235,2|0,0:2|0:0,0:2:0:0:
313,279,33047,1,8,0:2:0:0:
512,295,33205,1,8,0:2:0:0:
315,379,33363,5,2,1:2:0:0:
309,372,33442,1,0,1:2:0:0:
302,365,33521,2,0,P|283:358|263:351,1,41.9999987182618,0|0,1:2|1:2,0:2:0:0:
113,294,33678,2,0,P|145:268|186:268,1,83.9999974365235,12|0,0:2|0:2,0:2:0:0:
269,57,33994,1,2,1:2:0:0:
262,63,34073,1,0,1:2:0:0:
255,70,34152,2,0,P|248:89|241:109,1,41.9999987182618,0|0,1:2|1:2,0:2:0:0:
278,252,34310,2,0,P|303:220|303:178,1,83.9999974365235,8|0,0:2|0:2,0:2:0:0:
163,55,34626,6,0,P|122:65|81:76,1,83.9999974365235,2|0,1:2|1:2,0:2:0:0:
81,76,34863,1,0,1:2:0:0:
81,76,34942,1,14,0:2:0:0:
215,0,35099,1,0,1:2:0:0:
8,158,35257,2,0,P|69:171|130:186,1,125.999996154785,2|0,0:2|0:2,0:2:0:0:
130,186,35573,2,0,B|143:226|143:226|117:258,1,83.9999974365235,10|0,0:2|1:2,0:2:0:0:
19,374,35889,5,2,1:2:0:0:
13,367,35968,1,0,1:2:0:0:
7,359,36047,2,0,P|8:339|13:318,1,41.9999987182618,0|0,1:2|1:2,0:2:0:0:
101,271,36205,1,10,0:2:0:0:
167,334,36363,1,2,0:2:0:0:
237,225,36521,1,2,1:2:0:0:
243,232,36600,1,0,1:2:0:0:
249,239,36678,2,0,P|247:260|243:281,1,41.9999987182618,0|0,1:2|1:2,0:2:0:0:
311,384,36836,2,0,P|312:363|317:342,1,41.9999987182618,10|0,0:0|0:0,0:0:0:0:
363,222,36994,6,0,B|455:242|455:242|477:281|440:306,1,167.999994873047,2|0,0:2|1:2,0:2:0:0:
434,312,37389,1,0,1:2:0:0:
427,317,37468,2,0,P|425:276|450:244,1,83.9999974365235,10|0,0:2|1:2,0:2:0:0:
381,91,37784,2,0,P|321:103|257:115,1,125.999996154785,2|0,0:2|0:2,0:2:0:0:
257,115,38099,5,8,0:2:0:0:
142,23,38257,1,2,0:2:0:0:
75,204,38415,1,2,1:2:0:0:
75,204,38494,1,0,1:2:0:0:
75,204,38573,1,0,1:2:0:0:
14,124,38731,6,0,P|55:119|97:111,1,83.9999974365235,12|0,0:2|0:2,0:0:0:0:
103,106,38968,1,0,1:0:0:0:
108,100,39047,1,2,1:2:0:0:
242,261,39205,1,0,1:2:0:0:
234,265,39284,1,0,1:2:0:0:
226,268,39363,2,0,P|184:260|143:255,1,83.9999974365235,8|0,0:2|0:2,0:0:0:0:
0,368,39678,6,0,P|40:373|73:348,1,83.9999974365235,2|0,1:2|1:2,0:2:0:0:
73,339,39915,1,0,1:2:0:0:
70,330,39994,1,12,0:2:0:0:
199,163,40152,1,0,1:2:0:0:
303,319,40310,2,0,P|328:286|323:245,1,83.9999974365235,2|0,0:2|1:2,0:2:0:0:
474,161,40626,6,0,P|479:140|484:120,1,41.9999987182618,10|0,0:2|0:0,0:2:0:0:
363,129,40784,2,0,P|280:146|198:162,1,167.999994873047,2|0,1:2|1:2,0:0:0:0:
64,121,41257,2,0,P|55:82|81:50,1,83.9999974365235,10|0,0:2|1:2,0:2:0:0:
89,49,41494,1,0,1:0:0:0:
97,50,41573,1,2,1:2:0:0:
224,255,41731,2,0,P|183:245|141:237,1,83.9999974365235,2|8,1:2|1:2,0:0:0:0:
134,242,41968,1,0,1:0:0:0:
127,246,42047,1,2,1:2:0:0:
198,162,42205,5,10,0:2:0:0:
165,332,42363,1,2,1:2:0:0:
165,332,42442,1,0,1:2:0:0:
165,332,42521,1,0,1:2:0:0:
45,220,42678,1,10,0:2:0:0:
198,162,42836,1,2,1:2:0:0:
198,162,42915,1,0,1:2:0:0:
198,162,42994,5,0,1:2:0:0:
134,83,43152,1,8,0:2:0:0:
39,117,43310,1,8,0:3:0:0:
233,67,43468,5,4,1:2:0:0:
242,70,43784,2,0,P|237:36|231:2,1,68.0000012969971,10|0,0:2|0:2,0:2:0:0:
325,142,44099,1,8,0:2:0:0:
333,147,44178,1,8,0:2:0:0:
248,230,44415,1,10,0:2:0:0:
256,235,44494,2,0,P|205:225|155:217,1,102.000001945496,8|8,0:2|0:3,0:0:0:0:
39,371,45047,5,10,0:2:0:0:
44,362,45126,2,0,L|36:328,1,34.0000006484985,8|0,0:2|0:0,0:0:0:0:
136,326,45363,2,0,P|186:333|236:343,1,102.000001945496,10|0,0:0|0:0,0:0:0:0:
243,350,45678,1,10,0:3:0:0:
341,307,45836,5,8,3:2:0:0:
341,307,45915,1,8,3:2:0:0:
341,307,45994,2,0,L|348:273,1,34.0000006484985,4|0,1:2|3:2,0:2:0:0:
439,249,46152,2,0,L|432:215,1,34.0000006484985,0|0,3:2|3:2,0:2:0:0:
367,108,46310,2,0,P|333:115|300:120,1,68.0000012969971,10|8,0:2|3:2,0:2:0:0:
218,158,46547,5,8,3:2:0:0:
212,153,46626,2,0,P|207:136|206:119,1,34.0000006484985,2|0,1:2|3:2,0:2:0:0:
135,77,46784,2,0,P|143:62|154:49,1,34.0000006484985,0|0,3:2|3:2,0:2:0:0:
281,28,46942,2,0,P|314:21|347:16,1,68.0000012969971,10|8,0:2|3:3,0:2:0:0:
441,137,47257,6,0,P|456:107|448:74,1,68.0000012969971,4|8,1:2|0:2,0:2:0:0:
440,68,47494,1,8,0:2:0:0:
432,62,47573,1,10,0:2:0:0:
352,197,47731,1,0,3:2:0:0:
146,181,47889,6,0,L|138:215,1,34.0000006484985,6|0,1:3|0:0,0:0:0:0:
137,169,48047,2,0,L|129:203,1,34.0000006484985,6|0,1:3|0:0,0:0:0:0:
238,280,48205,2,0,L|245:246,1,34.0000006484985,6|0,1:3|0:0,0:0:0:0:
247,292,48363,2,0,L|254:258,1,34.0000006484985,6|0,1:3|0:0,0:0:0:0:
148,370,48521,6,0,B|105:334|105:334|48:350,1,113.999996955872,12|0,1:2|0:2,0:2:0:0:
48,349,48836,2,0,P|36:314|48:278,1,75.9999979705811,2|0,1:2|0:2,0:2:0:0:
139,215,49152,1,8,1:2:0:0:
139,215,49310,1,0,1:2:0:0:
0,138,49468,2,0,P|37:131|75:128,1,75.9999979705811,2|0,1:2|1:2,0:2:0:0:
26,51,49784,5,8,1:2:0:0:
26,51,49942,1,0,1:2:0:0:
169,124,50099,2,0,P|180:88|169:52,1,75.9999979705811,2|0,1:2|1:2,0:2:0:0:
47,278,50415,1,10,1:2:0:0:
139,215,50573,1,0,1:2:0:0:
264,313,50731,2,0,P|226:304|189:298,1,75.9999979705811,10|0,1:2|1:2,0:0:0:0:
367,78,51047,6,0,P|311:89|254:97,1,113.999996955872,12|0,1:2|0:0,0:0:0:0:
254,96,51363,2,0,P|291:95|318:120,1,75.9999979705811,2|0,1:2|1:2,0:2:0:0:
380,295,51678,1,8,1:2:0:0:
470,165,51836,1,0,1:2:0:0:
264,313,51994,2,0,P|273:275|279:238,1,75.9999979705811,2|0,1:2|1:2,0:2:0:0:
497,361,52310,6,0,P|486:316|479:270,1,92.0000017547608,14|0,1:2|0:2,0:2:0:0:
507,186,52547,1,8,0:2:0:0:
512,181,52626,2,0,B|469:165|469:165|428:186,1,92.0000017547608,10|0,0:2|0:2,0:2:0:0:
377,110,52863,1,8,0:2:0:0:
381,103,52942,1,10,0:2:0:0:
426,0,53099,6,0,P|460:34|455:88,1,103.999995239258,2|2,0:0|0:0,0:0:0:0:
154,83,53573,5,4,1:0:0:0:
148,76,53731,2,0,P|192:86|237:96,1,92.0000017547608,2|8,0:2|0:2,0:2:0:0:
116,295,54047,1,2,0:2:0:0:
37,138,54205,1,0,1:2:0:0:
116,295,54363,2,0,B|141:253|141:253|124:213,1,92.0000017547608,2|8,1:2|0:2,0:0:0:0:
435,117,54678,6,0,P|390:115|359:148,1,92.0000017547608,2|0,1:2|0:2,0:2:0:0:
387,345,54994,2,0,P|410:306|397:263,1,92.0000017547608,2|8,1:2|0:2,0:2:0:0:
213,187,55310,2,0,P|234:226|277:237,1,92.0000017547608,2|0,0:2|1:2,0:2:0:0:
301,384,55626,1,2,1:2:0:0:
350,185,55784,1,10,0:2:0:0:
198,364,55942,6,0,B|151:370|113:348|143:312|93:283|33:300,1,184.000003509522,6|2,1:2|1:2,0:2:0:0:
277,236,56415,1,8,0:2:0:0:
142,122,56573,2,0,P|133:167|124:212,1,92.0000017547608,2|0,0:2|1:2,0:2:0:0:
259,69,56889,1,2,1:2:0:0:
106,8,57047,1,10,0:2:0:0:
348,103,57205,6,0,P|358:59|336:19,1,92.0000017547608,2|0,0:2|1:2,0:2:0:0:
394,214,57521,2,0,B|397:217|436:221|491:228,1,92.0000017547608,2|8,1:2|0:0,0:0:0:0:
352,332,57836,2,0,P|261:318|169:307,1,184.000003509522,2|0,0:2|1:2,0:2:0:0:
253,172,58310,1,10,0:2:0:0:
205,11,58468,6,0,P|127:51|133:138,1,184.000003509522,6|0,1:2|1:2,0:2:0:0:
375,223,58942,1,10,0:2:0:0:
207,96,59099,1,2,0:2:0:0:
346,3,59257,2,0,P|334:47|324:92,1,92.0000017547608,0|0,1:2|1:2,0:2:0:0:
348,316,59573,1,10,0:2:0:0:
98,351,59731,6,0,B|164:336|164:336|186:300|186:300|266:282,1,184.000003509522,2|0,1:2|1:2,0:2:0:0:
87,249,60205,1,10,0:2:0:0:
207,96,60363,1,2,0:2:0:0:
51,0,60521,2,0,B|25:39|25:39|38:82,1,92.0000017547608,0|0,1:2|1:2,0:0:0:0:
176,209,60836,1,10,0:2:0:0:
293,39,60994,6,0,B|186:13|186:13|165:45|124:48,1,184.000003509522,6|0,1:2|1:2,0:2:0:0:
316,188,61468,2,0,P|362:180|408:176,1,92.0000017547608,8|0,0:2|1:2,0:2:0:0:
254,379,61784,2,0,P|230:341|241:297,1,92.0000017547608,10|0,0:2|1:2,0:0:0:0:
374,263,62099,1,8,0:2:0:0:
212,137,62257,6,0,B|158:121|112:149|137:166|89:196|37:179,1,184.000003509522,6|8,1:2|0:2,0:2:0:0:
191,232,62731,1,4,0:3:0:0:
191,232,62889,1,0,1:2:0:0:
306,116,63047,5,8,0:2:0:0:
241,298,63205,1,0,1:2:0:0:
377,377,63363,5,8,0:2:0:0:
274,224,63521,2,0,P|321:220|369:212,1,95.9999970703126,2|8,1:2|0:2,0:2:0:0:
121,372,63836,2,0,P|168:375|216:383,1,95.9999970703126,2|8,1:2|0:2,0:2:0:0:
113,190,64152,2,0,P|81:225|84:271,1,95.9999970703126,2|8,1:2|0:2,0:2:0:0:
274,224,64468,1,2,1:2:0:0:
66,104,64626,1,8,0:2:0:0:
200,0,64784,6,0,P|205:47|211:95,1,95.9999970703126,2|8,1:2|0:2,0:2:0:0:
358,288,65099,2,0,P|385:250|379:203,1,95.9999970703126,2|8,1:2|0:2,0:2:0:0:
500,102,65415,2,0,P|452:107|404:113,1,95.9999970703126,2|8,1:2|0:2,0:2:0:0:
284,329,65731,1,2,1:2:0:0:
463,276,65889,1,10,0:2:0:0:
322,139,66047,6,0,B|249:147|249:147|211:188|211:188|147:198,1,191.999994140625,6|2,1:2|1:2,0:2:0:0:
307,231,66521,1,10,0:2:0:0:
204,380,66678,2,0,P|181:339|193:293,1,95.9999970703126,2|8,1:2|0:2,0:2:0:0:
307,231,66994,1,2,1:2:0:0:
404,369,67152,1,10,0:2:0:0:
507,186,67310,6,0,P|459:181|411:175,1,95.9999970703126,2|8,1:2|0:2,0:2:0:0:
228,61,67626,2,0,P|269:39|315:47,1,95.9999970703126,2|8,1:2|0:2,0:2:0:0:
192,293,67942,2,0,P|150:315|104:307,1,95.9999970703126,2|8,1:2|0:2,0:2:0:0:
288,131,68257,1,0,1:2:0:0:
288,131,68336,1,0,1:2:0:0:
288,131,68415,1,10,0:2:0:0:
36,248,68573,6,0,P|52:154|66:59,1,191.999994140625,6|0,1:2|1:2,0:2:0:0:
140,176,69047,1,10,0:2:0:0:
33,363,69205,1,2,1:2:0:0:
285,314,69363,2,0,P|238:304|191:292,1,95.9999970703126,10|0,0:2|1:2,0:2:0:0:
216,384,69678,1,10,0:2:0:0:
349,255,69836,1,2,1:2:0:0:
143,88,69994,6,0,B|214:76|214:76|239:46|239:46|324:33,1,191.999994140625,8|10,0:2|0:2,0:0:0:0:
407,323,70468,1,2,1:2:0:0:
481,193,70626,2,0,B|440:166|440:166|394:177,1,95.9999970703126,8|0,0:2|1:2,0:2:0:0:
143,88,70942,1,10,0:2:0:0:
204,384,71099,6,0,P|222:289|238:195,1,191.999994140625,6|0,1:2|1:2,0:2:0:0:
141,185,71573,1,8,0:2:0:0:
324,337,71731,1,0,1:2:0:0:
478,166,71889,2,0,P|430:160|382:154,1,95.9999970703126,8|0,0:2|1:2,0:2:0:0:
287,36,72205,1,8,0:0:0:0:
287,36,72363,1,0,1:0:0:0:
418,234,72521,6,0,B|408:265|408:265|409:267|409:267|400:296,1,64,12|0,0:2|0:0,0:0:0:0:
148,374,73152,5,8,0:2:0:0:
143,367,73257,2,0,B|156:306,1,45.3333341979981,8|4,0:2|0:3,0:0:0:0:
240,314,73468,1,4,1:3:0:0:
245,307,73573,2,0,B|232:246,1,45.3333341979981,4|0,1:3|1:2,0:0:0:0:
171,186,73784,6,0,B|125:171|84:192|100:215|68:229|24:218,1,151.999995941162,2|0,1:2|1:2,0:2:0:0:
145,97,74257,1,0,1:2:0:0:
75,38,74415,2,0,L|56:111,1,75.9999979705811,2|0,1:2|1:2,0:2:0:0:
215,35,74731,1,0,1:2:0:0:
215,35,74889,1,0,1:2:0:0:
299,131,75047,6,0,L|225:112,1,75.9999979705811,2|0,1:2|1:2,0:2:0:0:
236,244,75363,1,0,1:2:0:0:
236,244,75521,1,0,1:2:0:0:
323,384,75678,2,0,P|337:349|328:313,1,75.9999979705811,2|0,1:2|1:2,0:2:0:0:
389,261,75994,1,0,1:2:0:0:
260,342,76152,1,0,1:2:0:0:
389,261,76310,6,0,B|426:253|426:253|459:271,1,75.9999979705811,10|0,1:2|1:2,0:0:0:0:
468,117,76626,1,0,1:2:0:0:
380,178,76784,1,0,1:2:0:0:
309,98,76942,2,0,P|319:61|327:24,1,75.9999979705811,2|0,1:2|1:2,0:2:0:0:
222,164,77257,1,0,1:2:0:0:
292,250,77415,1,0,1:2:0:0:
220,384,77573,6,0,P|200:351|203:314,1,75.9999979705811,2|0,1:2|1:2,0:2:0:0:
346,202,77889,2,0,P|327:234|294:250,1,75.9999979705811,2|0,1:2|1:2,0:2:0:0:
125,183,78205,2,0,P|162:182|193:203,1,75.9999979705811,2|0,1:2|1:2,0:2:0:0:
141,264,78521,1,0,1:2:0:0:
141,264,78678,1,0,1:2:0:0:
82,64,78836,6,0,P|60:94|61:132,1,75.9999979705811,6|0,1:2|1:2,0:2:0:0:
141,264,79152,1,0,1:2:0:0:
47,325,79310,1,0,1:2:0:0:
6,226,79468,2,0,P|43:220|80:212,1,75.9999979705811,10|0,1:2|1:2,0:2:0:0:
212,383,79784,1,0,1:0:0:0:
301,336,79942,1,0,1:0:0:0:
282,234,80099,6,0,P|244:228|207:220,1,75.9999979705811,6|0,1:2|1:2,0:2:0:0:
199,212,80336,1,0,1:0:0:0:
192,202,80415,1,0,1:0:0:0:
229,307,80573,1,0,1:0:0:0:
358,188,80731,2,0,P|375:156|366:120,1,75.9999979705811,10|0,1:2|1:0,0:0:0:0:
358,111,80968,1,0,1:0:0:0:
348,105,81047,1,0,1:0:0:0:
260,149,81205,1,0,1:0:0:0:
338,350,81363,6,0,P|349:313|361:277,1,75.9999979705811,14|0,1:2|1:0,0:0:0:0:
229,307,81678,1,0,1:0:0:0:
414,384,81836,1,0,1:0:0:0:
229,307,81994,2,0,B|194:313|194:313|191:318|191:318|155:324,1,75.9999979705811,14|0,1:2|1:0,0:0:0:0:
61,310,82310,1,0,1:0:0:0:
84,221,82468,1,0,1:0:0:0:
106,132,82626,1,2,0:0:0:0:
102,121,82942,1,2,0:0:0:0:
98,110,83257,1,2,0:0:0:0:
94,98,83573,2,0,P|101:61|105:23,1,75.9999979705811,2|2,0:0|0:0,0:0:0:0:
194,194,83889,6,0,P|257:184|295:237,1,136.000002593994,6|0,1:3|1:0,0:0:0:0:
201,330,84363,1,2,0:3:0:0:
133,384,84521,2,0,B|103:326|103:326|141:266,1,136.000002593994,2|0,1:3|1:0,0:0:0:0:
38,141,84994,1,2,0:3:0:0:
0,222,85152,6,0,P|49:178|113:191,1,136.000002593994,6|0,1:3|1:0,0:0:0:0:
232,70,85626,1,2,0:3:0:0:
246,151,85784,2,0,P|212:142|179:135,1,68.0000012969971,2|0,1:3|0:0,0:0:0:0:
364,3,86099,2,0,P|330:11|297:18,1,68.0000012969971,0|2,1:0|0:3,0:0:0:0:
389,146,86415,5,6,1:3:0:0:
389,146,86573,1,2,0:0:0:0:
333,276,86731,2,0,P|327:242|320:209,1,68.0000012969971,10|2,1:2|0:0,0:0:0:0:
460,352,87047,2,0,P|465:318|472:285,1,68.0000012969971,2|2,1:2|0:0,0:0:0:0:
271,335,87363,6,0,P|222:347|172:359,1,102.000001945496,10|0,1:2|0:0,0:0:0:0:
172,359,87678,2,0,P|145:317|157:269,1,102.000001945496,2|0,1:2|0:0,0:0:0:0:
108,220,87994,2,0,P|149:192|197:204,1,102.000001945496,10|0,1:2|0:0,0:0:0:0:
197,204,88310,2,0,P|209:154|221:104,1,102.000001945496,2|0,1:2|0:0,0:0:0:0:
221,104,88626,1,8,1:2:0:0:
262,248,88784,1,2,0:3:0:0:
267,256,88863,1,2,0:3:0:0:
272,264,88942,6,0,P|338:250|405:240,1,136.000002593994,6|0,1:3|1:0,0:0:0:0:
467,112,89415,1,2,0:3:0:0:
451,29,89573,2,0,P|392:58|393:137,1,136.000002593994,2|0,1:3|1:0,0:0:0:0:
292,69,90047,1,2,0:3:0:0:
302,155,90205,6,0,B|254:146|254:146|228:118|228:118|178:110,1,136.000002593994,6|0,1:3|1:0,0:0:0:0:
44,177,90678,1,2,0:3:0:0:
30,268,90836,2,0,B|59:250|59:250|92:254,1,68.0000012969971,2|4,1:3|0:3,0:0:0:0:
112,347,91152,1,2,1:3:0:0:
112,347,91310,2,0,B|83:365|83:365|49:360,1,68.0000012969971,4|0,0:3|1:0,0:0:0:0:
181,291,91626,6,0,B|217:278|254:293|241:310|272:325|313:313,1,136.000002593994,2|2,0:0|0:0,0:0:0:0:
392,205,92099,1,2,1:2:0:0:
474,263,92257,1,2,0:0:0:0:
454,123,92415,1,10,1:2:0:0:
453,122,92731,6,0,P|424:106|390:104,1,68.0000012969971,2|2,1:2|0:0,0:0:0:0:
257,143,93047,2,0,P|233:99|257:56,1,102.000001945496,10|0,1:2|0:0,0:0:0:0:
318,104,93363,2,0,P|305:170|293:237,1,136.000002593994,2|10,1:2|1:2,0:0:0:0:
137,362,93836,1,2,0:3:0:0:
252,338,93994,6,0,B|211:342|186:324|204:303|173:281|122:289,1,143.999995605469,6|10,1:3|1:3,0:0:0:0:
79,138,94468,1,2,0:3:0:0:
37,222,94626,2,0,P|87:174|156:184,1,143.999995605469,10|10,1:3|1:3,0:0:0:0:
348,92,95099,1,2,0:3:0:0:
282,9,95257,6,0,P|269:79|254:151,1,143.999995605469,6|2,1:3|1:3,0:0:0:0:
328,258,95731,1,2,0:3:0:0:
453,219,95889,2,0,P|417:212|382:205,1,71.9999978027344,10|0,1:3|0:0,0:0:0:0:
196,293,96205,2,0,P|231:299|266:306,1,71.9999978027344,10|2,1:3|0:3,0:0:0:0:
136,365,96521,5,6,1:3:0:0:
136,365,96678,1,2,0:0:0:0:
141,169,96836,2,0,P|132:203|123:238,1,71.9999978027344,10|0,1:2|0:0,0:0:0:0:
0,115,97152,2,0,P|46:64|112:83,1,143.999995605469,2|10,1:2|1:2,0:0:0:0:
51,302,97626,2,0,P|42:267|33:232,1,71.9999978027344,2|0,0:0|1:0,0:0:0:0:
196,293,97942,2,0,P|231:302|266:311,1,71.9999978027344,2|8,0:0|1:2,0:0:0:0:
208,381,98257,1,2,0:0:0:0:
351,291,98415,2,0,B|345:232|345:232|329:215|329:215|322:152,1,143.999995605469,2|8,1:2|1:3,0:0:0:0:
453,293,98889,5,2,1:3:0:0:
467,384,99047,2,0,P|432:375|397:366,1,71.9999978027344,10|0,1:3|1:0,0:0:0:0:
512,231,99363,1,0,1:0:0:0:
512,231,99521,1,0,1:0:0:0:
450,157,99678,2,0,P|415:166|380:175,1,71.9999978027344,10|0,1:3|1:0,0:0:0:0:
265,310,99994,1,0,1:0:0:0:
265,310,100152,1,0,1:0:0:0:
250,221,100310,6,0,P|287:231|323:239,1,75.9999979705811,10|0,1:3|1:0,0:0:0:0:
186,350,100626,1,0,1:0:0:0:
186,350,100784,1,0,1:0:0:0:
95,384,100942,2,0,P|84:347|97:312,1,75.9999979705811,10|0,1:3|1:0,0:0:0:0:
143,223,101257,1,10,1:3:0:0:
73,157,101415,2,0,L|0:176,1,75.9999979705811,2|0,1:3|1:0,0:0:0:0:
142,84,101731,1,2,1:2:0:0:
250,221,101889,2,0,L|230:294,1,75.9999979705811,8|0,1:2|1:0,0:0:0:0:
143,223,102205,5,2,1:2:0:0:
314,278,102363,1,2,1:2:0:0:
178,384,102521,1,10,1:2:0:0:
178,384,102836,5,2,1:2:0:0:
238,318,102994,1,2,1:2:0:0:
318,367,103152,1,10,1:2:0:0:
318,367,103468,5,2,0:3:0:0:
250,221,103626,1,2,0:3:0:0:
397,152,103784,1,10,0:3:0:0:
478,299,103942,1,2,0:3:0:0:
365,262,104099,5,6,1:2:0:0:
358,256,104415,2,0,P|364:210|372:165,1,92.0000017547608,10|0,0:0|1:0,0:0:0:0:
245,4,104731,1,8,0:0:0:0:
245,4,104889,1,0,1:0:0:0:
245,4,105047,2,0,P|238:49|230:94,1,92.0000017547608,10|0,0:0|1:0,0:0:0:0:
335,58,105363,5,0,1:0:0:0:
187,187,105521,1,0,1:0:0:0:
179,198,105599,1,0,1:0:0:0:
171,209,105678,2,0,P|126:202|81:194,1,92.0000017547608,10|0,0:2|1:0,0:0:0:0:
15,248,105915,1,0,1:0:0:0:
3,240,105994,2,0,B|-20:202|-20:202|0:158,1,92.0000017547608,10|0,0:0|1:0,0:0:0:0:
118,359,106310,6,0,P|185:300|269:331,1,184.000003509522,14|0,0:0|1:0,0:0:0:0:
388,207,106784,1,0,1:0:0:0:
380,218,106862,1,0,1:0:0:0:
372,229,106941,2,0,P|327:222|282:214,1,92.0000017547608,10|0,0:0|0:0,0:0:0:0:
422,63,107257,1,8,0:0:0:0:
422,63,107415,1,0,1:0:0:0:
422,63,107573,2,0,P|467:70|512:78,1,92.0000017547608,10|0,0:0|1:0,0:0:0:0:
448,150,107889,5,8,0:0:0:0:
330,3,108047,1,8,0:0:0:0:
227,110,108205,1,2,1:2:0:0:
227,110,108363,1,0,1:0:0:0:
227,110,108521,6,0,L|280:100,1,46.0000008773804,14|0,1:3|0:0,0:0:0:0:
236,123,108678,2,0,L|289:113,1,46.0000008773804,6|0,1:3|0:0,0:0:0:0:
372,229,108836,2,0,L|319:219,1,46.0000008773804,6|0,1:3|0:0,0:0:0:0:
363,242,108994,2,0,L|310:232,1,46.0000008773804,6|0,1:3|0:0,0:0:0:0:
251,384,109152,5,6,1:2:0:0:
251,384,109310,1,0,1:0:0:0:
251,384,109468,2,0,B|227:340|227:340|250:300,1,95.9999970703126,10|0,0:0|1:0,0:0:0:0:
407,142,109784,1,8,0:0:0:0:
317,233,109942,1,0,1:0:0:0:
141,109,110099,2,0,P|188:117|235:122,1,95.9999970703126,10|0,0:0|1:0,0:0:0:0:
201,29,110415,5,0,1:0:0:0:
84,209,110573,1,0,1:0:0:0:
79,195,110652,1,0,1:0:0:0:
74,181,110731,1,10,0:0:0:0:
217,384,110889,1,0,1:0:0:0:
229,376,110968,1,0,1:0:0:0:
240,367,111047,2,0,P|259:324|241:281,1,95.9999970703126,10|0,0:0|1:0,0:0:0:0:
117,322,111363,2,0,P|69:327|21:335,1,95.9999970703126,14|0,0:0|0:0,0:0:0:0:
190,207,111678,5,8,0:0:0:0:
6,90,111836,1,0,1:0:0:0:
84,209,111994,2,0,P|89:161|97:113,1,95.9999970703126,10|0,0:0|1:0,0:0:0:0:
227,43,112310,1,8,0:0:0:0:
316,171,112468,1,0,1:0:0:0:
446,38,112626,2,0,P|398:43|350:48,1,95.9999970703126,10|0,0:0|1:0,0:0:0:0:
394,254,112942,6,0,P|432:196|400:135,1,143.999995605469,14|0,0:0|0:0,0:0:0:0:
316,171,113257,2,0,P|301:241|288:312,1,143.999995605469,14|0,0:0|0:0,0:0:0:0:
210,350,113573,1,14,1:2:0:0:
193,359,113652,1,4,0:3:0:0:
175,351,113731,2,0,P|179:327|184:303,1,47.9999985351563,4|4,0:3|0:3,0:0:0:0:
127,212,113889,1,8,0:3:0:0:
96,179,113967,1,8,0:3:0:0:
53,182,114046,1,4,0:3:0:0:
27,215,114125,1,4,0:3:0:0:
46,251,114205,6,0,P|89:237|134:225,1,92.0000017547608,4|0,1:0|0:0,0:0:0:0:
287,312,114521,1,8,0:0:0:0:
239,99,114678,1,2,0:2:0:0:
109,309,114836,1,0,1:2:0:0:
388,206,114994,2,0,P|343:194|299:179,1,92.0000017547608,2|8,1:2|0:2,0:0:0:0:
140,91,115310,6,0,P|143:47|175:16,1,92.0000017547608,2|0,1:2|0:2,0:2:0:0:
82,226,115626,2,0,P|41:247|-1:234,1,92.0000017547608,2|8,1:2|0:2,0:2:0:0:
224,201,115942,2,0,P|262:226|272:270,1,92.0000017547608,2|0,0:2|1:2,0:2:0:0:
34,158,116257,1,2,1:2:0:0:
214,121,116415,1,10,0:2:0:0:
247,372,116573,6,0,B|178:354|178:354|159:319|159:319|80:298,1,184.000003509522,6|2,1:2|1:2,0:2:0:0:
322,336,117047,1,8,0:2:0:0:
381,127,117205,2,0,L|290:149,1,92.0000017547608,2|0,0:2|1:2,0:2:0:0:
436,246,117521,1,2,1:2:0:0:
311,55,117678,1,10,0:2:0:0:
166,208,117836,6,0,L|255:229,1,92.0000017547608,2|0,0:2|1:2,0:2:0:0:
291,148,118152,1,2,1:2:0:0:
105,276,118310,1,8,0:2:0:0:
5,104,118468,2,0,B|56:62|111:77|111:77|129:110|175:115,1,184.000003509522,2|0,0:2|1:2,0:2:0:0:
20,250,118942,1,10,0:2:0:0:
204,329,119099,6,0,B|236:231|236:231|212:192|159:209,1,184.000003509522,6|0,1:2|1:2,0:2:0:0:
305,308,119573,1,10,0:2:0:0:
105,364,119731,1,2,0:2:0:0:
305,308,119889,2,0,P|349:320|393:331,1,92.0000017547608,0|0,1:2|1:2,0:0:0:0:
243,137,120205,1,10,0:2:0:0:
470,291,120363,6,0,P|498:209|433:151,1,184.000003509522,2|0,1:2|1:2,0:2:0:0:
236,230,120836,1,10,0:2:0:0:
433,151,120994,1,2,0:2:0:0:
363,0,121152,2,0,P|353:45|342:89,1,92.0000017547608,0|0,1:2|1:2,0:0:0:0:
305,308,121468,1,10,0:2:0:0:
92,203,121626,6,0,B|145:209|181:186|159:161|199:135|256:143,1,184.000003509522,6|0,1:2|1:2,0:2:0:0:
114,314,122099,2,0,P|70:304|25:294,1,92.0000017547608,10|0,0:2|1:2,0:0:0:0:
5,52,122415,2,0,P|49:62|94:72,1,92.0000017547608,10|0,0:2|1:2,0:0:0:0:
236,230,122731,1,8,0:2:0:0:
360,7,122889,6,0,B|329:130|329:130|325:93|286:75,1,184.000003509522,6|8,1:2|0:2,0:2:0:0:
433,95,123363,1,4,0:3:0:0:
433,95,123521,1,0,1:2:0:0:
327,250,123678,5,8,0:2:0:0:
441,217,123836,1,0,1:2:0:0:
315,365,123994,5,8,0:2:0:0:
164,245,124152,2,0,P|117:250|71:263,1,95.9999970703126,2|8,1:2|0:2,0:2:0:0:
177,43,124468,2,0,P|130:36|84:24,1,95.9999970703126,2|8,1:2|0:2,0:2:0:0:
255,145,124784,2,0,P|295:120|342:125,1,95.9999970703126,2|8,1:2|0:2,0:0:0:0:
136,338,125099,1,2,1:2:0:0:
100,174,125257,1,8,0:2:0:0:
318,219,125415,6,0,P|307:265|297:312,1,95.9999970703126,2|8,1:2|0:2,0:2:0:0:
100,174,125731,2,0,P|110:127|120:80,1,95.9999970703126,2|8,1:2|0:2,0:2:0:0:
400,61,126047,2,0,P|435:91|435:138,1,95.9999970703126,2|8,1:2|0:2,0:2:0:0:
227,243,126363,1,2,1:2:0:0:
428,162,126521,1,10,0:2:0:0:
386,375,126678,6,0,B|274:336|274:336|250:376|199:376,1,191.999994140625,6|2,1:2|1:2,0:2:0:0:
383,287,127152,1,10,0:2:0:0:
150,301,127310,1,2,1:2:0:0:
207,56,127468,2,0,P|197:102|186:149,1,95.9999970703126,10|0,0:2|1:2,0:2:0:0:
100,77,127784,1,10,0:2:0:0:
381,56,127942,6,0,P|344:27|297:30,1,95.9999970703126,2|8,1:2|0:2,0:2:0:0:
124,217,128257,2,0,P|160:245|207:242,1,95.9999970703126,2|8,1:2|0:2,0:2:0:0:
452,136,128573,2,0,P|405:145|358:156,1,95.9999970703126,2|8,1:2|0:2,0:2:0:0:
432,235,128889,1,0,1:2:0:0:
432,235,128968,1,0,1:2:0:0:
432,235,129047,1,10,0:2:0:0:
241,347,129205,6,0,B|257:278|257:278|237:246|237:246|257:166,1,191.999994140625,6|0,1:2|1:2,0:2:0:0:
145,344,129678,1,10,0:2:0:0:
340,247,129836,1,2,1:2:0:0:
100,90,129994,2,0,P|109:137|116:184,1,95.9999970703126,8|0,0:2|1:2,0:2:0:0:
220,37,130310,1,10,0:2:0:0:
18,156,130468,1,2,1:2:0:0:
145,344,130626,6,0,B|195:358|238:327|217:303|263:268|327:289,1,191.999994140625,8|10,0:2|0:2,0:0:0:0:
62,284,131099,1,2,1:2:0:0:
186,117,131257,2,0,P|233:124|280:133,1,95.9999970703126,8|0,0:2|1:2,0:2:0:0:
220,212,131573,1,10,0:2:0:0:
351,372,131731,6,0,P|413:305|375:223,1,191.999994140625,6|0,1:2|1:2,0:2:0:0:
247,324,132205,1,8,0:2:0:0:
424,142,132363,1,0,1:2:0:0:
153,276,132521,2,0,P|125:238|134:192,1,95.9999970703126,10|0,0:2|1:2,0:2:0:0:
252,43,132836,1,8,0:2:0:0:
252,43,132994,1,2,1:2:0:0:
75,142,133152,6,0,B|43:136|43:136|41:138|41:138|11:133,1,64,12|0,0:2|0:0,0:0:0:0:
148,268,133784,5,8,0:0:0:0:
153,276,133889,2,0,L|142:321,1,45.3333341979981,8|4,0:0|0:3,0:0:0:0:
46,384,134099,1,8,0:3:0:0:
51,376,134204,2,0,L|40:331,1,45.3333341979981,8|0,0:3|1:0,0:0:0:0:
226,313,134415,5,6,1:2:0:0:
139,193,134573,1,6,1:3:0:0:
266,133,134731,1,6,1:3:0:0:
266,133,136784,5,0,1:0:0:0:
266,133,136863,1,0,1:0:0:0:
266,133,136942,1,6,1:3:0:0:
217,44,137099,1,6,1:3:0:0:
310,214,137257,1,6,1:3:0:0:
310,214,138836,5,4,0:3:0:0:
375,165,138994,1,0,1:0:0:0:
433,222,139152,1,8,0:0:0:0:
433,222,139468,5,6,1:3:0:0:
260,338,139626,1,6,1:3:0:0:
246,256,140099,5,6,1:3:0:0:
436,374,140257,1,6,1:3:0:0:
334,384,140731,5,6,1:3:0:0:
454,198,140889,1,6,1:3:0:0:
507,300,141363,5,6,1:3:0:0:
308,102,141521,1,6,1:3:0:0:
308,102,141994,5,8,1:3:0:0:
281,105,142072,1,4,0:3:0:0:
255,108,142151,1,8,0:3:0:0:
228,111,142230,1,4,0:3:0:0:
202,114,142310,2,0,L|206:76,1,37.9999989852906,4|4,0:3|0:3,0:0:0:0:
131,179,142468,2,0,L|107:149,1,37.9999989852906,4|4,0:3|0:3,0:0:0:0:
129,294,142626,5,8,0:3:0:0:
122,286,142731,2,0,L|72:276,1,50.6666653137207,4|8,0:3|0:3,0:0:0:0:
234,378,142942,1,4,0:3:0:0:
225,383,143047,2,0,L|175:374,1,50.6666653137207,4|4,0:3|0:3,0:0:0:0:
301,332,143257,5,6,1:2:0:0:
362,384,143415,1,6,1:3:0:0:
373,384,143889,2,0,P|402:336|376:278,1,120,2|8,0:0|0:0,0:0:0:0:
313,237,144205,1,8,0:0:0:0:
309,244,144284,1,8,0:0:0:0:
305,250,144363,1,2,0:0:0:0:
491,128,144521,6,0,P|445:120|400:111,1,92.0000017547608,4|0,1:2|0:0,0:2:0:0:
228,219,144836,1,10,0:2:0:0:
345,26,144994,1,2,0:2:0:0:
152,49,145152,1,2,1:2:0:0:
382,200,145310,1,2,1:2:0:0:
119,319,145468,5,10,0:2:0:0:
216,324,145626,2,0,B|195:261|195:261|211:224|211:224|185:151,1,184.000003509522,2|0,1:2|1:2,0:2:0:0:
19,340,146099,2,0,L|53:243,1,92.0000017547608,10|0,0:2|0:2,0:2:0:0:
287,275,146415,1,2,1:2:0:0:
287,275,146494,1,2,0:2:0:0:
287,275,146573,2,0,P|310:280|331:290,1,46.0000008773804,2|2,1:2|0:2,0:0:0:0:
382,358,146731,1,10,0:2:0:0:
484,115,146889,6,0,B|434:98|385:122|402:146|360:172|307:153,1,184.000003509522,6|0,1:2|1:2,0:2:0:0:
101,123,147363,1,10,0:2:0:0:
252,0,147521,1,2,0:2:0:0:
131,220,147678,1,2,1:2:0:0:
131,220,147757,1,2,1:2:0:0:
131,220,147836,1,2,1:2:0:0:
276,348,147994,5,10,0:2:0:0:
283,254,148152,2,0,B|207:271|207:271|191:300|191:300|120:318,1,184.000003509522,2|0,0:2|1:2,0:2:0:0:
366,311,148626,2,0,P|378:266|392:223,1,92.0000017547608,8|0,0:2|0:2,0:2:0:0:
276,348,148942,1,2,1:2:0:0:
455,296,149099,1,2,1:2:0:0:
314,168,149257,1,10,0:2:0:0:
504,64,149415,6,0,B|407:32|407:32|360:41|366:91,1,184.000003509522,6|2,1:2|1:2,0:2:0:0:
371,99,149810,1,2,0:0:0:0:
376,106,149889,1,10,0:2:0:0:
216,200,150047,1,2,0:2:0:0:
220,192,150126,1,2,0:0:0:0:
224,183,150205,5,2,1:2:0:0:
293,273,150363,1,2,1:2:0:0:
121,179,150521,1,10,0:2:0:0:
197,100,150679,1,2,0:2:0:0:
163,267,150836,6,0,B|108:225|108:225|32:253,1,138.000002632141,2|0,0:2|0:2,0:2:0:0:
39,257,151152,1,10,0:0:0:0:
225,366,151389,1,8,0:2:0:0:
231,354,151468,1,2,1:2:0:0:
286,292,151626,1,2,1:2:0:0:
241,222,151784,1,10,0:2:0:0:
394,94,151942,5,6,1:3:0:0:
394,94,153363,6,0,L|377:143,1,46.0000008773804,8|0,0:2|0:0,0:0:0:0:
306,82,153521,1,0,1:2:0:0:
388,278,153678,1,8,0:3:0:0:
457,206,153836,1,4,0:3:0:0:
311,214,153994,5,10,0:2:0:0:
471,347,154152,1,10,0:2:0:0:
471,347,154231,1,10,0:2:0:0:
471,347,154310,1,10,0:2:0:0:
294,200,154468,6,0,B|207:182|207:182|146:201|185:272,1,184.000003509522,6|0,1:2|1:2,0:2:0:0:
263,384,154942,2,0,B|290:347|290:347|273:303,1,92.0000017547608,8|0,0:2|0:2,0:2:0:0:
118,347,155257,2,0,L|73:357,1,46.0000008773804,2|0,1:2|0:0,0:0:0:0:
42,274,155415,1,2,1:2:0:0:
49,279,155494,2,0,L|93:268,1,46.0000008773804,2|8,0:2|0:2,0:0:0:0:
153,59,155731,6,0,B|277:82|277:82|243:86|223:117,1,184.000003509522,2|0,1:2|1:2,0:2:0:0:
449,110,156205,2,0,P|461:67|434:31,1,92.0000017547608,8|0,0:2|0:0,0:2:0:0:
295,163,156521,1,0,1:2:0:0:
434,31,156678,1,2,1:2:0:0:
498,222,156836,1,10,0:2:0:0:
341,356,156994,6,0,B|354:284|354:284|380:259|380:259|390:178,1,184.000003509522,6|0,1:2|1:2,0:2:0:0:
246,253,157468,2,0,P|201:266|156:276,1,92.0000017547608,10|0,0:2|0:0,0:2:0:0:
303,188,157784,1,0,1:2:0:0:
153,59,157942,1,0,1:2:0:0:
330,52,158099,2,0,L|343:8,1,46.0000008773804,10|0,0:2|0:0,0:0:0:0:
254,0,158257,2,0,L|241:44,1,46.0000008773804,2|0,0:2|0:0,0:0:0:0:
149,154,158415,5,2,1:2:0:0:
33,16,158573,1,0,1:2:0:0:
149,154,158731,2,0,P|193:141|238:131,1,92.0000017547608,8|0,0:2|0:2,0:2:0:0:
93,318,159047,1,2,1:2:0:0:
93,318,159126,1,2,0:2:0:0:
92,318,159205,2,0,P|69:320|48:309,1,46.0000008773804,2|2,1:2|0:2,0:0:0:0:
73,227,159363,2,0,P|95:224|116:235,1,46.0000008773804,10|2,0:2|0:2,0:2:0:0:
166,376,159521,6,0,B|276:345|276:345|293:376|332:384,1,184.000003509522,6|0,1:2|1:2,0:2:0:0:
457,217,159994,1,10,0:2:0:0:
274,146,160152,1,2,0:2:0:0:
438,345,160310,1,2,1:2:0:0:
399,77,160468,1,2,1:2:0:0:
220,263,160626,1,14,0:2:0:0:
96,86,160784,2,0,P|140:76|185:62,1,92.0000017547608,2|0,1:2|0:2,0:2:0:0:
27,261,161099,5,2,1:2:0:0:
27,261,161178,1,2,0:2:0:0:
27,261,161257,2,0,P|49:264|71:271,1,46.0000008773804,10|2,0:2|0:2,0:2:0:0:
117,178,161415,2,0,P|130:196|141:216,1,46.0000008773804,2|2,0:2|0:2,0:2:0:0:
276,364,161573,5,2,1:2:0:0:
244,381,161652,1,2,0:2:0:0:
208,378,161731,1,2,1:2:0:0:
180,355,161810,1,2,0:2:0:0:
170,320,161889,1,10,0:2:0:0:
181,286,161968,1,2,0:2:0:0:
210,264,162047,6,0,P|231:267|253:273,1,46.0000008773804,2|2,1:2|0:2,0:2:0:0:
393,181,162205,1,2,0:2:0:0:
406,215,162284,1,2,0:2:0:0:
381,242,162363,2,0,P|360:239|338:233,1,46.0000008773804,2|0,1:2|0:2,0:2:0:0:
279,130,162521,5,14,0:2:0:0:
279,130,162599,1,2,1:2:0:0:
279,130,162678,2,0,P|277:100|286:80,1,50,2|2,1:2|0:2,0:2:0:0:
398,8,162836,1,14,0:2:0:0:
398,8,162914,1,2,1:2:0:0:
398,8,162994,2,0,P|400:38|391:58,1,50,2|2,1:2|0:2,0:2:0:0:
193,172,163152,2,0,P|188:147|182:123,1,50,14|2,0:2|0:2,0:2:0:0:
97,255,163310,6,0,B|188:213|188:213|265:276,1,200,6|8,1:2|0:2,0:2:0:0:
268,285,163705,1,8,0:2:0:0:
270,293,163784,1,8,0:2:0:0:
193,172,163942,1,8,0:2:0:0:
342,131,164099,1,8,0:3:0:0:
340,139,164178,1,8,0:3:0:0:
337,147,164257,1,4,0:3:0:0:
334,155,164336,1,4,0:3:0:0:
332,161,164415,2,0,P|326:126|320:90,1,68.0000012969971,8|4,0:3|0:3,0:2:0:0:
394,288,164731,5,4,1:2:0:0:
389,300,165047,2,0,P|422:294|456:289,1,68.0000012969971,10|0,0:2|0:2,0:2:0:0:
289,369,165363,1,8,0:2:0:0:
289,369,165521,1,8,0:2:0:0:
189,247,165678,2,0,P|222:252|256:257,1,68.0000012969971,10|2,0:2|0:2,0:2:0:0:
256,257,165915,1,2,0:0:0:0:
256,257,165994,1,10,0:2:0:0:
173,364,166152,5,2,0:2:0:0:
77,276,166310,1,10,0:2:0:0:
84,264,166389,1,10,0:2:0:0:
163,145,166626,2,0,P|130:150|96:155,1,68.0000012969971,10|0,0:2|0:2,0:2:0:0:
236,178,166942,1,8,0:3:0:0:
196,10,167099,1,8,0:2:0:0:
196,10,167178,1,8,0:2:0:0:
196,10,167257,6,0,P|200:43|206:77,1,68.0000012969971,0|8,1:2|0:2,0:2:0:0:
236,178,167494,1,8,0:2:0:0:
250,185,167573,2,0,P|283:180|317:175,1,68.0000012969971,10|0,0:2|0:2,0:2:0:0:
358,93,167810,1,8,0:2:0:0:
372,100,167889,1,8,0:2:0:0:
316,262,168126,1,8,0:2:0:0:
301,255,168205,2,0,P|283:282|283:316,1,68.0000012969971,10|8,0:2|0:2,0:2:0:0:
199,379,168521,1,8,0:2:0:0:
199,379,168599,1,8,0:2:0:0:
199,379,168678,2,0,L|189:346,2,34.0000006484985,10|10|8,0:2|0:2|0:3,0:2:0:0:
359,384,169152,6,0,L|369:351,1,34.0000006484985,6|0,1:3|0:0,0:0:0:0:
373,378,169310,2,0,L|383:345,1,34.0000006484985,6|0,1:3|0:0,0:0:0:0:
464,253,169468,2,0,L|454:220,1,34.0000006484985,6|0,1:3|0:0,0:0:0:0:
450,247,169626,2,0,L|440:214,1,34.0000006484985,6|0,1:3|0:0,0:0:0:0:
469,336,169784,5,4,1:2:0:0:
507,153,169942,1,0,1:2:0:0:
507,153,170021,1,0,1:2:0:0:
507,153,170099,2,0,P|453:116|381:146,1,138.000002632141,14|0,0:2|1:2,0:2:0:0:
388,137,170415,2,0,B|367:97|367:97|392:57,1,92.0000017547608,12|0,0:2|1:0,0:0:0:0:
337,249,170731,6,0,B|287:225|235:249|258:275|216:299|165:280,1,184.000003509522,10|8,0:2|0:2,0:2:0:0:
29,174,171205,1,2,1:2:0:0:
180,146,171363,1,14,0:0:0:0:
91,351,171521,1,2,1:2:0:0:
91,351,171599,1,0,1:2:0:0:
91,351,171678,2,0,P|82:305|72:260,1,92.0000017547608,10|0,0:2|1:2,0:2:0:0:
176,363,171994,6,0,P|238:340|289:382,1,138.000002632141,10|0,0:2|1:2,0:0:0:0:
289,382,172310,2,0,P|336:373|383:364,1,95.9999970703126,6|0,1:2|1:2,0:2:0:0:
512,207,172626,2,0,B|524:161|524:161|494:122,1,95.9999970703126,10|0,0:2|1:2,0:2:0:0:
358,210,172942,1,8,0:2:0:0:
508,342,173099,1,0,1:2:0:0:
381,99,173257,2,0,P|334:108|287:117,1,95.9999970703126,10|0,0:2|1:2,0:2:0:0:
453,18,173573,5,14,1:2:0:0:
253,232,173810,1,8,0:0:0:0:
260,214,173889,1,10,0:2:0:0:
508,342,174126,1,8,0:0:0:0:
501,324,174205,1,10,0:2:0:0:
453,18,174836,5,4,0:3:0:0:
479,342,184310,6,0,P|490:305|487:343,1,112,2|0,0:2|0:2,0:2:0:0:
478,341,184942,6,0,P|427:305|352:332,1,136.000002593994,2|0,1:3|1:2,0:2:0:0:
287,375,185415,1,2,0:0:0:0:
227,308,185573,2,0,P|208:244|244:190,1,136.000002593994,8|0,0:0|0:0,0:0:0:0:
177,106,186047,6,0,P|144:111|111:119,1,68.0000012969971,10|0,0:2|1:2,0:0:0:0:
111,119,186284,1,0,1:0:0:0:
111,119,186363,1,2,1:2:0:0:
126,35,186521,1,0,1:2:0:0:
201,0,186678,2,0,P|234:8|267:13,1,68.0000012969971,2|8,1:2|0:2,0:0:0:0:
267,13,186915,1,0,1:2:0:0:
267,13,186994,1,0,1:2:0:0:
267,13,187073,1,0,1:2:0:0:
267,13,187152,1,2,1:2:0:0:
372,0,187310,1,2,0:2:0:0:
427,125,187468,6,0,B|370:91|370:91|307:119,1,136.000002593994,2|0,1:3|1:2,0:2:0:0:
365,183,187942,1,2,0:0:0:0:
259,268,188099,2,0,B|192:240|192:240|156:252|158:288,1,136.000002593994,8|0,0:2|0:0,0:0:0:0:
361,340,188573,2,0,P|352:306|347:273,1,68.0000012969971,10|0,0:2|1:2,0:0:0:0:
347,273,188810,1,0,1:2:0:0:
347,273,188889,1,2,1:2:0:0:
347,273,188968,1,0,1:2:0:0:
347,273,189047,1,0,1:2:0:0:
461,384,189205,5,2,1:2:0:0:
461,384,189284,1,0,1:0:0:0:
461,384,189363,2,0,P|470:350|475:317,1,68.0000012969971,10|0,0:2|1:2,0:2:0:0:
508,248,189599,1,0,1:2:0:0:
512,242,189678,2,0,P|503:208|498:175,1,68.0000012969971,2|2,1:2|0:2,0:2:0:0:
489,32,189994,6,0,B|432:43|432:43|419:60|419:60|363:73,1,136.000002593994,2|0,1:3|1:2,0:2:0:0:
290,34,190468,1,2,0:2:0:0:
270,214,190626,2,0,P|226:167|242:103,1,136.000002593994,8|0,0:2|0:2,0:2:0:0:
356,168,191099,1,10,0:2:0:0:
289,299,191257,6,0,P|256:289|223:282,1,68.0000012969971,0|0,1:2|1:2,0:2:0:0:
217,285,191494,1,0,1:2:0:0:
211,288,191573,1,2,1:2:0:0:
271,215,191731,1,2,1:2:0:0:
138,346,191889,1,8,0:2:0:0:
138,346,191968,1,0,1:2:0:0:
138,346,192047,1,0,1:2:0:0:
138,346,192126,1,0,1:2:0:0:
138,346,192205,2,0,P|129:313|120:280,1,68.0000012969971,2|0,1:2|0:2,0:2:0:0:
231,384,192521,5,6,1:3:0:0:
83,20,193784,5,2,1:3:0:0:
79,25,193863,1,2,1:3:0:0:
75,30,193942,2,0,L|62:70,1,41.9999987182618,2|2,1:3|1:3,0:0:0:0:
16,178,194099,1,8,1:2:0:0:
44,171,194177,1,8,0:2:0:0:
73,165,194256,1,8,0:2:0:0:
101,160,194335,1,8,0:2:0:0:
130,154,194415,5,4,1:2:0:0:
137,157,194494,1,0,1:0:0:0:
144,160,194573,2,0,L|132:201,1,41.9999987182618,4|8,0:3|0:3,0:0:0:0:
86,317,194731,1,2,1:3:0:0:
82,312,194810,1,2,1:3:0:0:
78,307,194889,2,0,L|65:267,1,41.9999987182618,2|2,1:3|1:3,0:0:0:0:
195,332,195047,6,0,P|234:307|279:316,1,95.9999970703126,4|2,1:0|1:2,0:2:0:0:
412,360,195363,1,8,0:2:0:0:
409,144,195521,1,2,1:2:0:0:
403,151,195599,1,0,1:2:0:0:
397,159,195678,2,0,P|382:204|369:250,1,95.9999970703126,8|2,0:2|1:2,0:0:0:0:
472,236,195994,1,8,0:2:0:0:
281,171,196152,6,0,P|265:126|286:84,1,95.9999970703126,2|8,1:2|0:2,0:2:0:0:
195,332,196468,2,0,P|150:348|108:327,1,95.9999970703126,2|8,1:2|0:2,0:2:0:0:
18,143,196784,1,2,1:2:0:0:
25,148,196863,1,0,1:2:0:0:
33,153,196942,2,0,P|80:145|128:140,1,95.9999970703126,8|0,0:2|1:2,0:2:0:0:
65,60,197257,1,10,0:2:0:0:
281,171,197415,6,0,B|255:250|255:250|269:276|269:276|242:358,1,191.999994140625,6|2,1:2|1:2,0:2:0:0:
238,360,197810,1,0,1:2:0:0:
232,367,197889,1,8,0:2:0:0:
469,228,198047,2,0,P|421:235|373:240,1,95.9999970703126,2|8,1:2|0:2,0:2:0:0:
146,148,198363,1,2,1:2:0:0:
347,324,198521,1,10,0:2:0:0:
144,383,198678,6,0,P|123:342|141:299,1,95.9999970703126,2|8,1:2|0:2,0:2:0:0:
366,65,198994,2,0,P|387:106|369:149,1,95.9999970703126,2|8,1:2|0:2,0:2:0:0:
103,55,199310,1,2,1:2:0:0:
110,50,199389,1,0,1:2:0:0:
118,45,199468,2,0,P|165:53|213:58,1,95.9999970703126,8|0,0:2|1:2,0:0:0:0:
273,254,199784,1,10,0:2:0:0:
11,189,199942,6,0,B|57:138|118:159|118:159|141:192|182:194,1,191.999994140625,6|0,1:2|1:2,0:2:0:0:
34,303,200415,1,10,0:2:0:0:
198,384,200573,1,2,1:2:0:0:
203,376,200652,1,0,1:2:0:0:
208,366,200731,2,0,P|199:319|193:272,1,95.9999970703126,8|0,0:2|1:2,0:2:0:0:
418,195,201047,1,10,0:2:0:0:
273,254,201205,1,2,1:2:0:0:
469,384,201363,6,0,P|422:375|375:369,1,95.9999970703126,8|0,0:2|1:2,0:2:0:0:
273,254,201678,1,10,0:2:0:0:
391,113,201836,2,0,P|421:148|419:195,1,95.9999970703126,2|8,1:2|0:2,0:2:0:0:
268,123,202152,1,0,1:2:0:0:
488,275,202310,1,10,0:2:0:0:
264,368,202468,6,0,B|209:373|176:348|201:319|157:286|97:297,1,191.999994140625,6|0,1:2|1:2,0:2:0:0:
273,254,202942,1,8,0:2:0:0:
105,28,203099,1,0,1:2:0:0:
111,34,203178,1,0,1:2:0:0:
117,40,203257,2,0,P|106:86|94:133,1,95.9999970703126,10|0,0:2|1:2,0:2:0:0:
203,98,203573,5,8,0:2:0:0:
27,223,203731,1,2,1:2:0:0:
215,343,203889,5,8,0:2:0:0:
166,220,204047,1,0,1:2:0:0:
323,68,204205,5,8,0:2:0:0:
274,191,204363,1,0,1:2:0:0:
274,191,204442,1,0,1:2:0:0:
274,191,204521,5,8,0:2:0:0:
366,166,204678,1,8,0:2:0:0:
414,259,204836,1,8,0:2:0:0:
414,259,204915,1,8,0:2:0:0:
414,259,204994,1,8,0:2:0:0:
304,359,205152,6,0,P|313:309|321:260,1,100,4|2,1:1|1:2,0:2:0:0:
396,335,205468,1,8,0:2:0:0:
240,267,205626,1,2,1:2:0:0:
240,267,205705,1,0,1:2:0:0:
240,267,205784,1,8,0:2:0:0:
66,362,205942,2,0,P|112:374|154:349,1,100,2|8,1:2|0:2,0:2:0:0:
1,222,206257,5,2,1:2:0:0:
183,91,206415,1,8,0:2:0:0:
100,288,206573,2,0,P|109:238|117:189,1,100,2|8,1:2|0:2,0:0:0:0:
306,14,206889,1,2,1:2:0:0:
311,22,206968,1,0,1:2:0:0:
316,30,207047,2,0,P|307:80|299:129,1,100,8|2,0:2|1:2,0:0:0:0:
183,91,207363,1,10,0:2:0:0:
261,301,207521,6,0,B|369:273|369:273|417:285|405:345,1,200,6|2,1:2|1:2,0:2:0:0:
401,351,207915,1,0,1:2:0:0:
395,359,207994,1,10,0:2:0:0:
175,261,208152,2,0,B|156:213|156:213|185:174,1,100,2|8,1:2|0:2,0:2:0:0:
103,304,208468,1,2,1:2:0:0:
240,228,208626,1,10,0:2:0:0:
126,111,208784,6,0,P|76:120|27:129,1,100,2|8,1:2|0:2,0:2:0:0:
302,0,209099,2,0,P|293:50|284:99,1,100,2|8,1:2|0:2,0:2:0:0:
328,328,209415,1,2,1:2:0:0:
336,322,209494,1,0,1:2:0:0:
344,316,209573,2,0,P|367:273|351:227,1,100,8|0,0:2|1:2,0:0:0:0:
252,384,209889,1,10,0:2:0:0:
95,195,210047,6,0,B|172:208|172:208|196:248|196:248|272:260,1,200,6|0,1:2|1:2,0:2:0:0:
420,197,210521,1,10,0:2:0:0:
295,5,210678,1,2,1:2:0:0:
287,11,210757,1,0,1:2:0:0:
279,17,210836,2,0,P|256:60|272:106,1,100,8|0,0:2|1:2,0:2:0:0:
164,345,211152,1,10,0:2:0:0:
329,187,211310,1,10,0:2:0:0:
126,111,211468,5,8,0:2:0:0:
126,111,211626,1,0,1:2:0:0:
309,335,211784,1,10,0:2:0:0:
483,272,211942,1,2,1:2:0:0:
478,262,212021,1,0,1:2:0:0:
473,252,212099,2,0,P|423:261|375:272,1,100,8|0,0:2|1:2,0:2:0:0:
237,384,212415,1,10,0:2:0:0:
87,195,212573,6,0,B|142:172|197:199|172:235|215:263|276:244,1,200,6|0,1:2|1:2,0:2:0:0:
271,238,212968,1,0,1:2:0:0:
275,229,213047,1,8,0:2:0:0:
156,324,213205,1,0,1:2:0:0:
340,154,213363,2,0,P|290:144|242:133,1,100,10|0,0:2|1:2,0:2:0:0:
67,209,213678,1,8,0:2:0:0:
217,45,213836,1,10,0:2:0:0:
31,12,213994,6,0,B|-13:62|-13:62|14:126,1,138.000002632141,6|0,1:2|1:2,0:2:0:0:
20,120,214310,1,0,1:2:0:0:
25,112,214389,1,0,1:2:0:0:
29,104,214468,1,8,1:3:0:0:
34,96,214547,1,0,1:2:0:0:
39,88,214626,6,0,L|54:131,1,46.0000008773804,10|8,1:2|1:3,0:0:0:0:
151,133,214784,1,8,1:3:0:0:
156,142,214863,2,0,L|141:186,1,46.0000008773804,8|10,1:3|1:3,0:0:0:0:
4,322,215099,1,2,1:2:0:0:
8,314,215178,1,4,1:3:0:0:
12,305,215257,6,0,B|88:323|88:323|111:358|111:358|183:372,1,184.000003509522,6|0,1:2|1:2,0:2:0:0:
339,294,215731,1,8,0:2:0:0:
262,213,215889,2,0,P|246:256|232:299,1,92.0000017547608,2|8,1:2|0:2,0:2:0:0:
359,201,216205,1,0,1:2:0:0:
359,201,216284,1,0,1:2:0:0:
359,201,216363,1,8,0:2:0:0:
96,124,216521,6,0,P|141:115|186:106,1,92.0000017547608,2|8,1:2|0:2,0:2:0:0:
167,209,216836,1,0,1:2:0:0:
167,209,216915,1,0,1:2:0:0:
167,209,216994,1,8,0:2:0:0:
291,102,217152,2,0,P|307:59|290:18,1,92.0000017547608,2|8,1:2|0:2,0:2:0:0:
189,9,217468,1,0,1:2:0:0:
189,9,217547,1,0,1:2:0:0:
189,9,217626,1,8,0:2:0:0:
338,190,217784,6,0,P|383:181|428:172,1,92.0000017547608,2|8,1:2|0:2,0:2:0:0:
411,270,218099,1,0,1:2:0:0:
411,270,218178,1,0,1:2:0:0:
411,270,218257,1,8,0:2:0:0:
275,356,218415,2,0,P|258:313|275:272,1,92.0000017547608,2|8,1:2|0:2,0:2:0:0:
382,381,218731,1,0,1:2:0:0:
382,381,218810,1,0,1:2:0:0:
382,381,218889,1,8,0:2:0:0:
249,192,219047,6,0,P|203:200|158:209,1,92.0000017547608,2|8,1:2|0:2,0:0:0:0:
80,186,219284,1,8,0:2:0:0:
71,183,219363,1,0,1:2:0:0:
183,116,219521,1,8,0:3:0:0:
83,302,219678,1,2,1:2:0:0:
83,302,219757,1,0,1:2:0:0:
83,302,219836,1,8,0:3:0:0:
184,372,219994,2,0,P|229:362|274:355,1,92.0000017547608,8|4,1:3|0:3,0:0:0:0:
359,241,220310,5,14,1:2:0:0:
359,241,220389,1,0,1:2:0:0:
359,241,220468,1,8,1:2:0:0:
397,356,220626,1,2,1:2:0:0:
512,187,220784,1,2,1:2:0:0:
507,178,220863,1,0,1:2:0:0:
502,168,220942,2,0,P|453:157|404:149,1,100,10|8,1:2|0:0,0:2:0:0:
477,46,221257,1,2,1:2:0:0:
477,46,221336,1,0,1:2:0:0:
477,46,221415,1,2,1:2:0:0:
293,111,221573,6,0,P|271:67|293:24,1,100,10|8,1:2|1:2,0:2:0:0:
411,150,221889,1,2,1:2:0:0:
411,150,221968,1,0,1:2:0:0:
411,150,222047,1,2,1:2:0:0:
273,224,222205,1,10,1:2:0:0:
425,282,222363,1,8,1:2:0:0:
316,360,222521,1,2,1:2:0:0:
316,360,222599,1,0,1:2:0:0:
316,360,222678,1,2,1:2:0:0:
425,282,222836,6,0,P|447:326|425:369,1,100,10|8,1:2|1:2,0:0:0:0:
362,221,223152,1,2,1:2:0:0:
205,355,223310,1,2,1:2:0:0:
211,347,223389,1,0,1:2:0:0:
217,340,223468,2,0,P|266:349|315:359,1,100,10|8,1:2|1:2,0:2:0:0:
164,231,223784,1,2,1:2:0:0:
164,231,223863,1,0,1:2:0:0:
164,231,223942,1,2,1:2:0:0:
74,384,224099,6,0,P|65:334|54:285,1,100,10|10,1:2|1:2,0:0:0:0:
57,143,224415,1,0,1:2:0:0:
57,143,224494,1,0,1:2:0:0:
57,143,224573,2,0,P|81:137|105:132,1,50,4|4,0:3|0:3,0:2:0:0:
217,29,224731,1,10,1:2:0:0:
217,29,224810,1,4,0:3:0:0:
217,29,224889,2,0,P|192:34|168:39,1,50,8|8,1:2|1:3,0:2:0:0:
267,192,225047,5,8,1:3:0:0:
290,172,225126,1,8,1:3:0:0:
301,144,225205,1,8,1:3:0:0:
296,113,225284,1,8,1:3:0:0:
277,90,225363,6,0,P|258:159|243:229,1,143.999995605469,6|4,1:2|3:3,0:2:0:0:
201,302,225678,2,0,B|247:240|329:273|329:273|303:288|296:321,1,191.999994140625,8|4,0:2|0:3,0:2:0:0:
176,130,226231,1,8,0:3:0:0:
170,121,226310,2,4,P|146:115|122:112,2,47.9999985351563,4|4|4,0:3|0:3|0:3,0:3:0:0:
242,229,226626,5,4,1:3:0:0:
118,352,226784,1,4,0:3:0:0:
112,343,226863,1,4,0:3:0:0:
107,334,226942,2,0,P|117:287|127:240,1,95.9999970703126,8|0,0:3|0:3,0:3:0:0:
64,176,227178,1,8,0:3:0:0:
60,167,227257,1,8,0:3:0:0:
265,78,227573,5,4,0:3:0:0:
269,87,227652,1,8,0:2:0:0:
359,162,227810,1,8,0:2:0:0:
363,171,227889,1,14,0:3:0:0:
283,271,228047,6,0,P|213:250|143:236,1,143.999995605469,6|0,1:2|0:2,0:2:0:0:
63,175,228363,6,0,P|55:130|86:95,1,95.9999970703126,4|0,0:3|0:0,0:0:0:0:
170,57,228599,5,4,0:3:0:0:
68,302,228915,5,4,0:3:0:0:
143,236,229310,5,4,0:3:0:0:
249,353,229784,5,4,0:3:0:0:
370,255,230257,5,4,0:3:0:0:
