osu file format v14

[General]
AudioFilename: audio.mp3
AudioLeadIn: 0
PreviewTime: 50296
Countdown: 0
SampleSet: Drum
StackLeniency: 0.7
Mode: 0
LetterboxInBreaks: 0
EpilepsyWarning: 1
WidescreenStoryboard: 0

[Editor]
Bookmarks: 14760,37609,43331,73331
DistanceSpacing: 0.45
BeatDivisor: 4
GridSize: 32
TimelineZoom: 3.299999

[Metadata]
Title:1 (TV Size)
TitleUnicode:1 (TV Size)
Artist:MOB CHOIR
ArtistUnicode:MOB CHOIR
Creator:AirinCat
Version:One and Only 1
Source:モブサイコ100 Ⅲ
Tags:fuju anime japanese op j-rock rock jrock mob psycho 100 III 3rd season third opening Hyaku only One Hundred kageyama shigeo sana sajou no hana 六ツ見純代 amazuti KEYTONE 渡辺拓也 Takuya Watanabe Sumiyo Mutsumi
BeatmapID:3743421
BeatmapSetID:1824341

[Difficulty]
HPDrainRate:6
CircleSize:4
OverallDifficulty:8.6
ApproachRate:9
SliderMultiplier:1.6
SliderTickRate:1

[Events]
//Background and Video events
0,0,"mobred.jpg",0,0
Video,-64,"mobu1.mp4"
//Break Periods
//Storyboard Layer 0 (Background)
//Storyboard Layer 1 (Fail)
//Storyboard Layer 2 (Pass)
//Storyboard Layer 3 (Foreground)
//Storyboard Layer 4 (Overlay)
//Storyboard Sound Samples

[TimingPoints]
3324,357.142857142857,4,3,1,60,1,0
3324,-105.263157894737,4,3,1,60,0,0
9038,-100,4,2,1,60,0,0
14752,-111.111111111111,4,2,1,50,0,0
23323,-105.263157894737,4,2,1,50,0,0
26181,-100,4,2,1,60,0,0
36181,-90.9090909090909,4,2,1,60,0,0
37609,-100,4,2,1,60,0,0
43323,-100,4,2,1,40,0,0
45466,-100,4,2,1,50,0,0
46181,-90.9090909090909,4,2,1,60,0,0
48859,-66.6666666666667,4,2,1,70,0,0
49216,-76.9230769230769,4,2,1,70,0,0
50466,-76.9230769230769,4,2,1,75,0,1
62252,-66.6666666666667,4,2,1,75,0,1
62966,-76.9230769230769,4,2,1,75,0,1
66181,-76.9230769230769,4,2,1,75,0,1
71895,-76.9230769230769,4,2,1,75,0,0
73323,-76.9230769230769,4,2,1,80,0,1
84931,-111.111111111111,4,2,1,50,0,0
86002,-166.666666666667,4,2,1,30,0,0

[Colours]
Combo1 : 242,123,174
Combo2 : 230,87,87

[HitObjects]
134,260,3324,5,4,1:3:0:0:
36,368,3502,2,0,P|27:333|15:293,1,75.9999979705811,2|0,0:2|0:2,0:2:0:0:
171,156,3859,2,0,P|241:201|244:275,1,151.999995941162,2|2,3:2|0:2,0:2:0:0:
206,347,4395,1,8,0:3:0:0:
372,284,4574,1,8,0:3:0:0:
372,284,4663,1,8,0:3:0:0:
372,284,4752,2,0,P|409:292|457:309,1,75.9999979705811,12|0,0:3|0:2,0:2:0:0:
450,93,5109,1,0,0:2:0:0:
512,144,5288,2,0,P|448:187|378:164,1,151.999995941162,12|0,0:3|0:2,0:2:0:0:
243,69,5824,2,0,P|248:46|253:19,3,37.9999989852906,4|0|0|0,0:3|0:2|0:2|0:2,0:2:0:0:
339,57,6181,5,12,0:3:0:0:
161,149,6359,2,0,P|123:141|79:120,1,75.9999979705811,2|0,0:2|0:2,0:2:0:0:
215,329,6716,2,0,P|258:274|338:274,1,151.999995941162,2|2,3:2|0:2,0:2:0:0:
301,359,7252,1,8,0:3:0:0:
80,288,7431,1,8,0:3:0:0:
80,288,7520,1,8,0:3:0:0:
80,288,7609,2,0,P|66:217|47:140,1,151.999995941162,12|0,0:3|0:2,0:2:0:0:
263,11,8145,2,0,P|244:83|228:176,1,151.999995941162,12|0,0:3|0:2,0:2:0:0:
407,290,8681,2,0,L|424:293,12,9.49999974632264,4|0|0|0|0|0|0|0|0|0|0|0|0,0:3|0:2|0:2|0:2|0:2|0:2|0:2|0:2|0:2|0:2|0:2|0:2|0:2,0:2:0:0:
496,240,9038,5,6,1:2:0:0:
338,377,9216,2,0,P|292:314|305:237,2,160,2|2|2,0:2|3:2|0:2,0:2:0:0:
425,181,10109,1,8,0:3:0:0:
425,181,10288,1,8,0:3:0:0:
186,193,10466,2,0,B|98:190|108:152|33:152,1,160,12|0,0:3|3:3,0:2:0:0:
237,0,11002,2,0,P|296:47|303:128,1,160,12|8,0:3|0:3,0:2:0:0:
207,300,11538,1,4,3:3:0:0:
207,300,11627,1,0,3:2:0:0:
207,300,11716,1,0,3:2:0:0:
207,300,11806,1,0,3:2:0:0:
207,300,11895,1,12,3:3:0:0:
293,246,12073,6,0,P|332:252|371:262,1,80,2|0,0:2|3:3,0:2:0:0:
109,377,12431,2,0,P|34:352|9:278,1,160,2|2,3:2|0:2,0:2:0:0:
62,102,12966,1,8,0:3:0:0:
157,184,13145,1,8,0:3:0:0:
317,45,13323,2,0,P|393:61|480:78,1,160,12|0,0:3|0:2,0:2:0:0:
284,326,13859,1,12,0:3:0:0:
260,301,13948,1,8,0:3:0:0:
257,264,14038,1,8,0:3:0:0:
511,251,14216,1,4,0:3:0:0:
511,251,14306,1,4,0:3:0:0:
511,251,14395,2,0,L|433:273,1,80,4|0,0:3|0:2,0:2:0:0:
170,101,14752,5,6,1:3:0:0:
170,101,15109,2,0,L|252:125,1,71.9999978027344,0|4,3:3|0:3,0:3:0:0:
391,6,15466,2,0,L|316:24,1,71.9999978027344,0|8,3:3|0:3,0:3:0:0:
477,189,15823,1,4,0:3:0:0:
504,72,16002,1,4,0:3:0:0:
361,151,16181,6,0,L|394:290,1,143.999995605469,6|0,0:3|3:3,0:3:0:0:
343,381,16716,1,4,0:3:0:0:
196,238,16895,1,0,3:3:0:0:
296,258,17073,1,8,0:3:0:0:
195,348,17252,2,0,L|125:328,1,71.9999978027344,4|0,0:3|0:3,0:3:0:0:
2,160,17609,6,0,P|73:159|106:110,1,107.999996704102,6|0,0:3|0:3,0:3:0:0:
104,124,17966,2,0,L|92:86,2,35.9999989013672,0|0|4,3:3|3:3|0:3,0:3:0:0:
12,250,18323,2,0,P|20:279|29:320,1,71.9999978027344,0|8,3:3|0:3,0:3:0:0:
240,192,18681,1,4,0:3:0:0:
339,289,18859,1,4,0:3:0:0:
275,351,19038,6,0,P|205:332|134:321,1,143.999995605469,6|0,0:3|0:3,0:3:0:0:
336,187,19573,1,4,0:3:0:0:
436,294,19752,1,0,3:3:0:0:
512,222,19931,1,8,0:3:0:0:
448,124,20109,2,0,P|452:87|461:52,1,71.9999978027344,4|0,0:3|0:3,0:3:0:0:
250,196,20466,5,12,0:3:0:0:
250,196,20823,2,0,P|212:190|179:182,1,71.9999978027344,0|4,3:3|0:3,0:3:0:0:
299,370,21181,2,0,P|303:329|311:294,1,71.9999978027344,0|8,3:3|0:3,0:3:0:0:
87,200,21538,1,4,0:3:0:0:
0,289,21716,1,4,0:3:0:0:
48,353,21895,6,0,P|105:332|199:325,1,143.999995605469,6|0,0:3|3:3,0:3:0:0:
382,156,22431,1,4,0:3:0:0:
372,288,22609,1,0,3:3:0:0:
251,228,22788,1,8,0:3:0:0:
279,137,22966,2,0,L|263:66,1,71.9999978027344,4|8,0:3|0:3,0:3:0:0:
306,0,23234,1,8,0:3:0:0:
306,0,23323,6,0,P|251:50|177:46,1,151.999995941162,6|0,0:3|3:3,0:3:0:0:
88,232,23859,1,6,0:3:0:0:
0,116,24038,2,0,P|42:126|79:135,1,75.9999979705811,2|8,3:3|0:3,0:3:0:0:
222,242,24395,1,4,0:3:0:0:
87,335,24573,1,4,0:3:0:0:
240,143,24752,6,0,P|315:194|318:285,1,189.999994926453,6|0,0:3|0:3,0:3:0:0:
284,362,25288,1,12,0:3:0:0:
248,345,25377,1,8,0:3:0:0:
230,303,25466,1,8,0:3:0:0:
463,140,25645,1,2,3:3:0:0:
490,173,25734,1,2,3:3:0:0:
478,219,25823,2,0,P|459:221|441:227,1,37.9999989852906,2|2,3:3|3:3,0:3:0:0:
304,165,26002,2,0,P|322:162|340:156,1,37.9999989852906,2|2,3:3|3:3,0:3:0:0:
390,70,26181,6,0,P|376:32|366:-8,1,80,2|0,1:2|3:2,0:2:0:0:
192,131,26538,2,0,P|206:169|216:209,1,80,2|0,1:2|0:2,0:2:0:0:
106,330,26895,2,0,P|67:317|28:311,1,80,2|0,1:2|0:2,0:2:0:0:
348,247,27252,2,0,P|389:254|430:273,1,80,2|4,1:2|0:3,0:2:0:0:
464,354,27520,1,4,0:3:0:0:
464,354,27609,6,0,P|516:286|490:212,1,160,4|0,1:3|1:2,0:2:0:0:
316,112,28145,1,8,0:3:0:0:
246,197,28323,2,0,P|256:235|266:274,1,80,0|0,1:2|0:2,0:2:0:0:
421,69,28681,1,4,1:3:0:0:
258,0,28859,5,4,0:3:0:0:
258,0,28948,1,4,0:3:0:0:
258,0,29038,2,0,P|196:47|118:39,1,160,4|2,1:3|1:2,0:2:0:0:
146,226,29573,1,0,3:2:0:0:
9,167,29752,2,0,P|48:158|86:147,1,80,2|0,1:2|0:2,0:2:0:0:
145,346,30109,2,0,P|104:356|67:366,1,80,2|0,1:2|0:2,0:2:0:0:
271,189,30466,6,0,B|355:188|346:223|437:225,1,160,4|0,1:3|1:2,0:2:0:0:
508,197,31002,1,8,0:3:0:0:
382,300,31181,1,2,1:2:0:0:
311,109,31359,1,2,0:2:0:0:
486,0,31538,2,0,P|498:37|507:76,1,80,4|4,1:3|0:3,0:2:0:0:
505,85,31806,1,4,0:3:0:0:
503,93,31895,6,0,P|465:107|426:115,1,80,4|0,1:3|0:2,0:2:0:0:
156,229,32252,2,0,P|195:235|233:247,1,80,2|0,1:2|0:2,0:2:0:0:
385,384,32609,2,0,P|399:345|405:307,1,80,2|0,1:2|0:2,0:2:0:0:
237,146,32966,1,4,1:3:0:0:
94,296,33145,5,4,0:3:0:0:
94,296,33234,1,4,0:3:0:0:
94,296,33323,2,0,P|22:267|1:193,1,160,4|2,1:3|1:2,0:2:0:0:
144,5,33859,1,8,0:3:0:0:
205,76,34038,2,0,P|193:114|186:153,1,80,2|0,1:2|0:2,0:2:0:0:
356,330,34395,1,4,1:3:0:0:
488,241,34573,5,4,0:3:0:0:
488,241,34663,1,4,0:3:0:0:
488,241,34752,2,0,P|408:229|331:210,1,160,4|0,1:3|1:2,0:2:0:0:
140,293,35288,1,0,3:2:0:0:
227,379,35466,2,0,P|232:340|241:301,1,80,0|0,1:2|0:2,0:2:0:0:
103,84,35823,1,4,1:3:0:0:
39,223,36002,1,4,0:3:0:0:
270,130,36181,6,0,B|317:119|317:119|344:85|344:85|388:77,1,132.00000402832,2|0,1:1|0:2,0:2:0:0:
469,102,36538,2,0,L|498:186,1,88.000002685547,2|0,1:1|0:2,0:2:0:0:
169,374,36895,2,0,L|142:277,1,88.000002685547,2|8,1:1|3:3,0:2:0:0:
199,211,37163,1,8,3:3:0:0:
199,211,37252,2,0,P|220:214|240:223,1,44.0000013427735,8|8,1:3|3:3,0:3:0:0:
378,173,37431,2,0,P|364:189|344:199,1,44.0000013427735,8|8,3:3|3:3,0:3:0:0:
316,289,37609,6,0,B|273:235|315:191|276:137,1,160,4|0,1:2|1:2,0:2:0:0:
61,27,38145,1,0,3:2:0:0:
37,137,38323,2,0,L|116:117,1,80,0|0,1:2|3:2,0:2:0:0:
300,0,38681,1,0,1:2:0:0:
300,0,38770,1,0,3:2:0:0:
300,0,38859,1,0,3:2:0:0:
425,100,39038,6,0,P|445:177|458:256,1,160,0|0,1:2|1:2,0:2:0:0:
419,340,39573,1,2,3:2:0:0:
241,226,39752,1,2,1:2:0:0:
356,189,39931,1,2,3:2:0:0:
243,336,40109,2,0,P|209:326|166:314,1,80,0|8,1:2|0:3,0:2:0:0:
81,347,40377,1,8,0:3:0:0:
81,347,40466,6,0,P|27:284|55:199,1,160,0|0,1:2|1:2,0:2:0:0:
190,42,41002,2,0,P|203:79|213:118,1,80,2|0,3:2|1:2,0:2:0:0:
103,105,41359,1,0,3:2:0:0:
298,0,41538,1,2,1:2:0:0:
298,0,41627,1,0,3:2:0:0:
298,0,41716,1,0,3:2:0:0:
369,97,41895,6,0,P|433:139|509:120,1,160,2|0,1:2|1:2,0:2:0:0:
508,120,42341,1,0,3:2:0:0:
508,120,42431,1,0,3:2:0:0:
260,204,42609,2,0,P|247:245|239:289,1,80,0|0,1:2|0:2,0:2:0:0:
496,384,42966,2,0,P|507:344|513:298,1,80,2|0,1:2|0:2,0:2:0:0:
382,208,43323,5,2,1:2:0:0:
414,290,43502,1,0,1:2:0:0:
414,290,43591,1,0,3:2:0:0:
414,290,43681,1,0,1:2:0:0:
365,354,43859,1,0,1:2:0:0:
288,379,44038,1,0,1:2:0:0:
213,350,44216,1,0,1:2:0:0:
189,279,44395,1,0,1:2:0:0:
189,279,44484,1,0,1:2:0:0:
189,279,44573,1,0,1:2:0:0:
241,212,44752,5,2,1:2:0:0:
119,149,44931,1,0,1:2:0:0:
288,58,45109,1,0,1:2:0:0:
288,58,45198,1,0,1:2:0:0:
288,58,45288,1,0,1:2:0:0:
95,3,45466,1,2,1:2:0:0:
95,3,45556,1,0,1:2:0:0:
95,3,45645,5,0,1:2:0:0:
232,183,45823,1,8,1:1:0:0:
406,28,46002,1,8,1:1:0:0:
512,210,46181,6,0,L|494:296,1,88.000002685547,2|0,1:2|1:2,0:2:0:0:
352,160,46538,1,0,1:2:0:0:
182,369,46716,2,0,L|162:281,1,88.000002685547,2|0,1:2|1:2,0:2:0:0:
305,314,47073,1,0,1:2:0:0:
65,362,47252,1,8,1:1:0:0:
305,314,47431,1,8,1:1:0:0:
33,159,47609,5,8,0:2:0:0:
33,159,47698,1,8,0:2:0:0:
33,159,47788,1,0,1:2:0:0:
162,283,47966,1,0,1:2:0:0:
341,82,48145,1,8,0:2:0:0:
341,82,48234,1,8,0:2:0:0:
341,82,48323,1,0,1:2:0:0:
167,164,48502,1,0,1:2:0:0:
446,336,48681,1,8,0:2:0:0:
446,336,48770,1,8,0:2:0:0:
446,336,48859,2,0,B|435:236|508:265|499:171,1,180.000006866455,0|0,1:2|0:2,0:2:0:0:
421,103,49216,6,0,B|328:94|328:94|292:169|292:169|208:197,1,259.999988098145,2|0,1:1|0:2,0:2:0:0:
192,198,49752,2,0,L|244:217,1,51.999997619629,2|0,1:1|0:2,0:2:0:0:
288,298,49931,2,0,L|231:321,1,51.999997619629,0|0,1:2|0:2,0:2:0:0:
127,384,50109,2,0,B|86:354|86:354|97:289,1,103.999995239258,2|2,1:1|3:3,0:2:0:0:
15,291,50377,1,2,3:3:0:0:
8,285,50466,6,0,P|98:247|99:148,1,207.999990478516,4|8,1:1|0:2,0:2:0:0:
41,90,51002,1,2,0:2:0:0:
231,251,51181,1,2,1:2:0:0:
396,49,51359,1,2,0:2:0:0:
183,84,51538,1,10,0:2:0:0:
386,290,51716,1,2,0:2:0:0:
512,114,51895,6,0,P|395:140|293:160,1,207.999990478516,6|8,1:2|0:2,0:2:0:0:
60,352,52431,1,2,0:2:0:0:
60,352,52520,1,8,0:2:0:0:
60,352,52609,2,0,P|52:327|46:299,1,51.999997619629,0|8,1:2|0:2,0:2:0:0:
169,109,52788,2,0,P|177:131|183:158,1,51.999997619629,2|0,3:2|0:2,0:2:0:0:
112,249,52966,2,0,P|61:254|21:222,1,103.999995239258,10|2,0:2|0:2,0:2:0:0:
200,333,53234,1,8,0:2:0:0:
196,338,53323,6,0,P|254:257|354:264,1,207.999990478516,6|8,1:2|0:2,0:2:0:0:
422,320,53859,1,2,0:2:0:0:
226,123,54038,1,2,1:2:0:0:
486,159,54216,1,2,0:2:0:0:
310,366,54395,1,10,0:2:0:0:
124,220,54573,1,2,0:2:0:0:
294,0,54752,6,0,P|325:105|347:200,1,207.999990478516,6|8,1:2|0:2,0:2:0:0:
55,377,55288,1,2,0:2:0:0:
55,377,55377,1,8,0:2:0:0:
55,377,55466,2,0,L|37:310,2,51.999997619629,2|8|2,1:2|0:2|0:2,0:2:0:0:
234,260,55823,1,10,0:2:0:0:
7,98,56002,5,8,0:2:0:0:
7,98,56091,1,8,0:2:0:0:
7,98,56181,2,0,P|100:134|187:80,1,207.999990478516,6|8,1:2|0:2,0:2:0:0:
134,19,56716,1,2,0:2:0:0:
48,243,56895,1,2,1:2:0:0:
134,19,57073,1,2,0:2:0:0:
381,223,57252,1,10,0:2:0:0:
512,32,57431,1,2,3:2:0:0:
512,32,57520,1,0,3:2:0:0:
512,32,57609,6,0,P|430:53|297:75,1,207.999990478516,6|8,1:2|0:2,0:2:0:0:
191,365,58145,1,2,0:2:0:0:
191,365,58234,1,8,0:2:0:0:
191,365,58323,2,0,L|253:384,1,51.999997619629,2|8,1:2|0:2,0:2:0:0:
386,272,58502,2,0,L|335:258,1,51.999997619629,2|0,3:2|0:2,0:2:0:0:
242,152,58681,2,0,P|204:185|203:236,1,103.999995239258,10|2,0:2|0:2,0:2:0:0:
414,375,58948,1,8,0:2:0:0:
421,383,59038,6,0,P|487:307|463:205,1,207.999990478516,6|8,1:2|0:2,0:2:0:0:
405,160,59573,1,2,0:2:0:0:
229,336,59752,1,2,1:2:0:0:
75,149,59931,1,2,0:2:0:0:
325,89,60109,1,10,0:2:0:0:
129,286,60288,1,2,3:2:0:0:
129,286,60377,1,2,3:2:0:0:
129,286,60466,6,0,P|78:271|27:254,1,103.999995239258,6|8,1:2|0:2,0:2:0:0:
19,260,60734,1,8,0:2:0:0:
11,267,60823,1,0,1:2:0:0:
211,75,61002,1,2,0:2:0:0:
211,75,61091,1,8,0:2:0:0:
211,75,61181,2,0,P|224:97|227:122,1,51.999997619629,10|8,1:2|0:2,0:2:0:0:
330,155,61359,2,0,P|326:180|313:202,1,51.999997619629,10|8,0:2|0:2,0:2:0:0:
224,337,61538,2,0,P|206:318|200:293,1,51.999997619629,10|0,1:2|3:2,0:2:0:0:
115,252,61716,2,0,P|120:226|138:208,1,51.999997619629,10|0,1:2|3:2,0:2:0:0:
220,211,61895,6,0,B|291:212|286:267|359:274,1,155.999992858887,4|0,1:1|0:2,0:2:0:0:
438,241,62252,2,0,P|448:181|463:124,1,120.000004577637,14|0,0:2|0:2,0:2:0:0:
183,26,62609,1,2,1:2:0:0:
270,136,62788,1,2,0:2:0:0:
36,290,62966,2,0,P|0:253|7:204,1,103.999995239258,10|8,0:2|0:2,0:2:0:0:
74,152,63234,1,8,0:2:0:0:
75,161,63323,6,0,B|143:164|120:214|210:230,1,155.999992858887,0|0,1:2|0:2,0:2:0:0:
210,230,63681,1,10,0:2:0:0:
360,61,63859,1,2,0:2:0:0:
360,61,63948,1,8,0:2:0:0:
360,61,64038,2,0,P|323:96|328:146,1,103.999995239258,2|0,1:2|0:2,0:2:0:0:
421,378,64395,2,0,P|457:342|452:292,1,103.999995239258,10|8,0:2|0:2,0:2:0:0:
509,232,64663,1,8,0:2:0:0:
512,241,64752,6,0,P|438:266|360:274,1,155.999992858887,6|0,1:2|0:2,0:2:0:0:
300,338,65109,2,0,P|245:320|187:311,1,103.999995239258,10|0,0:2|0:2,0:2:0:0:
106,63,65466,1,2,1:2:0:0:
256,140,65645,1,2,0:2:0:0:
82,312,65823,1,10,0:2:0:0:
0,127,66002,5,8,0:2:0:0:
0,127,66091,1,8,0:2:0:0:
0,127,66181,2,0,B|72:127|64:188|146:193,1,155.999992858887,6|0,1:2|0:2,0:2:0:0:
137,192,66538,1,8,0:2:0:0:
290,41,66716,1,2,0:2:0:0:
290,41,66806,1,8,0:2:0:0:
290,41,66895,2,0,P|326:73|325:125,1,103.999995239258,2|0,1:2|0:2,0:2:0:0:
263,378,67252,2,0,P|224:344|226:293,1,103.999995239258,14|8,0:2|0:2,0:2:0:0:
283,244,67520,1,8,0:2:0:0:
296,241,67609,5,4,1:3:0:0:
413,306,67788,1,8,1:3:0:0:
512,47,67966,2,0,P|462:62|410:68,1,103.999995239258,14|0,0:2|1:2,0:2:0:0:
315,112,68234,1,0,1:2:0:0:
307,123,68323,2,0,P|252:114|205:92,1,103.999995239258,10|0,0:2|1:2,0:2:0:0:
124,96,68591,1,0,1:2:0:0:
113,84,68681,1,10,1:2:0:0:
52,332,68859,1,0,1:2:0:0:
52,332,68948,1,0,1:2:0:0:
52,332,69038,6,0,P|120:298|132:215,1,155.999992858887,6|0,1:2|0:2,0:2:0:0:
123,216,69395,1,10,0:2:0:0:
251,345,69573,1,0,1:2:0:0:
251,345,69663,1,0,1:2:0:0:
251,345,69752,1,8,0:2:0:0:
374,182,69931,1,0,1:2:0:0:
374,182,70020,1,0,1:2:0:0:
374,182,70109,1,10,0:2:0:0:
155,67,70288,1,2,1:2:0:0:
155,67,70377,1,0,1:2:0:0:
155,67,70466,6,0,P|211:57|267:35,1,103.999995239258,6|0,1:2|1:2,0:2:0:0:
443,360,70823,2,0,P|394:341|342:332,1,103.999995239258,10|0,0:2|1:2,0:2:0:0:
328,336,71091,1,0,1:2:0:0:
316,346,71181,1,8,0:2:0:0:
478,179,71359,1,0,1:2:0:0:
478,179,71448,1,0,1:2:0:0:
478,179,71538,1,8,0:2:0:0:
219,131,71716,5,0,1:2:0:0:
219,131,71806,1,0,1:2:0:0:
219,131,71895,1,2,1:3:0:0:
427,377,72252,5,2,1:3:0:0:
68,242,72609,5,2,1:3:0:0:
381,82,72966,5,2,1:3:0:0:
291,23,73145,5,2,3:3:0:0:
291,23,73234,1,2,3:3:0:0:
291,23,73323,1,4,1:1:0:0:
455,214,73502,2,0,P|472:165|475:113,1,103.999995239258,2|8,0:2|0:2,0:2:0:0:
153,64,73859,2,0,P|135:110|134:171,1,103.999995239258,2|8,0:2|0:2,0:2:0:0:
343,380,74216,1,2,1:2:0:0:
328,205,74395,1,8,0:2:0:0:
99,320,74573,1,0,1:2:0:0:
99,320,74663,1,0,1:2:0:0:
99,320,74752,5,8,0:2:0:0:
209,159,74931,1,0,1:2:0:0:
506,338,75109,1,8,0:2:0:0:
435,158,75288,1,0,1:2:0:0:
204,344,75466,1,8,0:2:0:0:
79,190,75645,1,0,1:2:0:0:
333,3,75823,2,0,P|348:46|356:110,1,103.999995239258,8|0,0:2|1:2,0:2:0:0:
344,117,76091,1,0,1:2:0:0:
331,130,76181,5,10,1:2:0:0:
179,45,76359,2,0,P|127:50|78:68,1,103.999995239258,2|8,0:2|0:2,0:2:0:0:
336,316,76716,2,0,P|387:310|435:290,1,103.999995239258,2|8,0:2|0:2,0:2:0:0:
240,143,77073,1,2,1:2:0:0:
143,361,77252,1,8,0:2:0:0:
17,178,77431,1,0,1:2:0:0:
17,178,77520,1,0,1:2:0:0:
17,178,77609,5,8,0:2:0:0:
232,303,77788,1,0,1:2:0:0:
395,112,77966,1,8,0:2:0:0:
190,0,78145,1,0,1:2:0:0:
190,0,78234,1,0,1:2:0:0:
190,0,78323,2,0,P|174:49|168:103,1,103.999995239258,8|0,0:2|1:2,0:2:0:0:
468,344,78681,1,8,0:2:0:0:
494,319,78770,1,8,0:2:0:0:
506,284,78859,1,8,0:2:0:0:
503,248,78948,1,8,0:2:0:0:
486,216,79038,5,14,0:2:0:0:
287,350,79216,1,2,1:2:0:0:
168,100,79395,1,8,0:2:0:0:
377,167,79573,1,2,1:2:0:0:
160,342,79752,1,8,0:2:0:0:
43,171,79931,1,2,1:2:0:0:
43,171,80020,1,0,1:2:0:0:
43,171,80109,1,8,0:2:0:0:
289,25,80288,1,2,1:2:0:0:
289,25,80377,1,0,1:2:0:0:
289,25,80466,6,0,L|267:129,1,103.999995239258,8|0,0:2|1:2,0:2:0:0:
485,355,80823,2,0,B|519:314|519:314|506:264,1,103.999995239258,10|0,0:2|1:2,0:2:0:0:
488,256,81091,1,0,1:2:0:0:
471,248,81181,1,10,0:2:0:0:
168,359,81359,1,0,1:2:0:0:
168,359,81448,1,0,1:2:0:0:
168,359,81538,2,0,B|138:312|138:312|162:245,1,103.999995239258,10|8,0:2|0:2,0:2:0:0:
227,208,81806,1,8,0:2:0:0:
229,220,81895,6,0,L|292:238,1,51.999997619629,8|0,1:2|3:2,0:2:0:0:
369,186,82073,2,0,L|388:120,2,51.999997619629,8|8|2,0:2|0:2|1:2,0:2:0:0:
218,29,82431,5,8,0:2:0:0:
212,36,82520,1,8,0:2:0:0:
208,43,82609,2,0,P|202:64|195:98,1,51.999997619629,8|8,0:2|0:2,0:2:0:0:
74,221,82788,1,8,0:3:0:0:
79,215,82877,1,8,0:3:0:0:
84,207,82966,2,0,P|90:186|97:153,1,51.999997619629,8|8,1:3|0:3,0:2:0:0:
49,86,83145,2,0,P|22:77|-3:73,1,51.999997619629,8|8,0:3|0:3,0:2:0:0:
193,198,83323,5,10,0:2:0:0:
215,190,83413,1,8,0:2:0:0:
237,184,83502,1,2,3:2:0:0:
259,176,83591,1,8,0:2:0:0:
282,169,83681,2,0,P|291:194|297:218,1,51.999997619629,10|0,0:2|3:2,0:2:0:0:
408,281,83859,1,10,0:2:0:0:
408,281,83948,1,8,0:2:0:0:
408,281,84038,2,0,P|399:307|392:330,1,51.999997619629,8|10,0:2|0:2,0:2:0:0:
271,382,84216,2,0,P|261:357|255:332,1,51.999997619629,8|8,0:3|0:3,0:2:0:0:
408,166,84395,5,8,0:2:0:0:
454,170,84484,1,8,0:2:0:0:
495,192,84573,1,8,0:2:0:0:
512,235,84663,1,8,0:2:0:0:
508,284,84752,1,8,0:2:0:0:
306,168,84931,6,0,B|304:97|353:104|357:20,2,143.999995605469,2|2|2,0:2|0:2|0:2,0:2:0:0:
306,168,86002,2,0,P|236:169|192:115,1,143.999995605469,2|2,0:2|0:2,0:2:0:0:
35,323,86895,2,0,P|61:287|117:283,1,95.9999970703126,2|2,0:2|0:2,0:2:0:0:
109,280,87431,1,2,0:2:0:0:
