osu file format v14

[General]
AudioFilename: audio.mp3
AudioLeadIn: 0
PreviewTime: 50296
Countdown: 0
SampleSet: Soft
StackLeniency: 0.7
Mode: 0
LetterboxInBreaks: 0
EpilepsyWarning: 1
WidescreenStoryboard: 1

[Editor]
Bookmarks: 14760,37609,43331,73331
DistanceSpacing: 1.1
BeatDivisor: 4
GridSize: 4
TimelineZoom: 3.299999

[Metadata]
Title:1 (TV Size)
TitleUnicode:1 (TV Size)
Artist:MOB CHOIR
ArtistUnicode:MOB CHOIR
Creator:AirinCat
Version:Normal
Source:モブサイコ100 Ⅲ
Tags:fuju anime japanese op j-rock rock jrock mob psycho 100 III 3rd season third opening Hyaku only One Hundred kageyama shigeo sana sajou no hana 六ツ見純代 amazuti KEYTONE 渡辺拓也 Takuya Watanabe Sumiyo Mutsumi
BeatmapID:3743420
BeatmapSetID:1824341

[Difficulty]
HPDrainRate:3
CircleSize:3.8
OverallDifficulty:4
ApproachRate:5.4
SliderMultiplier:1
SliderTickRate:1

[Events]
//Background and Video events
0,0,"mobred.jpg",0,0
Video,-64,"mobu1.mp4"
//Break Periods
//Storyboard Layer 0 (Background)
//Storyboard Layer 1 (Fail)
//Storyboard Layer 2 (Pass)
//Storyboard Layer 3 (Foreground)
//Storyboard Layer 4 (Overlay)
//Storyboard Sound Samples

[TimingPoints]
3324,357.142857142857,4,3,1,60,1,0
3324,-105.263157894737,4,3,1,60,0,0
9038,-100,4,2,1,60,0,0
14752,-111.111111111111,4,2,1,50,0,0
23323,-105.263157894737,4,2,1,50,0,0
26181,-100,4,2,1,60,0,0
36181,-100,4,2,1,60,0,0
37609,-100,4,2,1,60,0,0
43323,-100,4,2,1,40,0,0
45466,-100,4,2,1,50,0,0
46181,-100,4,2,1,60,0,0
48859,-100,4,2,1,70,0,0
49216,-100,4,2,1,70,0,0
50466,-90.9090909090909,4,2,1,75,0,1
62252,-90.9090909090909,4,2,1,75,0,1
62609,-90.9090909090909,4,2,1,75,0,1
66181,-90.9090909090909,4,2,1,75,0,1
71895,-90.9090909090909,4,2,1,75,0,0
73323,-90.9090909090909,4,2,1,80,0,1
84931,-111.111111111111,4,2,1,50,0,0
86002,-111.111111111111,4,2,1,30,0,0

[Colours]
Combo1 : 242,123,174
Combo2 : 230,87,87

[HitObjects]
27,350,3324,5,4,1:3:0:0:
27,350,3502,2,0,P|19:303|7:257,1,94.9999974632264,2|2,0:2|0:2,0:2:0:0:
68,172,4216,2,0,P|61:148|51:108,2,47.4999987316132,2|8|8,0:2|0:3|0:3,0:0:0:0:
116,191,4752,2,0,P|164:179|212:162,1,94.9999974632264,12|0,0:3|0:2,0:2:0:0:
254,185,5288,1,12,0:3:0:0:
328,111,5645,1,0,0:2:0:0:
328,111,5824,1,4,0:3:0:0:
429,150,6181,5,12,0:3:0:0:
429,150,6359,2,0,P|445:191|452:242,1,94.9999974632264,2|2,0:2|0:2,0:2:0:0:
392,327,7074,2,0,L|402:376,2,47.4999987316132,2|8|8,0:2|0:3|0:3,0:0:0:0:
343,307,7609,2,0,P|294:309|247:324,1,94.9999974632264,12|0,0:3|0:2,0:2:0:0:
214,360,8145,1,12,0:3:0:0:
131,304,8502,1,0,0:2:0:0:
131,304,8681,1,4,0:3:0:0:
33,349,9038,5,6,1:2:0:0:
33,349,9216,2,0,P|23:298|8:246,2,100,2|2|2,0:2|3:2|0:2,0:2:0:0:
79,378,10109,2,0,P|108:369|141:365,1,50,8|8,0:3|0:3,0:0:0:0:
175,339,10466,2,0,P|223:346|275:361,1,100,12|0,0:3|3:3,0:2:0:0:
311,320,11002,1,12,0:3:0:0:
409,378,11359,1,8,0:3:0:0:
409,378,11538,1,4,3:3:0:0:
489,303,11895,5,12,3:3:0:0:
489,303,12073,2,0,P|475:252|467:191,2,100,2|2|2,0:2|3:2|0:2,0:2:0:0:
457,348,12966,2,0,P|429:355|402:365,1,50,8|8,0:3|0:3,0:0:0:0:
354,354,13323,2,0,P|323:316|329:267,1,100,12|0,0:3|0:2,0:2:0:0:
367,228,13859,1,12,0:3:0:0:
367,228,14038,1,8,0:3:0:0:
315,131,14395,1,4,0:3:0:0:
221,164,14752,6,0,P|178:159|132:148,1,89.9999972534181,6|0,1:3|3:3,0:0:0:0:
98,183,15288,1,4,0:3:0:0:
98,183,15466,1,0,3:3:0:0:
24,116,15823,1,4,0:3:0:0:
91,42,16181,6,0,P|127:49|184:59,1,89.9999972534181,6|0,0:3|3:3,0:3:0:0:
226,38,16716,1,4,0:3:0:0:
226,38,16895,2,0,L|314:21,1,89.9999972534181,0|4,3:3|0:3,0:0:0:0:
405,60,17609,1,6,0:3:0:0:
352,143,17966,2,0,L|365:199,1,44.999998626709,0|4,3:3|0:3,0:3:0:0:
350,235,18323,2,0,P|400:228|453:215,1,89.9999972534181,0|4,3:3|0:3,0:3:0:0:
487,242,18859,1,4,0:3:0:0:
487,242,19038,5,6,0:3:0:0:
458,336,19395,2,0,P|431:341|396:351,1,44.999998626709,0|4,0:3|0:3,0:0:0:0:
378,379,19752,1,0,3:3:0:0:
284,347,20109,2,0,P|264:301|260:256,1,89.9999972534181,4|12,0:3|0:3,0:3:0:0:
326,188,20823,2,0,P|325:164|315:136,1,44.999998626709,0|4,3:3|0:3,0:3:0:0:
277,115,21181,2,0,P|241:125|184:130,1,89.9999972534181,0|4,3:3|0:3,0:3:0:0:
149,110,21716,1,4,0:3:0:0:
149,110,21895,5,6,0:3:0:0:
59,151,22252,2,0,L|68:208,1,44.999998626709,0|4,3:3|0:3,0:0:0:0:
30,230,22609,1,0,3:3:0:0:
75,317,22966,1,4,0:3:0:0:
179,317,23323,6,0,P|223:313|289:301,1,94.9999974632264,6|0,0:3|3:3,0:3:0:0:
313,271,23859,1,6,0:3:0:0:
313,271,24038,2,0,P|357:279|406:289,1,94.9999974632264,2|4,3:3|0:3,0:3:0:0:
459,278,24573,1,4,0:3:0:0:
459,278,24752,1,6,0:3:0:0:
411,128,25288,2,0,P|413:100|423:75,2,47.4999987316132,12|8|2,0:3|0:3|3:3,0:0:0:0:
434,174,25823,1,2,3:3:0:0:
343,237,26181,6,0,P|287:229|229:212,1,100,2|2,1:2|1:2,0:2:0:0:
168,138,26895,1,2,1:2:0:0:
232,48,27252,2,0,P|252:49|284:59,1,50,2|4,1:2|0:3,0:2:0:0:
330,80,27609,2,0,P|378:88|423:68,1,100,4|0,1:3|1:2,0:2:0:0:
455,24,28145,1,8,0:3:0:0:
455,24,28323,1,0,1:2:0:0:
509,120,28681,2,0,P|488:164|477:228,1,100,4|4,1:3|1:3,0:0:0:0:
499,322,29395,5,2,1:2:0:0:
400,370,29752,1,2,1:2:0:0:
301,321,30109,2,0,P|289:296|283:264,1,50,2|0,1:2|0:2,0:2:0:0:
281,219,30466,2,0,P|244:236|175:242,1,100,4|0,1:3|1:2,0:2:0:0:
138,227,31002,1,8,0:3:0:0:
138,227,31181,1,2,1:2:0:0:
34,264,31538,2,0,P|9:215|12:172,1,100,4|4,1:3|1:3,0:2:0:0:
63,73,32252,5,2,1:2:0:0:
165,112,32609,1,2,1:2:0:0:
248,40,32966,2,0,P|280:33|300:27,1,50,4|4,1:3|0:3,0:0:0:0:
351,31,33323,2,0,P|382:68|383:117,1,100,4|2,1:3|1:2,0:2:0:0:
357,168,33859,1,8,0:3:0:0:
357,168,34038,2,0,P|333:211|345:258,1,100,2|4,1:2|1:3,0:2:0:0:
390,297,34573,1,4,0:3:0:0:
390,297,34752,5,4,1:3:0:0:
493,261,35109,2,0,L|502:210,2,50,0|0|0,1:2|3:2|1:2,0:0:0:0:
405,195,35823,2,0,L|414:144,1,50,4|4,1:3|0:3,0:0:0:0:
391,94,36181,2,0,B|349:66|349:66|292:83,1,100,2|2,1:1|1:1,0:2:0:0:
250,79,36716,1,0,0:2:0:0:
250,79,36895,2,0,B|227:125|227:125|257:181,1,100,2|8,1:1|1:3,0:2:0:0:
205,268,37609,6,0,P|157:274|101:286,1,100,4|0,1:2|1:2,0:2:0:0:
48,191,38323,2,0,P|18:196|-6:205,2,50,0|0|0,1:2|3:2|1:2,0:2:0:0:
66,82,39038,2,0,P|110:70|170:66,1,100,0|0,1:2|1:2,0:2:0:0:
220,84,39573,1,2,3:2:0:0:
220,84,39752,2,0,P|249:78|271:73,2,50,2|2|0,1:2|3:2|1:2,0:0:0:0:
171,182,40466,6,0,P|180:227|189:286,1,100,0|0,1:2|1:2,0:2:0:0:
165,330,41002,2,0,P|213:319|273:312,1,100,2|0,3:2|3:2,0:2:0:0:
305,277,41538,2,0,P|355:280|414:296,1,100,2|2,1:2|1:2,0:0:0:0:
497,235,42252,1,0,1:2:0:0:
427,150,42609,1,0,1:2:0:0:
485,56,42966,1,2,1:2:0:0:
383,13,43323,6,0,P|339:25|275:36,1,100,2|0,1:2|1:2,0:0:0:0:
251,78,43859,1,0,1:2:0:0:
251,78,44038,2,0,P|201:69|144:53,1,100,0|0,1:2|1:2,0:0:0:0:
115,24,44573,1,0,1:2:0:0:
115,24,44752,1,2,1:2:0:0:
32,96,45109,1,0,1:2:0:0:
117,165,45466,2,0,P|122:191|124:222,1,50,2|0,1:2|1:2,0:0:0:0:
77,244,45823,2,0,P|69:269|69:298,1,50,8|8,1:1|1:1,0:0:0:0:
100,338,46181,6,0,P|152:344|205:360,1,100,2|0,1:2|1:2,0:2:0:0:
247,335,46716,2,0,P|301:329|352:314,1,100,2|0,1:2|1:2,0:2:0:0:
394,340,47252,1,8,1:1:0:0:
472,262,47609,2,0,P|466:238|457:210,1,50,8|0,0:2|1:2,0:0:0:0:
359,164,48145,2,0,P|361:136|370:110,1,50,8|0,0:2|1:2,0:0:0:0:
430,24,48681,2,0,P|378:17|326:-1,1,100,8|0,0:2|0:0,0:0:0:0:
281,22,49216,6,0,B|240:51|240:51|257:119,1,100,2|0,1:1|0:0,0:2:0:0:
284,143,49752,2,0,B|294:168|294:168|279:192,1,50,2|0,1:1|1:2,0:2:0:0:
243,226,50109,2,0,B|217:236|217:236|194:221,1,50,2|2,1:1|3:3,0:2:0:0:
149,187,50466,6,0,P|95:201|41:209,1,110.000003356934,4|8,1:1|0:2,0:2:0:0:
13,265,51002,1,2,0:2:0:0:
13,265,51181,1,2,1:2:0:0:
75,368,51538,1,10,0:2:0:0:
190,332,51895,6,0,P|244:342|297:354,1,110.000003356934,6|8,1:2|0:2,0:2:0:0:
349,321,52431,1,2,0:2:0:0:
349,321,52609,1,0,1:2:0:0:
469,325,52966,2,0,P|475:293|485:268,1,55.0000016784668,10|2,0:2|0:2,0:2:0:0:
440,229,53323,6,0,B|429:171|412:186|402:126,1,110.000003356934,6|8,1:2|0:2,0:2:0:0:
423,71,53859,1,2,0:2:0:0:
423,71,54038,1,2,1:2:0:0:
321,5,54395,1,10,0:2:0:0:
227,82,54752,6,0,P|177:88|114:104,1,110.000003356934,6|8,1:2|0:2,0:2:0:0:
65,86,55288,1,2,0:2:0:0:
65,86,55466,1,2,1:2:0:0:
4,190,55823,2,0,L|14:243,1,55.0000016784668,10|8,0:2|0:2,0:0:0:0:
62,281,56181,6,0,P|114:266|169:260,1,110.000003356934,6|8,1:2|0:2,0:2:0:0:
216,221,56716,1,2,0:2:0:0:
216,221,56895,1,2,1:2:0:0:
323,276,57252,2,0,P|351:271|381:264,1,55.0000016784668,10|2,0:0|0:0,0:0:0:0:
394,207,57609,6,0,P|386:152|368:97,1,110.000003356934,6|8,1:2|0:2,0:2:0:0:
373,43,58145,1,2,0:2:0:0:
373,43,58323,1,2,1:2:0:0:
495,42,58681,2,0,P|504:67|508:99,1,55.0000016784668,10|2,0:2|0:2,0:2:0:0:
468,140,59038,6,0,B|470:194|488:188|491:247,1,110.000003356934,6|8,1:2|0:2,0:2:0:0:
472,305,59573,1,2,0:2:0:0:
472,305,59752,1,2,1:2:0:0:
359,260,60109,1,10,0:2:0:0:
289,358,60466,6,0,P|235:364|175:387,1,110.000003356934,6|0,1:2|1:2,0:2:0:0:
128,367,61002,1,2,0:2:0:0:
128,367,61181,2,0,P|116:337|116:311,1,55.0000016784668,10|10,1:2|0:2,0:2:0:0:
68,276,61538,2,0,P|66:247|77:214,1,55.0000016784668,10|10,1:2|1:2,0:2:0:0:
124,190,61895,6,0,B|181:196|173:217|241:232,2,110.000003356934,4|14|2,1:1|0:2|1:2,0:2:0:0:
135,69,62966,2,0,P|165:62|199:59,1,55.0000016784668,10|8,0:2|0:2,0:2:0:0:
232,17,63323,2,0,P|248:70|259:130,1,110.000003356934,0|10,1:2|0:2,0:2:0:0:
312,161,63859,1,2,0:2:0:0:
312,161,64038,1,2,1:2:0:0:
254,267,64395,2,0,P|230:271|196:279,1,55.0000016784668,10|8,0:2|0:2,0:2:0:0:
157,321,64752,5,6,1:2:0:0:
260,383,65109,2,0,P|312:367|379:359,1,110.000003356934,10|2,0:2|1:2,0:2:0:0:
410,317,65645,1,2,0:2:0:0:
410,317,65823,2,0,P|437:318|464:324,1,55.0000016784668,10|8,0:2|0:2,0:0:0:0:
512,288,66181,6,0,B|505:255|489:233|489:233|481:177,1,110.000003356934,6|8,1:2|0:2,0:2:0:0:
486,126,66716,1,2,0:2:0:0:
486,126,66895,1,2,1:2:0:0:
416,27,67252,2,0,P|392:33|358:41,1,55.0000016784668,14|8,0:2|0:2,0:2:0:0:
304,21,67609,5,4,1:3:0:0:
234,120,67966,2,0,P|245:168|257:240,1,110.000003356934,14|10,0:2|0:2,0:2:0:0:
228,284,68502,1,0,1:2:0:0:
228,284,68681,2,0,P|198:289|164:301,1,55.0000016784668,10|0,1:2|1:2,0:0:0:0:
127,335,69038,6,0,P|85:322|7:313,1,110.000003356934,6|10,1:2|0:2,0:2:0:0:
4,259,69573,1,0,1:2:0:0:
4,259,69752,1,8,0:2:0:0:
75,161,70109,2,0,P|106:165|135:173,1,55.0000016784668,10|2,0:2|1:2,0:0:0:0:
188,160,70466,5,6,1:2:0:0:
279,80,70823,1,10,0:2:0:0:
373,156,71181,2,0,P|366:178|358:226,1,55.0000016784668,8|0,0:2|1:2,0:0:0:0:
303,231,71538,2,0,P|310:257|318:295,1,55.0000016784668,8|0,0:2|1:2,0:0:0:0:
362,323,71895,5,2,1:3:0:0:
472,272,72252,1,2,1:3:0:0:
498,153,72609,1,2,1:3:0:0:
427,54,72966,2,0,L|358:35,1,55.0000016784668,2|2,1:3|3:3,0:0:0:0:
316,57,73323,6,0,P|295:107|289:162,1,110.000003356934,4|8,1:1|0:2,0:0:0:0:
250,208,73859,2,0,P|295:224|363:230,1,110.000003356934,2|2,0:2|1:2,0:2:0:0:
409,200,74395,1,8,0:2:0:0:
478,298,74752,1,8,0:2:0:0:
386,377,75109,1,8,0:2:0:0:
294,297,75466,1,8,0:2:0:0:
184,348,75823,2,0,P|159:352|122:367,1,55.0000016784668,8|0,0:2|1:2,0:2:0:0:
71,350,76181,6,0,P|40:305|46:251,1,110.000003356934,10|8,1:2|0:2,0:0:0:0:
26,194,76716,2,0,P|76:207|138:220,1,110.000003356934,2|2,0:2|1:2,0:2:0:0:
187,193,77252,1,8,0:2:0:0:
161,74,77609,1,8,0:2:0:0:
262,8,77966,1,8,0:2:0:0:
378,40,78323,2,0,L|392:99,1,55.0000016784668,8|0,0:2|1:2,0:2:0:0:
439,130,78681,2,0,L|424:190,1,55.0000016784668,8|8,0:2|0:2,0:0:0:0:
374,215,79038,6,0,P|327:194|255:183,1,110.000003356934,14|8,0:2|0:2,0:0:0:0:
223,144,79573,2,0,P|169:149|112:168,1,110.000003356934,2|2,1:2|1:2,0:0:0:0:
63,148,80109,1,8,0:2:0:0:
63,148,80288,2,0,P|81:199|89:253,1,110.000003356934,2|0,1:2|1:2,0:0:0:0:
59,306,80823,1,10,0:2:0:0:
158,374,81181,2,0,P|187:366|217:361,1,55.0000016784668,10|0,0:2|1:2,0:0:0:0:
257,322,81538,2,0,P|289:327|314:336,1,55.0000016784668,10|8,0:2|0:2,0:2:0:0:
370,325,81895,6,0,P|401:281|395:227,1,110.000003356934,8|2,1:2|1:2,0:2:0:0:
350,187,82431,2,0,P|327:138|348:89,1,110.000003356934,8|8,0:2|0:3,0:0:0:0:
401,60,82966,1,8,1:3:0:0:
506,118,83323,2,0,P|493:164|482:234,1,110.000003356934,10|10,0:2|0:2,0:0:0:0:
510,284,83859,1,10,0:2:0:0:
510,284,84038,2,0,P|501:318|496:351,1,55.0000016784668,8|8,0:2|0:3,0:2:0:0:
448,373,84395,2,0,B|399:371|400:345|332:340,1,110.000003356934,8|8,0:2|0:2,0:0:0:0:
304,310,84931,6,0,P|309:269|329:214,2,89.9999972534181,2|2|2,0:2|0:2|0:2,0:2:0:0:
214,351,86002,2,0,B|141:343|161:311|89:295,1,134.999995880127,2|2,0:2|0:2,0:2:0:0:
18,231,86895,2,0,P|27:189|37:139,1,89.9999972534181,2|2,0:2|0:2,0:2:0:0:
76,114,87431,1,2,0:2:0:0:
