osu file format v14

[General]
AudioFilename: audio.mp3
AudioLeadIn: 0
PreviewTime: 416
Countdown: 0
SampleSet: None
StackLeniency: 0.7
Mode: 1
LetterboxInBreaks: 0
WidescreenStoryboard: 0

[Editor]
DistanceSpacing: 0.6
BeatDivisor: 4
GridSize: 32
TimelineZoom: 1.3

[Metadata]
Title:Flying Polygon Zone
TitleUnicode:Flying Polygon Zone
Artist:MMaker
ArtistUnicode:MMaker
Creator:Reficul
Version:Hexagon
Source:Sonic & Knuckles
Tags:Midnaait ソニック&ナックルズ Tee Lopes Battery Act 1 SEGA Genesis 前田 龍之 Tatsuyuki Maeda YTPMV 音MAD Jack Black Ty Burrell Sesame Street Elmo Novelty English Video Game
BeatmapID:2681381
BeatmapSetID:993557

[Difficulty]
HPDrainRate:8
CircleSize:2
OverallDifficulty:5
ApproachRate:8.8
SliderMultiplier:1.4
SliderTickRate:1

[Events]
//Background and Video events
0,0,"gf.jpg",0,0
//Break Periods
//Storyboard Layer 0 (Background)
//Storyboard Layer 1 (Fail)
//Storyboard Layer 2 (Pass)
//Storyboard Layer 3 (Foreground)
//Storyboard Layer 4 (Overlay)
//Storyboard Sound Samples

[TimingPoints]
77,387.096774193548,4,1,0,80,1,8
465,387.096774193548,4,1,0,80,1,0
25239,-100,4,1,0,80,0,1
39174,-100,4,1,0,80,0,0

[HitObjects]
105,152,77,5,8,0:0:0:0:
110,146,173,1,8,0:0:0:0:
110,146,270,1,8,0:0:0:0:
110,146,464,1,4,0:0:0:0:
171,161,852,1,8,0:0:0:0:
171,161,1045,1,0,0:0:0:0:
171,161,1239,1,8,0:0:0:0:
171,161,1432,1,0,0:0:0:0:
163,164,1529,1,0,0:0:0:0:
167,164,1626,1,0,0:0:0:0:
171,161,2013,1,8,0:0:0:0:
171,161,2206,1,0,0:0:0:0:
165,161,2400,1,8,0:0:0:0:
163,164,2497,1,8,0:0:0:0:
167,164,2594,1,8,0:0:0:0:
167,164,2787,1,8,0:0:0:0:
165,162,2981,1,0,0:0:0:0:
165,162,3077,1,0,0:0:0:0:
165,162,3174,1,0,0:0:0:0:
158,160,3368,1,0,0:0:0:0:
157,161,3561,1,8,0:0:0:0:
159,153,4335,1,8,0:0:0:0:
159,152,4529,1,8,0:0:0:0:
159,153,4626,1,8,0:0:0:0:
159,153,4723,1,8,0:0:0:0:
159,153,5110,1,0,0:0:0:0:
144,155,5303,1,0,0:0:0:0:
147,153,5497,1,8,0:0:0:0:
139,154,5690,1,0,0:0:0:0:
139,154,5884,1,8,0:0:0:0:
132,144,5981,1,8,0:0:0:0:
130,147,6077,1,8,0:0:0:0:
147,153,6271,1,8,0:0:0:0:
162,149,6658,1,4,0:0:0:0:
171,161,6852,1,8,0:0:0:0:
171,161,6948,1,8,0:0:0:0:
171,161,7045,1,8,0:0:0:0:
176,142,7239,1,8,0:0:0:0:
176,143,7432,1,0,0:0:0:0:
167,164,7819,1,8,0:0:0:0:
167,164,8013,1,8,0:0:0:0:
171,161,8206,1,0,0:0:0:0:
165,161,8594,1,8,0:0:0:0:
167,164,8787,1,0,0:0:0:0:
167,164,8981,1,8,0:0:0:0:
165,162,9174,1,0,0:0:0:0:
159,160,9271,1,0,0:0:0:0:
165,162,9368,1,0,0:0:0:0:
158,160,9561,1,8,0:0:0:0:
157,161,9755,1,0,0:0:0:0:
159,153,10529,1,0,0:0:0:0:
159,165,10626,1,0,0:0:0:0:
159,152,10723,1,0,0:0:0:0:
159,153,10916,1,8,0:0:0:0:
159,153,11303,1,0,0:0:0:0:
165,164,11497,1,8,0:0:0:0:
159,152,11594,1,8,0:0:0:0:
147,153,11690,1,8,0:0:0:0:
139,154,11884,1,8,0:0:0:0:
139,154,12077,1,0,0:0:0:0:
159,153,12174,1,0,0:0:0:0:
130,147,12271,1,0,0:0:0:0:
131,147,12464,1,8,0:0:0:0:
162,149,12852,1,12,0:0:0:0:
171,161,13432,1,0,0:0:0:0:
167,155,13529,1,0,0:0:0:0:
171,161,13626,1,0,0:0:0:0:
171,161,13819,1,0,0:0:0:0:
167,164,14013,1,8,0:0:0:0:
163,164,14110,1,8,0:0:0:0:
167,164,14303,1,8,0:0:0:0:
165,161,14787,1,8,0:0:0:0:
167,164,14981,1,0,0:0:0:0:
159,160,15077,1,0,0:0:0:0:
167,164,15174,1,0,0:0:0:0:
165,162,15368,1,0,0:0:0:0:
165,162,15561,1,8,0:0:0:0:
158,160,15755,1,0,0:0:0:0:
157,161,15948,1,8,0:0:0:0:
159,153,16529,1,0,0:0:0:0:
159,153,16723,1,8,0:0:0:0:
140,152,16916,1,0,0:0:0:0:
159,153,17013,1,0,0:0:0:0:
159,153,17110,1,0,0:0:0:0:
159,153,17497,1,8,0:0:0:0:
118,160,17690,1,8,0:0:0:0:
147,141,17884,1,0,0:0:0:0:
150,141,17981,1,0,0:0:0:0:
139,154,18077,1,0,0:0:0:0:
139,154,18271,1,8,0:0:0:0:
130,147,18464,1,8,0:0:0:0:
131,147,18658,1,8,0:0:0:0:
162,149,19045,1,4,0:0:0:0:
171,161,19626,1,0,0:0:0:0:
171,161,19723,1,0,0:0:0:0:
171,161,19819,1,0,0:0:0:0:
171,161,20013,1,0,0:0:0:0:
167,164,20206,1,8,0:0:0:0:
163,164,20303,1,8,0:0:0:0:
167,164,20497,1,8,0:0:0:0:
165,161,20981,1,8,0:0:0:0:
167,164,21174,1,0,0:0:0:0:
165,162,21271,1,0,0:0:0:0:
167,164,21368,1,0,0:0:0:0:
165,162,21561,1,8,0:0:0:0:
165,162,21755,1,8,0:0:0:0:
158,160,21948,1,0,0:0:0:0:
157,161,22142,1,8,0:0:0:0:
159,153,22723,1,0,0:0:0:0:
159,153,22916,1,8,0:0:0:0:
140,152,23110,1,0,0:0:0:0:
159,153,23303,1,8,0:0:0:0:
159,153,23690,1,0,0:0:0:0:
118,160,23884,1,8,0:0:0:0:
159,152,23981,1,8,0:0:0:0:
147,153,24077,1,8,0:0:0:0:
139,154,24271,1,8,0:0:0:0:
149,115,24464,1,0,0:0:0:0:
149,115,24658,1,8,0:0:0:0:
149,115,24852,1,8,0:0:0:0:
140,95,25239,1,4,0:0:0:0:
139,92,25819,1,8,0:0:0:0:
133,126,26206,1,0,0:0:0:0:
139,93,26400,1,8,0:0:0:0:
136,89,26594,1,0,0:0:0:0:
139,92,26690,1,0,0:0:0:0:
139,92,26787,1,0,0:0:0:0:
136,89,27077,1,8,0:0:0:0:
139,93,27368,1,0,0:0:0:0:
145,91,27561,1,8,0:0:0:0:
149,91,27658,1,8,0:0:0:0:
149,91,27755,1,8,0:0:0:0:
148,91,27948,1,0,0:0:0:0:
139,93,28335,1,0,0:0:0:0:
137,81,28626,1,0,0:0:0:0:
141,94,28916,1,8,0:0:0:0:
139,93,29303,1,8,0:0:0:0:
141,94,29497,1,8,0:0:0:0:
141,94,29690,1,0,0:0:0:0:
141,94,29787,1,0,0:0:0:0:
141,94,29884,1,0,0:0:0:0:
141,100,30077,1,0,0:0:0:0:
142,100,30271,1,8,0:0:0:0:
142,100,30464,1,0,0:0:0:0:
142,100,30658,1,8,0:0:0:0:
143,100,30852,1,0,0:0:0:0:
141,100,31045,1,8,0:0:0:0:
142,100,31142,1,8,0:0:0:0:
142,100,31239,1,8,0:0:0:0:
142,100,31432,1,4,0:0:0:0:
141,100,32013,1,8,0:0:0:0:
140,125,32400,1,8,0:0:0:0:
139,125,32594,1,8,0:0:0:0:
139,125,32787,1,0,0:0:0:0:
140,125,32884,1,0,0:0:0:0:
140,125,32981,1,0,0:0:0:0:
140,125,33271,1,8,0:0:0:0:
144,129,33561,1,0,0:0:0:0:
144,129,33658,1,0,0:0:0:0:
144,129,33755,1,0,0:0:0:0:
144,129,33948,1,8,0:0:0:0:
145,130,34142,1,8,0:0:0:0:
146,134,34529,1,0,0:0:0:0:
126,136,34819,1,0,0:0:0:0:
145,130,35110,1,8,0:0:0:0:
146,134,35497,1,8,0:0:0:0:
146,133,35690,1,8,0:0:0:0:
146,133,35884,1,0,0:0:0:0:
146,136,36077,1,8,0:0:0:0:
146,133,36174,1,8,0:0:0:0:
146,133,36271,1,8,0:0:0:0:
148,138,36464,1,8,0:0:0:0:
148,138,36658,1,0,0:0:0:0:
146,136,36755,1,0,0:0:0:0:
148,138,36852,1,0,0:0:0:0:
157,143,37432,1,8,0:0:0:0:
158,145,37626,1,0,0:0:0:0:
158,144,37819,1,0,0:0:0:0:
158,145,38013,1,0,0:0:0:0:
159,145,38206,1,0,0:0:0:0:
157,143,38303,1,0,0:0:0:0:
157,143,38400,1,0,0:0:0:0:
165,150,38594,1,8,0:0:0:0:
158,144,38787,1,0,0:0:0:0:
158,144,38884,1,0,0:0:0:0:
162,151,38981,1,0,0:0:0:0:
110,146,39174,1,12,0:0:0:0:
