osu file format v14

[General]
AudioFilename: audio.mp3
AudioLeadIn: 0
PreviewTime: 44478
Countdown: 0
SampleSet: Soft
StackLeniency: 0.7
Mode: 3
LetterboxInBreaks: 0
SpecialStyle: 0
WidescreenStoryboard: 1

[Editor]
DistanceSpacing: 1.5
BeatDivisor: 4
GridSize: 4
TimelineZoom: 1.8

[Metadata]
Title:Lunar Arrow
TitleUnicode:Lunar Arrow
Artist:MMRY
ArtistUnicode:MMRY
Creator:No-Fail
Version:Casual
Source:Dynamix
Tags:Dynamix, MMRY, Lunar Arrow
BeatmapID:1497431
BeatmapSetID:671590

[Difficulty]
HPDrainRate:7
CircleSize:4
OverallDifficulty:7
ApproachRate:5
SliderMultiplier:1.4
SliderTickRate:1

[Events]
//Background and Video events
0,0,"Lunar_Arrow_New.jpg",0,0
//Break Periods
//Storyboard Layer 0 (Background)
//Storyboard Layer 1 (Fail)
//Storyboard Layer 2 (Pass)
//Storyboard Layer 3 (Foreground)
//Storyboard Sound Samples

[TimingPoints]
3288,260.869565217391,4,2,0,14,1,0
45026,260.869565217391,4,2,0,14,1,1
61722,260.869565217391,4,2,0,14,1,0
95113,260.869565217391,4,2,0,14,1,1
111807,260.869565217391,4,2,0,14,1,0

[HitObjects]
64,192,3288,5,0,0:0:0:0:
192,192,3288,1,0,0:0:0:0:
64,192,5179,1,0,0:0:0:0:
192,192,5244,1,0,0:0:0:0:
320,192,5309,1,0,0:0:0:0:
448,192,5374,1,0,0:0:0:0:
448,192,5701,1,0,0:0:0:0:
320,192,5766,1,0,0:0:0:0:
192,192,5831,1,0,0:0:0:0:
64,192,5896,1,0,0:0:0:0:
64,192,6222,1,0,0:0:0:0:
192,192,6287,1,0,0:0:0:0:
448,192,6353,1,0,0:0:0:0:
320,192,6418,1,0,0:0:0:0:
448,192,6744,1,0,0:0:0:0:
320,192,6809,1,0,0:0:0:0:
64,192,6874,1,0,0:0:0:0:
192,192,6940,1,0,0:0:0:0:
64,192,7266,1,0,0:0:0:0:
192,192,7331,1,0,0:0:0:0:
320,192,7396,1,0,0:0:0:0:
448,192,7461,1,0,0:0:0:0:
64,192,7461,1,0,0:0:0:0:
448,192,9353,1,0,0:0:0:0:
320,192,9418,1,0,0:0:0:0:
192,192,9483,1,0,0:0:0:0:
64,192,9548,1,0,0:0:0:0:
448,192,9874,1,0,0:0:0:0:
320,192,9940,1,0,0:0:0:0:
64,192,10005,1,0,0:0:0:0:
192,192,10070,1,0,0:0:0:0:
64,192,10396,1,0,0:0:0:0:
192,192,10461,1,0,0:0:0:0:
320,192,10527,1,0,0:0:0:0:
448,192,10592,1,0,0:0:0:0:
64,192,10918,1,0,0:0:0:0:
192,192,10983,1,0,0:0:0:0:
448,192,11048,1,0,0:0:0:0:
320,192,11114,1,0,0:0:0:0:
64,192,11244,128,0,11635:0:0:0:0:
192,192,11440,1,0,0:0:0:0:
320,192,11505,1,0,0:0:0:0:
448,192,11570,1,0,0:0:0:0:
192,192,11635,1,0,0:0:0:0:
448,192,11766,1,0,0:0:0:0:
64,192,11896,1,0,0:0:0:0:
192,192,12027,1,0,0:0:0:0:
320,192,12157,1,0,0:0:0:0:
192,192,12287,1,0,0:0:0:0:
448,192,12418,1,0,0:0:0:0:
64,192,12548,1,0,0:0:0:0:
320,192,12679,1,0,0:0:0:0:
192,192,12809,1,0,0:0:0:0:
64,192,12940,1,0,0:0:0:0:
320,192,13070,1,0,0:0:0:0:
448,192,13201,1,0,0:0:0:0:
192,192,13331,1,0,0:0:0:0:
64,192,13461,1,0,0:0:0:0:
320,192,13592,1,0,0:0:0:0:
192,192,13722,1,0,0:0:0:0:
448,192,13853,1,0,0:0:0:0:
64,192,13983,1,0,0:0:0:0:
448,192,14114,1,0,0:0:0:0:
320,192,14244,1,0,0:0:0:0:
192,192,14374,1,0,0:0:0:0:
448,192,14505,1,0,0:0:0:0:
64,192,14635,1,0,0:0:0:0:
448,192,14766,1,0,0:0:0:0:
320,192,14831,1,0,0:0:0:0:
192,192,14896,1,0,0:0:0:0:
64,192,14961,1,0,0:0:0:0:
448,192,15027,1,0,0:0:0:0:
320,192,15092,1,0,0:0:0:0:
192,192,15157,1,0,0:0:0:0:
64,192,15222,1,0,0:0:0:0:
192,192,15548,1,0,0:0:0:0:
64,192,15679,1,0,0:0:0:0:
320,192,15809,1,0,0:0:0:0:
448,192,15940,1,0,0:0:0:0:
192,192,16070,1,0,0:0:0:0:
64,192,16201,1,0,0:0:0:0:
320,192,16331,1,0,0:0:0:0:
192,192,16461,1,0,0:0:0:0:
64,192,16592,1,0,0:0:0:0:
320,192,16722,1,0,0:0:0:0:
448,192,16853,1,0,0:0:0:0:
192,192,16983,1,0,0:0:0:0:
320,192,17114,1,0,0:0:0:0:
64,192,17244,1,0,0:0:0:0:
192,192,17374,1,0,0:0:0:0:
448,192,17505,1,0,0:0:0:0:
192,192,17635,1,0,0:0:0:0:
64,192,17766,1,0,0:0:0:0:
320,192,17896,1,0,0:0:0:0:
448,192,18027,1,0,0:0:0:0:
320,192,18157,1,0,0:0:0:0:
192,192,18287,1,0,0:0:0:0:
448,192,18418,1,0,0:0:0:0:
64,192,18548,1,0,0:0:0:0:
192,192,18679,1,0,0:0:0:0:
448,192,18809,1,0,0:0:0:0:
320,192,18940,1,0,0:0:0:0:
192,192,19070,1,0,0:0:0:0:
448,192,19201,1,0,0:0:0:0:
64,192,19331,1,0,0:0:0:0:
320,192,19461,1,0,0:0:0:0:
64,192,19592,128,0,19983:0:0:0:0:
448,192,19983,1,0,0:0:0:0:
320,192,20114,1,0,0:0:0:0:
64,192,20244,1,0,0:0:0:0:
448,192,20374,1,0,0:0:0:0:
192,192,20505,1,0,0:0:0:0:
320,192,20635,1,0,0:0:0:0:
64,192,20766,1,0,0:0:0:0:
192,192,20896,1,0,0:0:0:0:
448,192,21027,1,0,0:0:0:0:
320,192,21157,1,0,0:0:0:0:
64,192,21287,1,0,0:0:0:0:
448,192,21418,1,0,0:0:0:0:
192,192,21548,1,0,0:0:0:0:
320,192,21679,1,0,0:0:0:0:
64,192,21809,1,0,0:0:0:0:
448,192,21940,1,0,0:0:0:0:
192,192,22070,1,0,0:0:0:0:
64,192,22201,1,0,0:0:0:0:
320,192,22331,1,0,0:0:0:0:
448,192,22461,1,0,0:0:0:0:
192,192,22592,1,0,0:0:0:0:
320,192,22722,1,0,0:0:0:0:
64,192,22853,1,0,0:0:0:0:
448,192,22983,1,0,0:0:0:0:
64,192,23114,1,0,0:0:0:0:
192,192,23179,1,0,0:0:0:0:
320,192,23244,1,0,0:0:0:0:
448,192,23309,1,0,0:0:0:0:
64,192,23374,1,0,0:0:0:0:
320,192,23505,1,0,0:0:0:0:
192,192,23635,1,0,0:0:0:0:
64,192,23766,1,0,0:0:0:0:
448,192,23896,1,0,0:0:0:0:
192,192,24027,1,0,0:0:0:0:
320,192,24157,1,0,0:0:0:0:
64,192,24287,1,0,0:0:0:0:
448,192,24418,1,0,0:0:0:0:
320,192,24548,1,0,0:0:0:0:
192,192,24679,1,0,0:0:0:0:
448,192,24809,1,0,0:0:0:0:
64,192,24940,1,0,0:0:0:0:
320,192,25070,1,0,0:0:0:0:
192,192,25201,1,0,0:0:0:0:
448,192,25331,1,0,0:0:0:0:
64,192,25461,1,0,0:0:0:0:
320,192,25592,1,0,0:0:0:0:
448,192,25722,1,0,0:0:0:0:
192,192,25853,1,0,0:0:0:0:
64,192,25983,1,0,0:0:0:0:
448,192,26114,1,0,0:0:0:0:
320,192,26244,1,0,0:0:0:0:
64,192,26374,1,0,0:0:0:0:
448,192,26505,1,0,0:0:0:0:
192,192,26635,1,0,0:0:0:0:
320,192,26766,1,0,0:0:0:0:
64,192,26896,1,0,0:0:0:0:
448,192,27027,1,0,0:0:0:0:
192,192,27157,1,0,0:0:0:0:
64,192,27287,1,0,0:0:0:0:
320,192,27418,1,0,0:0:0:0:
448,192,27548,1,0,0:0:0:0:
192,192,27679,1,0,0:0:0:0:
64,192,27809,1,0,0:0:0:0:
320,192,27940,1,0,0:0:0:0:
192,192,28070,1,0,0:0:0:0:
64,192,28201,1,0,0:0:0:0:
448,192,28331,1,0,0:0:0:0:
320,192,28331,1,0,0:0:0:0:
64,192,28461,1,0,0:0:0:0:
192,192,28592,1,0,0:0:0:0:
320,192,28722,1,0,0:0:0:0:
448,192,28853,1,0,0:0:0:0:
64,192,29114,1,0,0:0:0:0:
64,192,29374,1,0,0:0:0:0:
64,192,29635,1,0,0:0:0:0:
64,192,29896,1,0,0:0:0:0:
64,192,30157,1,0,0:0:0:0:
64,192,30418,1,0,0:0:0:0:
448,192,30548,1,0,0:0:0:0:
64,192,30679,1,0,0:0:0:0:
64,192,30940,1,0,0:0:0:0:
320,192,30940,1,0,0:0:0:0:
64,192,31201,1,0,0:0:0:0:
192,192,31201,1,0,0:0:0:0:
64,192,31461,1,0,0:0:0:0:
448,192,31461,1,0,0:0:0:0:
64,192,31722,1,0,0:0:0:0:
192,192,31853,1,0,0:0:0:0:
64,192,31983,1,0,0:0:0:0:
320,192,32114,1,0,0:0:0:0:
64,192,32244,1,0,0:0:0:0:
448,192,32244,1,0,0:0:0:0:
64,192,32505,1,0,0:0:0:0:
448,192,32635,1,0,0:0:0:0:
64,192,32766,1,0,0:0:0:0:
320,192,32766,1,0,0:0:0:0:
192,192,32896,1,0,0:0:0:0:
320,192,33027,1,0,0:0:0:0:
64,192,33027,1,0,0:0:0:0:
64,192,33287,1,0,0:0:0:0:
64,192,33548,1,0,0:0:0:0:
64,192,33809,1,0,0:0:0:0:
64,192,34070,1,0,0:0:0:0:
64,192,34331,1,0,0:0:0:0:
