osu file format v14

[General]
AudioFilename: audio.mp3
AudioLeadIn: 0
PreviewTime: 79077
Countdown: 0
SampleSet: Normal
StackLeniency: 0.7
Mode: 1
LetterboxInBreaks: 0
WidescreenStoryboard: 0

[Editor]
DistanceSpacing: 3
BeatDivisor: 2
GridSize: 32
TimelineZoom: 0.4999999

[Metadata]
Title:Spell No. 213
TitleUnicode:Spell No. 213
Artist:MMQX
ArtistUnicode:MMQX
Creator:incandescence
Version:Nepu's Kantan
Source:
Tags:yea nepuri nifty taikocracy electronic halloween silence records x nizi ringo bloomoon
BeatmapID:1693439
BeatmapSetID:803652

[Difficulty]
HPDrainRate:7
CircleSize:2
OverallDifficulty:3.5
ApproachRate:10
SliderMultiplier:1.4
SliderTickRate:1

[Events]
//Background and Video events
0,0,"Halloween_anime_fan_art-15844.jpg!d.jpg",0,60
//Break Periods
//Storyboard Layer 0 (Background)
//Storyboard Layer 1 (Fail)
//Storyboard Layer 2 (Pass)
//Storyboard Layer 3 (Foreground)
//Storyboard Layer 4 (Overlay)
//Storyboard Sound Samples

[TimingPoints]
2258,281.69014084507,4,1,0,90,1,0
20286,-100,4,1,0,90,0,1
24793,-100,4,1,0,90,0,0
27046,-100,4,1,0,90,0,1
29300,-100,4,1,0,90,0,0
31553,-100,4,1,0,90,0,1
34934,281.69014084507,4,1,0,90,1,0
34934,-100,4,1,0,90,0,0
39441,-100,4,1,0,90,0,1
48455,-100,4,1,0,90,0,0
50990,-100,4,1,0,90,0,1
57469,-100,4,1,0,90,0,0
75497,600,3,1,0,95,1,0
75497,-46.9483568075117,3,1,0,90,0,0
75797,-100,3,1,0,40,0,0
79097,600,3,1,0,40,1,0
107297,600,3,1,0,40,1,0
114497,281.69014084507,4,1,0,60,1,0
115623,281.69014084507,4,1,0,70,1,0
126890,-100,4,1,0,90,0,1
130270,281.69014084507,4,1,0,90,1,0
130271,-100,4,1,0,90,0,0
134777,-100,4,1,0,90,0,1
143791,-100,4,1,0,90,0,0
146326,-100,4,1,0,90,0,1
152805,-100,4,1,0,90,0,0

[HitObjects]
166,44,2258,5,4,0:0:0:0:
259,157,2821,1,8,0:0:0:0:
259,157,3384,1,0,0:0:0:0:
194,160,3948,1,8,0:0:0:0:
194,160,4511,1,0,0:0:0:0:
194,160,5074,1,8,0:0:0:0:
194,160,5638,1,0,0:0:0:0:
194,160,6765,1,8,0:0:0:0:
244,122,7328,1,0,0:0:0:0:
244,122,7891,1,8,0:0:0:0:
244,122,8455,1,0,0:0:0:0:
244,122,9018,1,8,0:0:0:0:
244,122,9581,1,0,0:0:0:0:
244,122,10145,1,8,0:0:0:0:
244,122,10708,1,8,0:0:0:0:
244,122,11272,1,0,0:0:0:0:
244,120,12398,1,0,0:0:0:0:
244,120,13525,1,8,0:0:0:0:
244,120,14652,1,0,0:0:0:0:
244,120,15779,1,8,0:0:0:0:
244,120,16905,1,0,0:0:0:0:
244,120,18032,1,0,0:0:0:0:
244,120,19159,1,4,0:0:0:0:
244,120,20286,1,12,0:0:0:0:
166,184,20849,1,0,0:0:0:0:
166,184,21131,1,8,0:0:0:0:
166,184,21412,1,0,0:0:0:0:
166,184,21976,1,8,0:0:0:0:
166,184,22257,1,0,0:0:0:0:
166,184,22539,1,8,0:0:0:0:
166,184,23103,1,8,0:0:0:0:
166,184,23666,1,8,0:0:0:0:
166,184,23948,1,8,0:0:0:0:
166,184,24229,1,8,0:0:0:0:
166,184,24793,1,4,0:0:0:0:
166,178,25919,1,8,0:0:0:0:
156,137,26201,1,8,0:0:0:0:
156,137,26483,1,8,0:0:0:0:
156,137,26765,1,8,0:0:0:0:
156,137,27046,1,4,0:0:0:0:
121,161,27610,1,8,0:0:0:0:
156,137,28173,1,0,0:0:0:0:
121,161,28736,1,8,0:0:0:0:
121,161,29018,1,0,0:0:0:0:
121,161,29300,1,0,0:0:0:0:
121,161,30427,1,8,0:0:0:0:
139,110,30708,1,8,0:0:0:0:
139,110,30990,1,8,0:0:0:0:
139,110,31272,1,8,0:0:0:0:
139,110,31553,1,4,0:0:0:0:
139,110,32117,1,0,0:0:0:0:
139,110,32680,1,8,0:0:0:0:
139,110,33243,1,8,0:0:0:0:
139,110,33807,1,8,0:0:0:0:
139,110,34370,1,0,0:0:0:0:
157,169,34652,1,0,0:0:0:0:
139,110,34934,1,12,0:0:0:0:
217,151,36060,1,8,0:0:0:0:
217,151,37187,1,8,0:0:0:0:
217,151,37750,1,8,0:0:0:0:
217,151,38314,1,8,0:0:0:0:
217,151,38595,1,8,0:0:0:0:
217,151,38877,1,8,0:0:0:0:
217,151,39159,1,4,0:0:0:0:
217,151,39441,1,12,0:0:0:0:
86,258,40286,1,0,0:0:0:0:
257,153,40567,1,8,0:0:0:0:
257,153,41131,1,0,0:0:0:0:
257,153,41412,1,0,0:0:0:0:
257,153,41694,1,8,0:0:0:0:
257,153,42257,1,8,0:0:0:0:
262,47,42539,1,0,0:0:0:0:
257,153,42821,1,8,0:0:0:0:
299,105,43103,1,0,0:0:0:0:
257,153,43384,1,8,0:0:0:0:
299,105,43948,1,8,0:0:0:0:
255,149,44793,1,0,0:0:0:0:
298,105,45074,1,8,0:0:0:0:
298,105,45638,1,0,0:0:0:0:
298,105,45919,1,0,0:0:0:0:
298,105,46201,1,8,0:0:0:0:
298,105,46764,1,8,0:0:0:0:
298,105,47046,1,0,0:0:0:0:
298,105,47328,1,8,0:0:0:0:
226,168,48455,1,8,0:0:0:0:
281,109,49018,1,8,0:0:0:0:
281,109,49581,1,8,0:0:0:0:
281,109,50145,1,8,0:0:0:0:
281,109,50708,1,0,0:0:0:0:
231,30,50990,1,12,0:0:0:0:
253,109,51835,1,8,0:0:0:0:
253,109,52117,1,0,0:0:0:0:
231,48,52398,1,8,0:0:0:0:
231,48,52680,1,0,0:0:0:0:
231,48,52962,1,8,0:0:0:0:
231,48,53525,1,0,0:0:0:0:
231,48,54088,1,8,0:0:0:0:
229,210,54652,5,0,0:0:0:0:
229,210,54933,1,0,0:0:0:0:
229,210,55215,1,8,0:0:0:0:
229,210,55779,1,0,0:0:0:0:
229,210,56342,1,8,0:0:0:0:
229,210,56624,1,8,0:0:0:0:
225,111,56905,1,8,0:0:0:0:
229,210,57469,1,4,0:0:0:0:
190,176,58595,1,8,0:0:0:0:
195,215,59159,1,0,0:0:0:0:
190,176,59722,1,8,0:0:0:0:
190,176,60849,1,0,0:0:0:0:
206,66,61412,1,8,0:0:0:0:
210,74,61694,1,8,0:0:0:0:
206,66,61976,1,12,0:0:0:0:
180,145,63103,1,8,0:0:0:0:
219,230,63666,1,0,0:0:0:0:
191,145,64229,1,8,0:0:0:0:
191,145,65356,1,0,0:0:0:0:
191,145,65919,1,8,0:0:0:0:
191,145,66483,1,8,0:0:0:0:
265,187,67046,1,0,0:0:0:0:
265,187,67610,1,8,0:0:0:0:
261,182,68736,1,8,0:0:0:0:
261,182,69300,1,8,0:0:0:0:
261,182,69863,1,0,0:0:0:0:
258,172,70990,1,8,0:0:0:0:
258,172,71553,1,8,0:0:0:0:
258,172,72117,1,0,0:0:0:0:
258,172,73243,1,8,0:0:0:0:
258,172,74370,1,8,0:0:0:0:
258,172,75497,1,4,0:0:0:0:
225,234,79097,1,8,0:0:0:0:
242,125,79697,1,0,0:0:0:0:
242,125,80297,1,0,0:0:0:0:
242,125,80897,1,8,0:0:0:0:
209,144,81497,1,0,0:0:0:0:
249,155,82697,1,0,0:0:0:0:
249,155,83297,1,8,0:0:0:0:
249,155,83897,1,0,0:0:0:0:
249,155,84497,1,8,0:0:0:0:
270,144,85097,1,0,0:0:0:0:
228,88,86297,1,0,0:0:0:0:
228,88,86897,1,8,0:0:0:0:
228,88,88097,1,0,0:0:0:0:
228,88,88697,1,8,0:0:0:0:
218,249,89897,1,8,0:0:0:0:
221,241,90497,1,0,0:0:0:0:
221,241,91097,1,8,0:0:0:0:
221,241,91697,1,8,0:0:0:0:
136,158,92297,1,0,0:0:0:0:
131,171,93497,1,0,0:0:0:0:
230,168,94097,1,8,0:0:0:0:
230,168,94697,1,0,0:0:0:0:
198,121,95297,1,8,0:0:0:0:
205,101,95897,1,8,0:0:0:0:
256,127,97097,1,8,0:0:0:0:
256,127,97697,1,0,0:0:0:0:
256,127,98297,1,8,0:0:0:0:
256,127,98897,1,0,0:0:0:0:
256,127,99497,1,0,0:0:0:0:
265,111,100697,1,0,0:0:0:0:
265,111,101297,1,8,0:0:0:0:
206,50,102497,1,0,0:0:0:0:
206,50,103097,1,8,0:0:0:0:
214,157,104297,1,8,0:0:0:0:
214,157,104897,1,0,0:0:0:0:
214,157,105497,1,8,0:0:0:0:
214,157,106097,1,8,0:0:0:0:
214,157,106697,1,0,0:0:0:0:
139,34,107297,1,8,0:0:0:0:
265,133,109097,1,0,0:0:0:0:
166,33,110897,1,8,0:0:0:0:
166,33,112697,1,0,0:0:0:0:
248,108,114497,1,8,0:0:0:0:
242,154,115623,1,0,0:0:0:0:
242,154,116186,1,8,0:0:0:0:
242,154,116749,1,0,0:0:0:0:
242,154,117876,1,8,0:0:0:0:
242,154,118439,1,8,0:0:0:0:
191,162,119003,1,0,0:0:0:0:
191,162,119284,1,8,0:0:0:0:
191,162,119566,1,0,0:0:0:0:
191,162,120130,1,8,0:0:0:0:
225,164,121256,1,8,0:0:0:0:
225,164,121538,1,8,0:0:0:0:
225,164,121820,1,8,0:0:0:0:
225,164,122101,1,8,0:0:0:0:
225,164,122383,1,4,0:0:0:0:
213,177,122946,1,0,0:0:0:0:
213,177,123510,1,8,0:0:0:0:
213,177,124073,1,8,0:0:0:0:
213,177,124355,1,0,0:0:0:0:
213,177,124637,1,4,0:0:0:0:
219,159,125763,1,8,0:0:0:0:
219,159,126045,1,8,0:0:0:0:
219,159,126327,1,8,0:0:0:0:
219,159,126608,1,8,0:0:0:0:
219,159,126890,1,4,0:0:0:0:
219,159,127453,1,0,0:0:0:0:
219,159,128017,1,8,0:0:0:0:
219,159,128580,1,8,0:0:0:0:
219,159,129144,1,8,0:0:0:0:
219,159,129707,1,0,0:0:0:0:
220,234,129989,1,0,0:0:0:0:
219,159,130270,1,12,0:0:0:0:
170,196,131396,1,8,0:0:0:0:
170,196,132523,1,8,0:0:0:0:
170,196,133086,1,8,0:0:0:0:
170,196,133650,1,8,0:0:0:0:
170,196,133931,1,8,0:0:0:0:
170,196,134213,1,8,0:0:0:0:
170,196,134495,1,4,0:0:0:0:
170,196,134777,1,12,0:0:0:0:
86,258,135622,1,0,0:0:0:0:
257,153,135903,1,8,0:0:0:0:
257,153,136467,1,0,0:0:0:0:
257,153,136748,1,0,0:0:0:0:
257,153,137030,1,8,0:0:0:0:
257,153,137593,1,8,0:0:0:0:
262,47,137875,1,0,0:0:0:0:
257,153,138157,1,8,0:0:0:0:
299,105,138439,1,8,0:0:0:0:
257,153,138720,1,0,0:0:0:0:
299,105,139284,1,8,0:0:0:0:
121,117,140129,1,0,0:0:0:0:
313,175,140410,1,8,0:0:0:0:
254,115,140974,1,0,0:0:0:0:
254,115,141255,1,0,0:0:0:0:
254,115,141537,1,8,0:0:0:0:
276,155,142100,1,8,0:0:0:0:
276,155,142382,1,0,0:0:0:0:
276,155,142664,1,8,0:0:0:0:
324,161,143791,1,8,0:0:0:0:
324,161,144354,1,8,0:0:0:0:
324,161,144917,1,8,0:0:0:0:
324,161,145481,1,8,0:0:0:0:
324,161,146044,1,0,0:0:0:0:
272,139,146326,1,12,0:0:0:0:
253,109,147171,1,8,0:0:0:0:
253,109,147453,1,0,0:0:0:0:
231,48,147734,1,8,0:0:0:0:
231,48,148016,1,0,0:0:0:0:
231,48,148298,1,8,0:0:0:0:
231,48,148861,1,0,0:0:0:0:
231,48,149424,1,8,0:0:0:0:
229,210,149988,5,0,0:0:0:0:
229,210,150269,1,0,0:0:0:0:
229,210,150551,1,8,0:0:0:0:
229,210,151115,1,0,0:0:0:0:
229,210,151678,1,8,0:0:0:0:
229,210,151960,1,8,0:0:0:0:
225,111,152241,1,8,0:0:0:0:
229,210,152805,1,4,0:0:0:0:
179,157,153931,1,8,0:0:0:0:
179,157,155058,1,8,0:0:0:0:
179,157,156185,1,0,0:0:0:0:
195,47,156748,1,8,0:0:0:0:
195,47,157312,1,12,0:0:0:0:
169,126,158439,1,8,0:0:0:0:
180,126,159565,1,8,0:0:0:0:
174,194,160692,1,0,0:0:0:0:
174,194,161819,1,8,0:0:0:0:
224,137,162382,1,8,0:0:0:0:
224,137,162946,1,0,0:0:0:0:
224,137,163509,1,8,0:0:0:0:
224,137,164072,1,8,0:0:0:0:
224,137,164636,1,8,0:0:0:0:
224,137,165199,1,0,0:0:0:0:
167,153,165762,1,8,0:0:0:0:
167,153,166326,1,8,0:0:0:0:
206,169,166889,1,8,0:0:0:0:
167,153,167453,1,0,0:0:0:0:
177,36,168016,1,8,0:0:0:0:
206,168,168579,1,0,0:0:0:0:
206,168,169706,1,0,0:0:0:0:
206,168,170833,1,4,0:0:0:0:
