osu file format v14

[General]
AudioFilename: audio.mp3
AudioLeadIn: 0
PreviewTime: 79077
Countdown: 0
SampleSet: Normal
StackLeniency: 0.7
Mode: 1
LetterboxInBreaks: 0
WidescreenStoryboard: 0

[Editor]
DistanceSpacing: 3
BeatDivisor: 4
GridSize: 32
TimelineZoom: 2.999999

[Metadata]
Title:Spell No. 213
TitleUnicode:Spell No. 213
Artist:MMQX
ArtistUnicode:MMQX
Creator:incandescence
Version:Blackmagic
Source:
Tags:yea nepuri nifty taikocracy electronic halloween silence records x nizi ringo bloomoon
BeatmapID:1686776
BeatmapSetID:803652

[Difficulty]
HPDrainRate:6
CircleSize:2
OverallDifficulty:7
ApproachRate:10
SliderMultiplier:1.4
SliderTickRate:1

[Events]
//Background and Video events
0,0,"Halloween_anime_fan_art-15844.jpg!d.jpg",0,60
//Break Periods
//Storyboard Layer 0 (Background)
//Storyboard Layer 1 (Fail)
//Storyboard Layer 2 (Pass)
//Storyboard Layer 3 (Foreground)
//Storyboard Layer 4 (Overlay)
//Storyboard Sound Samples

[TimingPoints]
2258,281.69014084507,4,1,0,100,1,0
2820,-192.307692307692,4,1,0,50,0,0
2960,-185.185185185185,4,1,0,50,0,0
3101,-178.571428571429,4,1,0,50,0,0
3242,-172.413793103448,4,1,0,50,0,0
3383,-166.666666666667,4,1,0,50,0,0
3946,-192.307692307692,4,1,0,50,0,0
4087,-185.185185185185,4,1,0,50,0,0
4228,-178.571428571429,4,1,0,50,0,0
4369,-172.413793103448,4,1,0,50,0,0
4510,-166.666666666667,4,1,0,50,0,0
5073,-147.058823529412,4,1,0,50,0,0
5214,-151.515151515152,4,1,0,50,0,0
5355,-156.25,4,1,0,50,0,0
5496,-161.290322580645,4,1,0,50,0,0
5637,-166.666666666667,4,1,0,50,0,0
6482,-178.571428571429,4,1,0,50,0,0
6763,-192.307692307692,4,1,0,50,0,0
7468,-185.185185185185,4,1,0,50,0,0
7608,-178.571428571429,4,1,0,50,0,0
7749,-172.413793103448,4,1,0,50,0,0
7890,-166.666666666667,4,1,0,50,0,0
8453,-161.290322580645,4,1,0,50,0,0
8594,-156.25,4,1,0,50,0,0
8735,-151.515151515152,4,1,0,50,0,0
8876,-147.058823529412,4,1,0,50,0,0
9017,-142.857142857143,4,1,0,50,0,0
9439,-144.927536231884,4,1,0,50,0,0
9510,-147.058823529412,4,1,0,50,0,0
9580,-149.253731343284,4,1,0,50,0,0
9862,-156.25,4,1,0,50,0,0
9932,-158.730158730159,4,1,0,50,0,0
10003,-161.290322580645,4,1,0,50,0,0
10073,-163.934426229508,4,1,0,50,0,0
10144,-166.666666666667,4,1,0,50,0,0
10707,-153.846153846154,4,1,0,50,0,0
11129,-142.857142857143,4,1,0,50,0,0
11130,-142.857142857143,4,1,0,50,0,0
11200,-142.44182319836,4,1,0,50,0,0
11271,-142.028911405206,4,1,0,50,0,0
11365,-141.482138587414,4,1,0,50,0,0
11458,-140.939559479313,4,1,0,50,0,0
11552,-140.401126017031,4,1,0,50,0,0
11646,-139.866790868377,4,1,0,50,0,0
11740,-139.336507418972,4,1,0,50,0,0
11834,-138.810229758692,4,1,0,50,0,0
11928,-138.287912668417,4,1,0,50,0,0
12022,-137.769511607081,4,1,0,50,0,0
12116,-137.254982699009,4,1,0,50,0,0
12210,-136.744095731807,4,1,0,50,0,0
12304,-136.237183486963,4,1,0,50,0,0
12397,-135.734015622985,4,1,0,50,0,0
12491,-135.234550804916,4,1,0,50,0,0
12585,-134.738748303976,4,1,0,50,0,0
12679,-134.246567986489,4,1,0,50,0,0
12773,-133.757970303055,4,1,0,50,0,0
12867,-133.272916277954,4,1,0,50,0,0
12961,-132.791367498782,4,1,0,50,0,0
13055,-132.313286106311,4,1,0,50,0,0
13149,-131.838634784569,4,1,0,50,0,0
13243,-131.367376751127,4,1,0,50,0,0
13336,-130.899304401096,4,1,0,50,0,0
13430,-130.434725897945,4,1,0,50,0,0
13524,-129.973433430207,4,1,0,50,0,0
13618,-129.515392256793,4,1,0,50,0,0
13712,-129.060568124621,4,1,0,50,0,0
13806,-128.608927260077,4,1,0,50,0,0
13900,-128.160436360654,4,1,0,50,0,0
13994,-127.715062586766,4,1,0,50,0,0
14087,-127.272773553736,4,1,0,50,0,0
14181,-126.833537323939,4,1,0,50,0,0
14275,-126.397322399122,4,1,0,50,0,0
14369,-125.963939043531,4,1,0,50,0,0
14463,-125.533675035997,4,1,0,50,0,0
14557,-125.106340389331,4,1,0,50,0,0
14651,-124.681905289131,4,1,0,50,0,0
14745,-124.26034032422,4,1,0,50,0,0
14839,-123.841616479852,4,1,0,50,0,0
14933,-123.425705131053,4,1,0,50,0,0
15027,-123.012578036104,4,1,0,50,0,0
15120,-122.602207330141,4,1,0,50,0,0
15214,-122.194565518893,4,1,0,50,0,0
15308,-121.789625472544,4,1,0,50,0,0
15402,-121.387213070975,4,1,0,50,0,0
15496,-120.987597561374,4,1,0,50,0,0
15590,-120.590604544819,4,1,0,50,0,0
15684,-120.196208290413,4,1,0,50,0,0
15778,-119.80438340278,4,1,0,50,0,0
15872,-119.415104816608,4,1,0,50,0,0
15966,-119.02834779131,4,1,0,50,0,0
16059,-118.644087905778,4,1,0,50,0,0
16153,-118.262301053244,4,1,0,50,0,0
16247,-117.882963436241,4,1,0,50,0,0
16341,-117.506051561655,4,1,0,50,0,0
16435,-117.131542235877,4,1,0,50,0,0
16529,-116.759276232598,4,1,0,50,0,0
16623,-116.389504460046,4,1,0,50,0,0
16717,-116.022067397219,4,1,0,50,0,0
16810,-115.656943001945,4,1,0,50,0,0
16904,-115.294109508651,4,1,0,50,0,0
16998,-114.933545424036,4,1,0,50,0,0
17092,-114.575229522829,4,1,0,50,0,0
17186,-114.219140843623,4,1,0,50,0,0
17280,-113.865258684788,4,1,0,50,0,0
17374,-113.51356260046,4,1,0,50,0,0
17468,-113.164032396599,4,1,0,50,0,0
17562,-112.816520851313,4,1,0,50,0,0
17656,-112.471263592152,4,1,0,50,0,0
17749,-112.1281130969,4,1,0,50,0,0
17843,-111.787050140963,4,1,0,50,0,0
17937,-111.448055732944,4,1,0,50,0,0
18031,-111.111111111111,4,1,0,50,0,0
19158,-50,4,1,0,80,0,0
19721,-125,4,1,0,50,0,0
19862,-117.647058823529,4,1,0,60,0,0
20003,-111.111111111111,4,1,0,70,0,0
20144,-105.263157894737,4,1,0,80,0,0
20284,-90.9090909090909,4,1,0,90,0,0
20425,-100,4,1,0,90,0,0
22538,-90.9090909090909,4,1,0,90,0,0
22679,-100,4,1,0,90,0,0
23101,-90.9090909090909,4,1,0,90,0,0
23242,-100,4,1,0,90,0,0
23289,-99.009900990099,4,1,0,90,0,0
23336,-98.0392156862745,4,1,0,90,0,0
23383,-97.0873786407767,4,1,0,90,0,0
23524,-100,4,1,0,90,0,0
23665,-90.9090909090909,4,1,0,90,0,0
23806,-94.3396226415094,4,1,0,90,0,0
23876,-92.5925925925926,4,1,0,90,0,0
23946,-90.9090909090909,4,1,0,90,0,0
24087,-100,4,1,0,90,0,0
24228,-90.9090909090909,4,1,0,90,0,0
24369,-95.2380952380952,4,1,0,90,0,0
24510,-100,4,1,0,90,0,0
24651,-105.263157894737,4,1,0,90,0,0
24791,-111.111111111111,4,1,0,90,0,0
25918,-94.3396226415094,4,1,0,90,0,0
26059,-100,4,1,0,90,0,0
26200,-94.3396226415094,4,1,0,90,0,0
26341,-100,4,1,0,90,0,0
26482,-94.3396226415094,4,1,0,90,0,0
26622,-100,4,1,0,90,0,0
26763,-94.3396226415094,4,1,0,90,0,0
26904,-100,4,1,0,90,0,0
27045,-94.3396226415094,4,1,0,90,0,0
27186,-100,4,1,0,90,0,0
28735,-102.040816326531,4,1,0,90,0,0
28806,-103.092783505155,4,1,0,90,0,0
28876,-104.166666666667,4,1,0,90,0,0
28946,-105.263157894737,4,1,0,90,0,0
29017,-106.382978723404,4,1,0,90,0,0
29158,-108.695652173913,4,1,0,90,0,0
29299,-111.111111111111,4,1,0,90,0,0
30408,-94.3396226415094,4,1,0,90,0,0
30549,-100,4,1,0,90,0,0
30690,-94.3396226415094,4,1,0,90,0,0
30831,-100,4,1,0,90,0,0
30972,-94.3396226415094,4,1,0,90,0,0
31112,-100,4,1,0,90,0,0
31253,-94.3396226415094,4,1,0,90,0,0
31394,-100,4,1,0,90,0,0
31535,-94.3396226415094,4,1,0,90,0,0
31676,-100,4,1,0,90,0,0
32679,-94.3396226415094,4,1,0,90,0,0
32820,-100,4,1,0,90,0,0
33242,-83.3333333333333,4,1,0,90,0,0
33383,-90.9090909090909,4,1,0,90,0,0
33806,-76.9230769230769,4,1,0,90,0,0
33946,-83.3333333333333,4,1,0,90,0,0
34510,-86.9565217391304,4,1,0,90,0,0
34651,-90.9090909090909,4,1,0,90,0,0
34791,-95.2380952380952,4,1,0,90,0,0
34932,-100,4,1,0,90,0,0
34934,281.69014084507,4,1,0,90,1,0
35496,-90.9090909090909,4,1,0,90,0,0
35637,-95.2380952380952,4,1,0,90,0,0
36059,-86.9565217391304,4,1,0,90,0,0
36200,-90.9090909090909,4,1,0,90,0,0
36622,-83.3333333333333,4,1,0,90,0,0
36763,-86.9565217391304,4,1,0,90,0,0
37045,-95.2380952380952,4,1,0,90,0,0
37186,-100,4,1,0,90,0,0
37256,-99.2928364190237,4,1,0,90,0,0
37327,-98.5957014246093,4,1,0,90,0,0
37397,-97.9081914888409,4,1,0,90,0,0
37468,-97.2302032014017,4,1,0,90,0,0
37538,-96.5616333593406,4,1,0,90,0,0
37609,-95.9021031331217,4,1,0,90,0,0
37679,-95.251521166793,4,1,0,90,0,0
37749,-94.6097960875065,4,1,0,90,0,0
37820,-93.97657164069,4,1,0,90,0,0
37890,-93.3517671956289,4,1,0,90,0,0
37961,-92.7353019183224,4,1,0,90,0,0
38031,-92.1268402336337,4,1,0,90,0,0
38102,-91.5263110686429,4,1,0,90,0,0
38172,-90.9336429926989,4,1,0,90,0,0
38242,-90.3485194136381,4,1,0,90,0,0
38313,-89.7708777886201,4,1,0,90,0,0
38383,-89.200655089611,4,1,0,90,0,0
38454,-88.6375521853588,4,1,0,90,0,0
38524,-88.0815141564609,4,1,0,90,0,0
38595,-87.5324854936788,4,1,0,90,0,0
38665,-86.9901831578306,4,1,0,90,0,0
38735,-86.4545590514897,4,1,0,90,0,0
38806,-85.9255644020698,4,1,0,90,0,0
38876,-85.4029310285929,4,1,0,90,0,0
38947,-84.8866169457456,4,1,0,90,0,0
39017,-84.3765794240961,4,1,0,90,0,0
39087,-83.8725640262186,4,1,0,90,0,0
39158,-83.3745342490081,4,1,0,90,0,0
39580,-85.7142612244968,4,1,0,90,0,0
39721,-88.2353200692118,4,1,0,90,0,0
39862,-90.9090909090909,4,1,0,90,0,0
39933,-92.3077207100679,4,1,0,90,0,0
40003,-93.7499707031342,4,1,0,90,0,0
40073,-95.2380952380952,4,1,0,90,0,0
40144,-96.774224765879,4,1,0,90,0,0
40214,-98.3606234883202,4,1,0,90,0,0
40284,-99.009900990099,4,1,0,90,0,0
40425,-100,4,1,0,90,0,0
40566,-83.3333333333333,4,1,0,90,0,0
40707,-85.3535086266791,4,1,0,90,0,0
40778,-86.400851566793,4,1,0,90,0,0
40848,-87.4741404572273,4,1,0,90,0,0
40989,-89.7027519907283,4,1,0,90,0,0
41059,-90.8601916059721,4,1,0,90,0,0
41130,-92.0478906765612,4,1,0,90,0,0
41200,-93.2671385362096,4,1,0,90,0,0
41271,-94.5190304615931,4,1,0,90,0,0
41341,-95.804987032795,4,1,0,90,0,0
41411,-97.1264178028839,4,1,0,90,0,0
41552,-98.5221674876847,4,1,0,90,0,0
41693,-99.8818397835361,4,1,0,90,0,0
41834,-97.5609756097561,4,1,0,90,0,0
41904,-96.3855421686747,4,1,0,90,0,0
41975,-95.2380952380952,4,1,0,90,0,0
42116,-93.0232558139535,4,1,0,90,0,0
42256,-90.9090909090909,4,1,0,90,0,0
42397,-88.9092787501489,4,1,0,90,0,0
42468,-87.9420075225593,4,1,0,90,0,0
42538,-86.9954805847836,4,1,0,90,0,0
42679,-85.1624089720301,4,1,0,90,0,0
42820,-83.4049921223985,4,1,0,90,0,0
42961,-85.3535086266791,4,1,0,90,0,0
43031,-86.400851566793,4,1,0,90,0,0
43102,-87.4741404572273,4,1,0,90,0,0
43242,-89.7027519907283,4,1,0,90,0,0
43383,-92.0478906765612,4,1,0,90,0,0
43524,-94.5190304615931,4,1,0,90,0,0
43595,-95.804987032795,4,1,0,90,0,0
43665,-97.1264178028839,4,1,0,90,0,0
43806,-99.8818397835361,4,1,0,90,0,0
43929,-83.3333333333333,4,1,0,90,0,0
44069,-85.7142612244968,4,1,0,90,0,0
44210,-88.2353200692118,4,1,0,90,0,0
44351,-90.9090909090909,4,1,0,90,0,0
44422,-92.3077207100679,4,1,0,90,0,0
44492,-93.7499707031342,4,1,0,90,0,0
44562,-95.2380952380952,4,1,0,90,0,0
44633,-96.774224765879,4,1,0,90,0,0
44703,-98.3606234883202,4,1,0,90,0,0
44773,-99.009900990099,4,1,0,90,0,0
44914,-100,4,1,0,90,0,0
45055,-83.3333333333333,4,1,0,90,0,0
45196,-85.3535086266791,4,1,0,90,0,0
45267,-86.400851566793,4,1,0,90,0,0
45337,-87.4741404572273,4,1,0,90,0,0
45478,-89.7027519907283,4,1,0,90,0,0
45548,-90.8601916059721,4,1,0,90,0,0
45619,-92.0478906765612,4,1,0,90,0,0
45689,-93.2671385362096,4,1,0,90,0,0
45760,-94.5190304615931,4,1,0,90,0,0
45830,-95.804987032795,4,1,0,90,0,0
45900,-97.1264178028839,4,1,0,90,0,0
46041,-98.5221674876847,4,1,0,90,0,0
46200,-100,4,1,0,90,0,0
46341,-97.5733507664387,4,1,0,90,0,0
46411,-96.4035684744906,4,1,0,90,0,0
46482,-95.261593097726,4,1,0,90,0,0
46623,-93.0569294377221,4,1,0,90,0,0
46764,-90.9519209955233,4,1,0,90,0,0
46904,-88.9401183970856,4,1,0,90,0,0
46975,-87.9671495476729,4,1,0,90,0,0
47045,-87.0153138250801,4,1,0,90,0,0
47116,-86.0838560058124,4,1,0,90,0,0
47186,-85.1721286133211,4,1,0,90,0,0
47327,-83.3333333333333,4,1,0,90,0,0
47397,-84.3313242800846,4,1,0,90,0,0
47468,-85.3535086266791,4,1,0,90,0,0
47538,-86.400851566793,4,1,0,90,0,0
47609,-87.4741404572273,4,1,0,90,0,0
47749,-89.7027519907283,4,1,0,90,0,0
47890,-92.0478906765612,4,1,0,90,0,0
48031,-94.5190304615931,4,1,0,90,0,0
48172,-97.1264178028839,4,1,0,90,0,0
48313,-98.5221674876847,4,1,0,90,0,0
48453,-99.8818397835361,4,1,0,90,0,0
49017,-90.8114273467716,4,1,0,90,0,0
49580,-83.2512614647393,4,1,0,90,0,0
50144,-76.8531405651626,4,1,0,90,0,0
50284,-74.0740740740741,4,1,0,90,0,0
50707,-71.4285714285714,4,1,0,90,0,0
50989,-90.9090909090909,4,1,0,90,0,0
51129,-100,4,1,0,90,0,0
52960,-90.9090909090909,4,1,0,90,0,0
53102,-92.1986142548277,4,1,0,90,0,0
53242,-93.5251596708288,4,1,0,90,0,0
53383,-94.8905248015365,4,1,0,90,0,0
53454,-95.5882212370263,4,1,0,90,0,0
53524,-96.2962534979614,4,1,0,90,0,0
53595,-97.0149470928986,4,1,0,90,0,0
53665,-97.7443535530561,4,1,0,90,0,0
53735,-98.4848111799958,4,1,0,90,0,0
53806,-99.2366715226478,4,1,0,90,0,0
53876,-100,4,1,0,90,0,0
54087,-83.3333333333333,4,1,0,90,0,0
54228,-85.3535086266791,4,1,0,90,0,0
54299,-86.400851566793,4,1,0,90,0,0
54369,-87.4741404572273,4,1,0,90,0,0
54510,-89.7027519907283,4,1,0,90,0,0
54580,-90.8601916059721,4,1,0,90,0,0
54651,-92.0478906765612,4,1,0,90,0,0
54721,-93.2671385362096,4,1,0,90,0,0
54792,-94.5190304615931,4,1,0,90,0,0
54862,-95.804987032795,4,1,0,90,0,0
54933,-97.1264178028839,4,1,0,90,0,0
55003,-98.4848111799958,4,1,0,90,0,0
55073,-99.8818397835361,4,1,0,90,0,0
55214,-90.9090909090909,4,1,0,90,0,0
55285,-91.9485272144654,4,1,0,90,0,0
55355,-93.0120078502135,4,1,0,90,0,0
55426,-94.100465420902,4,1,0,90,0,0
55496,-95.2146089678832,4,1,0,90,0,0
55566,-96.3554514060187,4,1,0,90,0,0
55637,-97.5239640760726,4,1,0,90,0,0
55707,-98.7212634742184,4,1,0,90,0,0
55778,-99.948226818508,4,1,0,90,0,0
55849,-101.010101010101,4,1,0,90,0,0
55918,-102.495982157499,4,1,0,90,0,0
55989,-103.81930457677,4,1,0,90,0,0
56059,-105.177134070345,4,1,0,90,0,0
56200,-108.002207565123,4,1,0,90,0,0
56271,-109.472430463112,4,1,0,90,0,0
56341,-110.983356935794,4,1,0,90,0,0
56482,-99.8965072185217,4,1,0,90,0,0
56622,-90.823551636822,4,1,0,90,0,0
56763,-83.2614509473488,4,1,0,90,0,0
56904,-76.8618239618273,4,1,0,90,0,0
57186,-100,4,1,0,90,0,0
57468,-110.983356935794,4,1,0,90,0,0
61411,-83.2614509473488,4,1,0,90,0,0
61693,-95.2380952380952,4,1,0,90,0,0
61975,-111.111111111111,4,1,0,90,0,0
65637,-116.279069767442,4,1,0,90,0,0
65777,-119.047619047619,4,1,0,90,0,0
65848,-120.481927710843,4,1,0,90,0,0
65918,-121.951219512195,4,1,0,90,0,0
66200,-123.456790123457,4,1,0,90,0,0
66341,-125,4,1,0,90,0,0
66411,-124.681905289131,4,1,0,90,0,0
66482,-124.365425416811,4,1,0,90,0,0
66576,-123.945994251385,4,1,0,90,0,0
66669,-123.529382698969,4,1,0,90,0,0
66763,-123.115562422668,4,1,0,90,0,0
66857,-122.704505464032,4,1,0,90,0,0
66951,-122.296184236756,4,1,0,90,0,0
67045,-121.890571520512,4,1,0,90,0,0
67139,-121.487640454898,4,1,0,90,0,0
67233,-121.087364533511,4,1,0,90,0,0
67327,-120.68971759813,4,1,0,90,0,0
67421,-120.29452912511,4,1,0,90,0,0
67515,-119.90206399413,4,1,0,90,0,0
67608,-119.512151397993,4,1,0,90,0,0
67702,-119.124766515458,4,1,0,90,0,0
67796,-118.73988484606,4,1,0,90,0,0
67890,-118.357482204953,4,1,0,90,0,0
67984,-117.977534717839,4,1,0,90,0,0
68078,-117.600018816003,4,1,0,90,0,0
68172,-117.224911231436,4,1,0,90,0,0
68266,-116.852188992056,4,1,0,90,0,0
68360,-116.48182941702,4,1,0,90,0,0
68454,-116.113810112119,4,1,0,90,0,0
68547,-115.747974989178,4,1,0,90,0,0
68641,-115.384571005934,4,1,0,90,0,0
68735,-115.023441777434,4,1,0,90,0,0
68829,-114.664566011817,4,1,0,90,0,0
68923,-114.307922682121,4,1,0,90,0,0
69017,-113.953491022174,4,1,0,90,0,0
69111,-113.601250522566,4,1,0,90,0,0
69205,-113.251180926689,4,1,0,90,0,0
69298,-112.903262226859,4,1,0,90,0,0
69392,-112.557474660499,4,1,0,90,0,0
69486,-112.213798706399,4,1,0,90,0,0
69580,-111.872089927261,4,1,0,90,0,0
69674,-111.532580339706,4,1,0,90,0,0
69768,-111.195125205711,4,1,0,90,0,0
69862,-110.859705933544,4,1,0,90,0,0
69956,-110.526304155126,4,1,0,90,0,0
70050,-110.194901722677,4,1,0,90,0,0
70144,-109.865480705424,4,1,0,90,0,0
70238,-109.538023386368,4,1,0,90,0,0
70331,-109.212512259105,4,1,0,90,0,0
70425,-108.888930024707,4,1,0,90,0,0
70519,-108.56725958866,4,1,0,90,0,0
70613,-108.247366882801,4,1,0,90,0,0
70707,-107.929470249781,4,1,0,90,0,0
70801,-107.613435322173,4,1,0,90,0,0
70895,-107.299245793601,4,1,0,90,0,0
70989,-106.98688554757,4,1,0,90,0,0
71083,-106.676338654705,4,1,0,90,0,0
71177,-106.367589370049,4,1,0,90,0,0
71270,-106.060622130397,4,1,0,90,0,0
71364,-105.755421551686,4,1,0,90,0,0
71458,-105.451972426418,4,1,0,90,0,0
71552,-105.150259721142,4,1,0,90,0,0
71646,-104.850268573963,4,1,0,90,0,0
71740,-104.55187498105,4,1,0,90,0,0
71834,-104.255283657776,4,1,0,90,0,0
71928,-103.960370306839,4,1,0,90,0,0
72021,-103.667120728655,4,1,0,90,0,0
72115,-103.375520883406,4,1,0,90,0,0
72209,-103.085556888795,4,1,0,90,0,0
72303,-102.797215017851,4,1,0,90,0,0
72397,-102.510481696753,4,1,0,90,0,0
72491,-102.225343502711,4,1,0,90,0,0
72585,-101.941787161859,4,1,0,90,0,0
72679,-101.659799547207,4,1,0,90,0,0
72773,-101.37926489895,4,1,0,90,0,0
72867,-101.100376497802,4,1,0,90,0,0
72960,-100.82301829837,4,1,0,90,0,0
73054,-100.547177741268,4,1,0,90,0,0
73148,-100.272842404182,4,1,0,90,0,0
73242,-100,4,1,0,90,0,0
74369,-33.3333333333333,4,1,0,90,0,0
75497,600,3,1,0,95,1,0
75497,-20,3,1,0,95,0,0
75646,-100,3,1,0,40,0,0
79097,600,3,1,0,40,1,0
93497,-102.040816326531,3,1,0,40,0,0
93797,-104.166666666667,3,1,0,40,0,0
94097,-106.382978723404,3,1,0,40,0,0
94397,-108.695652173913,3,1,0,40,0,0
94697,-111.111111111111,3,1,0,40,0,0
94997,-113.636363636364,3,1,0,40,0,0
95297,-116.279069767442,3,1,0,40,0,0
95897,-119.047619047619,3,1,0,40,0,0
97097,-121.951219512195,3,1,0,40,0,0
97397,-125,3,1,0,40,0,0
97697,-128.205128205128,3,1,0,40,0,0
97997,-131.578947368421,3,1,0,40,0,0
98297,-135.135135135135,3,1,0,40,0,0
98597,-138.888888888889,3,1,0,40,0,0
98897,-142.857142857143,3,1,0,40,0,0
99497,-147.058823529412,3,1,0,40,0,0
100697,-142.857142857143,3,1,0,40,0,0
100997,-138.888888888889,3,1,0,40,0,0
101297,-135.135135135135,3,1,0,40,0,0
101597,-131.578947368421,3,1,0,40,0,0
101897,-128.205128205128,3,1,0,40,0,0
102497,-131.578947368421,3,1,0,40,0,0
102797,-135.135135135135,3,1,0,40,0,0
103097,-138.888888888889,3,1,0,40,0,0
103397,-142.857142857143,3,1,0,40,0,0
103697,-147.058823529412,3,1,0,40,0,0
104297,-151.515151515152,3,1,0,40,0,0
104597,-156.25,3,1,0,40,0,0
104897,-161.290322580645,3,1,0,40,0,0
105197,-166.666666666667,3,1,0,40,0,0
105497,-172.413793103448,3,1,0,40,0,0
105797,-178.571428571429,3,1,0,40,0,0
106097,-185.185185185185,3,1,0,40,0,0
107297,600,3,1,0,40,1,0
107297,-188.679245283019,3,1,0,40,0,0
109097,-192.307692307692,3,1,0,40,0,0
110897,-196.078431372549,3,1,0,40,0,0
112697,-200,3,1,0,40,0,0
114497,281.69014084507,4,1,0,60,1,0
114497,-142.857142857143,4,1,0,60,0,0
114776,-133.333333333333,4,1,0,65,0,0
115058,-125,4,1,0,70,0,0
115340,-117.647058823529,4,1,0,70,0,0
115621,-111.111111111111,4,1,0,70,0,0
115623,281.69014084507,4,1,0,70,1,0
115623,-111.111111111111,4,1,0,70,0,0
121255,-94.3396226415094,4,1,0,90,0,0
121396,-100,4,1,0,90,0,0
121537,-94.3396226415094,4,1,0,90,0,0
121678,-100,4,1,0,90,0,0
121818,-94.3396226415094,4,1,0,90,0,0
121959,-100,4,1,0,90,0,0
122100,-94.3396226415094,4,1,0,90,0,0
122241,-100,4,1,0,90,0,0
122382,-94.3396226415094,4,1,0,90,0,0
122523,-100,4,1,0,90,0,0
124072,-102.040816326531,4,1,0,90,0,0
124213,-104.166666666667,4,1,0,90,0,0
124283,-105.263157894737,4,1,0,90,0,0
124354,-106.382978723404,4,1,0,90,0,0
124494,-108.695652173913,4,1,0,90,0,0
124635,-111.111111111111,4,1,0,90,0,0
125744,-94.3396226415094,4,1,0,90,0,0
125885,-100,4,1,0,90,0,0
126026,-94.3396226415094,4,1,0,90,0,0
126167,-100,4,1,0,90,0,0
126307,-94.3396226415094,4,1,0,90,0,0
126448,-100,4,1,0,90,0,0
126589,-94.3396226415094,4,1,0,90,0,0
126730,-100,4,1,0,90,0,0
126871,-94.3396226415094,4,1,0,90,0,0
127012,-100,4,1,0,90,0,0
127998,-94.3396226415094,4,1,0,90,0,0
128139,-100,4,1,0,90,0,0
128561,-83.3333333333333,4,1,0,90,0,0
128702,-90.9090909090909,4,1,0,90,0,0
129125,-76.9230769230769,4,1,0,90,0,0
129265,-83.3333333333333,4,1,0,90,0,0
129829,-86.9565217391304,4,1,0,90,0,0
129970,-90.9090909090909,4,1,0,90,0,0
130110,-95.2380952380952,4,1,0,90,0,0
130251,-100,4,1,0,90,0,0
130270,281.69014084507,4,1,0,90,1,0
130814,-90.9090909090909,4,1,0,90,0,0
130955,-95.2380952380952,4,1,0,90,0,0
131377,-86.9565217391304,4,1,0,90,0,0
131518,-90.9090909090909,4,1,0,90,0,0
131940,-83.3333333333333,4,1,0,90,0,0
132081,-86.9565217391304,4,1,0,90,0,0
132363,-95.2380952380952,4,1,0,90,0,0
132504,-100,4,1,0,90,0,0
132574,-99.2928364190237,4,1,0,90,0,0
132645,-98.5957014246093,4,1,0,90,0,0
132715,-97.9081914888409,4,1,0,90,0,0
132786,-97.2302032014017,4,1,0,90,0,0
132856,-96.5616333593406,4,1,0,90,0,0
132927,-95.9021031331217,4,1,0,90,0,0
132997,-95.251521166793,4,1,0,90,0,0
133067,-94.6097960875065,4,1,0,90,0,0
133138,-93.97657164069,4,1,0,90,0,0
133208,-93.3517671956289,4,1,0,90,0,0
133279,-92.7353019183224,4,1,0,90,0,0
133349,-92.1268402336337,4,1,0,90,0,0
133420,-91.5263110686429,4,1,0,90,0,0
133490,-90.9336429926989,4,1,0,90,0,0
133560,-90.3485194136381,4,1,0,90,0,0
133631,-89.7708777886201,4,1,0,90,0,0
133701,-89.200655089611,4,1,0,90,0,0
133772,-88.6375521853588,4,1,0,90,0,0
133842,-88.0815141564609,4,1,0,90,0,0
133913,-87.5324854936788,4,1,0,90,0,0
133983,-86.9901831578306,4,1,0,90,0,0
134053,-86.4545590514897,4,1,0,90,0,0
134124,-85.9255644020698,4,1,0,90,0,0
134194,-85.4029310285929,4,1,0,90,0,0
134265,-84.8866169457456,4,1,0,90,0,0
134335,-84.3765794240961,4,1,0,90,0,0
134405,-83.8725640262186,4,1,0,90,0,0
134476,-83.3745342490081,4,1,0,90,0,0
134775,-83.3333333333333,4,1,0,90,0,0
134916,-85.3535086266791,4,1,0,90,0,0
135057,-87.4741404572273,4,1,0,90,0,0
135198,-89.7027519907283,4,1,0,90,0,0
135268,-90.8601916059721,4,1,0,90,0,0
135339,-92.0478906765612,4,1,0,90,0,0
135409,-93.2671385362096,4,1,0,90,0,0
135479,-94.5190304615931,4,1,0,90,0,0
135550,-95.804987032795,4,1,0,90,0,0
135620,-97.1264178028839,4,1,0,90,0,0
135691,-98.4848111799958,4,1,0,90,0,0
135761,-99.8818397835361,4,1,0,90,0,0
135902,-83.3333333333333,4,1,0,90,0,0
136043,-85.3535086266791,4,1,0,90,0,0
136113,-86.400851566793,4,1,0,90,0,0
136184,-87.4741404572273,4,1,0,90,0,0
136324,-89.7027519907283,4,1,0,90,0,0
136395,-90.8601916059721,4,1,0,90,0,0
136465,-92.0478906765612,4,1,0,90,0,0
136536,-93.2671385362096,4,1,0,90,0,0
136606,-94.5190304615931,4,1,0,90,0,0
136677,-95.804987032795,4,1,0,90,0,0
136747,-97.1264178028839,4,1,0,90,0,0
136817,-98.4848111799958,4,1,0,90,0,0
136888,-99.8818397835361,4,1,0,90,0,0
137029,-100,4,1,0,90,0,0
137170,-97.5609756097561,4,1,0,90,0,0
137240,-96.3855421686747,4,1,0,90,0,0
137310,-95.2380952380952,4,1,0,90,0,0
137381,-94.1176470588235,4,1,0,90,0,0
137451,-93.0232558139535,4,1,0,90,0,0
137592,-90.9090909090909,4,1,0,90,0,0
137733,-88.8888888888889,4,1,0,90,0,0
137803,-87.9120879120879,4,1,0,90,0,0
137874,-86.9565217391304,4,1,0,90,0,0
137944,-86.0215053763441,4,1,0,90,0,0
138015,-85.1063829787234,4,1,0,90,0,0
138155,-83.3333333333333,4,1,0,90,0,0
138296,-85.3535086266791,4,1,0,90,0,0
138367,-86.400851566793,4,1,0,90,0,0
138437,-87.4741404572273,4,1,0,90,0,0
138508,-88.5744299792559,4,1,0,90,0,0
138578,-89.7027519907283,4,1,0,90,0,0
138719,-92.0478906765612,4,1,0,90,0,0
138860,-94.5190304615931,4,1,0,90,0,0
138930,-95.804987032795,4,1,0,90,0,0
139001,-97.1264178028839,4,1,0,90,0,0
139071,-98.4848111799958,4,1,0,90,0,0
139141,-99.8818397835361,4,1,0,90,0,0
139282,-83.3333333333333,4,1,0,90,0,0
139423,-85.3535086266791,4,1,0,90,0,0
139564,-87.4741404572273,4,1,0,90,0,0
139705,-89.7027519907283,4,1,0,90,0,0
139775,-90.8601916059721,4,1,0,90,0,0
139846,-92.0478906765612,4,1,0,90,0,0
139916,-93.2671385362096,4,1,0,90,0,0
139986,-94.5190304615931,4,1,0,90,0,0
140057,-95.804987032795,4,1,0,90,0,0
140127,-97.1264178028839,4,1,0,90,0,0
140198,-98.4848111799958,4,1,0,90,0,0
140268,-99.8818397835361,4,1,0,90,0,0
140409,-83.3333333333333,4,1,0,90,0,0
140550,-85.3535086266791,4,1,0,90,0,0
140620,-86.400851566793,4,1,0,90,0,0
140691,-87.4741404572273,4,1,0,90,0,0
140832,-89.7027519907283,4,1,0,90,0,0
140902,-90.8601916059721,4,1,0,90,0,0
140972,-92.0478906765612,4,1,0,90,0,0
141043,-93.2671385362096,4,1,0,90,0,0
141113,-94.5190304615931,4,1,0,90,0,0
141184,-95.804987032795,4,1,0,90,0,0
141254,-97.1264178028839,4,1,0,90,0,0
141324,-98.4848111799958,4,1,0,90,0,0
141395,-99.8818397835361,4,1,0,90,0,0
141536,-100,4,1,0,90,0,0
141677,-97.5733507664387,4,1,0,90,0,0
141747,-96.4035684744906,4,1,0,90,0,0
141817,-95.261593097726,4,1,0,90,0,0
141888,-94.1463561594312,4,1,0,90,0,0
141958,-93.0569294377221,4,1,0,90,0,0
142099,-90.9519209955233,4,1,0,90,0,0
142240,-88.9401183970856,4,1,0,90,0,0
142310,-87.9671495476729,4,1,0,90,0,0
142381,-87.0153138250801,4,1,0,90,0,0
142451,-86.0838560058124,4,1,0,90,0,0
142522,-85.1721286133211,4,1,0,90,0,0
142663,-83.4053399434845,4,1,0,90,0,0
142733,-84.2105263157895,4,1,0,90,0,0
142803,-85.1063829787234,4,1,0,90,0,0
142874,-86.0215053763441,4,1,0,90,0,0
142944,-86.9565217391304,4,1,0,90,0,0
143085,-88.8888888888889,4,1,0,90,0,0
143226,-90.9090909090909,4,1,0,90,0,0
143367,-93.0232558139535,4,1,0,90,0,0
143508,-95.2380952380952,4,1,0,90,0,0
143648,-97.5609756097561,4,1,0,90,0,0
143789,-100,4,1,0,90,0,0
144353,-90.9090909090909,4,1,0,90,0,0
144916,-83.3333333333333,4,1,0,90,0,0
145479,-76.9230769230769,4,1,0,90,0,0
145620,-74.0740740740741,4,1,0,90,0,0
146043,-71.4285714285714,4,1,0,90,0,0
146324,-90.9090909090909,4,1,0,90,0,0
146465,-100,4,1,0,90,0,0
148296,-90.9090909090909,4,1,0,90,0,0
148437,-92.0980770842486,4,1,0,90,0,0
148578,-93.3185765557606,4,1,0,90,0,0
148719,-94.5719484469395,4,1,0,90,0,0
148789,-95.2112547319994,4,1,0,90,0,0
148860,-95.8593551541179,4,1,0,90,0,0
148930,-96.5162460971243,4,1,0,90,0,0
149001,-97.182296495412,4,1,0,90,0,0
149071,-97.8576034868621,4,1,0,90,0,0
149141,-98.5422642844403,4,1,0,90,0,0
149212,-99.2366715226478,4,1,0,90,0,0
149282,-99.9408350256648,4,1,0,90,0,0
149423,-83.3333333333333,4,1,0,90,0,0
149564,-85.3535086266791,4,1,0,90,0,0
149634,-86.400851566793,4,1,0,90,0,0
149705,-87.4741404572273,4,1,0,90,0,0
149846,-89.7027519907283,4,1,0,90,0,0
149916,-90.8601916059721,4,1,0,90,0,0
149986,-92.0478906765612,4,1,0,90,0,0
150057,-93.2671385362096,4,1,0,90,0,0
150127,-94.5190304615931,4,1,0,90,0,0
150198,-95.804987032795,4,1,0,90,0,0
150268,-97.1264178028839,4,1,0,90,0,0
150339,-98.4848111799958,4,1,0,90,0,0
150409,-99.8818397835361,4,1,0,90,0,0
150550,-83.3333333333333,4,1,0,90,0,0
150620,-84.6491335737933,4,1,0,90,0,0
150691,-86.0071523547898,4,1,0,90,0,0
150761,-87.4094547310804,4,1,0,90,0,0
150832,-88.8581637105037,4,1,0,90,0,0
150902,-90.3557849387749,4,1,0,90,0,0
150972,-91.9047535895699,4,1,0,90,0,0
151043,-93.5077564683991,4,1,0,90,0,0
151113,-95.1676711614358,4,1,0,90,0,0
151185,-97.0873786407767,4,1,0,90,0,0
151254,-98.6707082188753,4,1,0,90,0,0
151324,-100.520798255763,4,1,0,90,0,0
151395,-102.441592925793,4,1,0,90,0,0
151536,-106.512153036661,4,1,0,90,0,0
151606,-108.671201153653,4,1,0,90,0,0
151677,-110.91958995246,4,1,0,90,0,0
151817,-99.8448411169044,4,1,0,90,0,0
151958,-90.7808423372799,4,1,0,90,0,0
152099,-83.2255562380051,4,1,0,90,0,0
152240,-76.831234047915,4,1,0,90,0,0
152522,-90.7808423372799,4,1,0,90,0,0
152803,-110.91958995246,4,1,0,90,0,0
153508,-108.695652173913,4,1,0,90,0,0
153648,-106.382978723404,4,1,0,90,0,0
153789,-104.166666666667,4,1,0,90,0,0
153930,-102.040816326531,4,1,0,90,0,0
154353,-111.111111111111,4,1,0,90,0,0
154634,-108.695652173913,4,1,0,90,0,0
154775,-106.382978723404,4,1,0,90,0,0
154916,-104.166666666667,4,1,0,90,0,0
155057,-102.040816326531,4,1,0,90,0,0
155479,-100,4,1,0,90,0,0
155550,-101.001633196409,4,1,0,90,0,0
155620,-102.023638877128,4,1,0,90,0,0
155691,-103.066432499732,4,1,0,90,0,0
155761,-104.130763247255,4,1,0,90,0,0
155832,-105.217416007567,4,1,0,90,0,0
155902,-106.326874330141,4,1,0,90,0,0
155972,-107.45997921724,4,1,0,90,0,0
156043,-108.617612780383,4,1,0,90,0,0
156113,-109.800339063447,4,1,0,90,0,0
156184,-111.009229307325,4,1,0,90,0,0
157029,-99.8448411169043,4,1,0,90,0,0
157310,-90.7808423372799,4,1,0,90,0,0
157592,-110.91958995246,4,1,0,90,0,0
157997,-108.695652173913,4,1,0,90,0,0
158137,-106.382978723404,4,1,0,90,0,0
158278,-104.166666666667,4,1,0,90,0,0
158419,-102.040816326531,4,1,0,90,0,0
158842,-111.111111111111,4,1,0,90,0,0
159123,-108.695652173913,4,1,0,90,0,0
159264,-106.382978723404,4,1,0,90,0,0
159405,-104.166666666667,4,1,0,90,0,0
159546,-102.040816326531,4,1,0,90,0,0
159986,-100,4,1,0,90,0,0
160057,-101.010101010101,4,1,0,90,0,0
160127,-102.040816326531,4,1,0,90,0,0
160409,-106.382978723404,4,1,0,90,0,0
160479,-107.52688172043,4,1,0,90,0,0
160550,-108.695652173913,4,1,0,90,0,0
160620,-109.89010989011,4,1,0,90,0,0
160691,-111.111111111111,4,1,0,90,0,0
161113,-116.279069767442,4,1,0,90,0,0
161184,-117.647058823529,4,1,0,90,0,0
161254,-119.047619047619,4,1,0,90,0,0
161677,-125,4,1,0,90,0,0
161747,-124.681905289131,4,1,0,90,0,0
161817,-124.365425416811,4,1,0,90,0,0
161911,-123.945994251385,4,1,0,90,0,0
162005,-123.529382698969,4,1,0,90,0,0
162099,-123.115562422668,4,1,0,90,0,0
162193,-122.704505464032,4,1,0,90,0,0
162287,-122.296184236756,4,1,0,90,0,0
162381,-121.890571520512,4,1,0,90,0,0
162475,-121.487640454898,4,1,0,90,0,0
162569,-121.087364533511,4,1,0,90,0,0
162663,-120.68971759813,4,1,0,90,0,0
162756,-120.29452912511,4,1,0,90,0,0
162850,-119.90206399413,4,1,0,90,0,0
162944,-119.512151397993,4,1,0,90,0,0
163038,-119.124766515458,4,1,0,90,0,0
163132,-118.73988484606,4,1,0,90,0,0
163226,-118.357482204953,4,1,0,90,0,0
163320,-117.977534717839,4,1,0,90,0,0
163414,-117.600018816003,4,1,0,90,0,0
163508,-117.224911231436,4,1,0,90,0,0
163601,-116.852188992056,4,1,0,90,0,0
163695,-116.48182941702,4,1,0,90,0,0
163789,-116.113810112119,4,1,0,90,0,0
163883,-115.747974989178,4,1,0,90,0,0
163977,-115.384571005934,4,1,0,90,0,0
164071,-115.023441777434,4,1,0,90,0,0
164165,-114.664566011817,4,1,0,90,0,0
164259,-114.307922682121,4,1,0,90,0,0
164353,-113.953491022174,4,1,0,90,0,0
164447,-113.601250522566,4,1,0,90,0,0
164540,-113.251180926689,4,1,0,90,0,0
164634,-112.903262226859,4,1,0,90,0,0
164728,-112.557474660499,4,1,0,90,0,0
164822,-112.213798706399,4,1,0,90,0,0
164916,-111.872089927261,4,1,0,90,0,0
165010,-111.532580339706,4,1,0,90,0,0
165104,-111.195125205711,4,1,0,90,0,0
165198,-110.859705933544,4,1,0,90,0,0
165292,-110.526304155126,4,1,0,90,0,0
165386,-110.194901722677,4,1,0,90,0,0
165479,-109.865480705424,4,1,0,90,0,0
165573,-109.538023386368,4,1,0,90,0,0
165667,-109.212512259105,4,1,0,90,0,0
165761,-108.888930024707,4,1,0,90,0,0
165855,-108.56725958866,4,1,0,90,0,0
165949,-108.247366882801,4,1,0,90,0,0
166043,-107.929470249781,4,1,0,90,0,0
166137,-107.613435322173,4,1,0,90,0,0
166231,-107.299245793601,4,1,0,90,0,0
166324,-106.98688554757,4,1,0,90,0,0
166418,-106.676338654705,4,1,0,90,0,0
166512,-106.367589370049,4,1,0,90,0,0
166606,-106.060622130397,4,1,0,90,0,0
166700,-105.755421551686,4,1,0,90,0,0
166794,-105.451972426418,4,1,0,90,0,0
166888,-105.150259721142,4,1,0,90,0,0
166982,-104.850268573963,4,1,0,90,0,0
167076,-104.55187498105,4,1,0,90,0,0
167170,-104.255283657776,4,1,0,90,0,0
167263,-103.960370306839,4,1,0,90,0,0
167357,-103.667120728655,4,1,0,90,0,0
167451,-103.375520883406,4,1,0,90,0,0
167545,-103.085556888795,4,1,0,90,0,0
167639,-102.797215017851,4,1,0,90,0,0
167733,-102.510481696753,4,1,0,90,0,0
167827,-102.225343502711,4,1,0,90,0,0
167921,-101.941787161859,4,1,0,90,0,0
168015,-101.659799547207,4,1,0,90,0,0
168109,-101.37926489895,4,1,0,90,0,0
168202,-101.100376497802,4,1,0,90,0,0
168296,-100.82301829837,4,1,0,90,0,0
168390,-100.547177741268,4,1,0,90,0,0
168484,-100.272842404182,4,1,0,90,0,0
168578,-100,4,1,0,90,0,0
169634,-33.3333333333333,4,1,0,90,0,0

[HitObjects]
256,192,2258,5,0,0:0:0:0:
256,192,2821,1,0,0:0:0:0:
256,192,2962,1,0,0:0:0:0:
256,192,3103,1,8,0:0:0:0:
256,192,3243,1,8,0:0:0:0:
256,192,3384,1,0,0:0:0:0:
256,192,3948,1,8,0:0:0:0:
256,192,4088,1,8,0:0:0:0:
256,192,4229,1,0,0:0:0:0:
256,192,4370,1,0,0:0:0:0:
256,192,4511,1,8,0:0:0:0:
256,192,5074,1,8,0:0:0:0:
256,192,5215,1,0,0:0:0:0:
256,192,5356,1,8,0:0:0:0:
256,192,5497,1,8,0:0:0:0:
256,192,5638,1,0,0:0:0:0:
256,192,6201,1,8,0:0:0:0:
256,192,6483,1,0,0:0:0:0:
256,192,6765,1,0,0:0:0:0:
256,192,7328,1,8,0:0:0:0:
256,192,7469,1,0,0:0:0:0:
256,192,7610,1,0,0:0:0:0:
256,192,7750,1,0,0:0:0:0:
256,192,7891,1,8,0:0:0:0:
256,192,8455,1,0,0:0:0:0:
256,192,8596,1,0,0:0:0:0:
256,192,8736,1,8,0:0:0:0:
256,192,8877,1,0,0:0:0:0:
256,192,9018,1,8,0:0:0:0:
256,192,9441,1,8,0:0:0:0:
256,192,9511,1,8,0:0:0:0:
256,192,9581,1,0,0:0:0:0:
256,192,9863,1,8,0:0:0:0:
256,192,9934,1,0,0:0:0:0:
256,192,10004,1,0,0:0:0:0:
256,192,10074,1,0,0:0:0:0:
256,192,10145,1,8,0:0:0:0:
256,192,10708,1,8,0:0:0:0:
256,192,11131,1,0,0:0:0:0:
256,192,11201,1,0,0:0:0:0:
256,192,11272,1,8,0:0:0:0:
256,192,11365,1,0,0:0:0:0:
256,192,11459,1,0,0:0:0:0:
256,192,11553,1,8,0:0:0:0:
256,192,11647,1,8,0:0:0:0:
256,192,11741,1,8,0:0:0:0:
256,192,11835,1,0,0:0:0:0:
256,192,11929,1,8,0:0:0:0:
256,192,12023,1,0,0:0:0:0:
256,192,12117,1,8,0:0:0:0:
256,192,12211,1,8,0:0:0:0:
256,192,12304,1,0,0:0:0:0:
256,192,12398,1,8,0:0:0:0:
256,192,12492,1,8,0:0:0:0:
256,192,12586,1,8,0:0:0:0:
256,192,12680,1,0,0:0:0:0:
256,192,12774,1,8,0:0:0:0:
256,192,12868,1,0,0:0:0:0:
256,192,12962,1,8,0:0:0:0:
256,192,13056,1,8,0:0:0:0:
256,192,13150,1,8,0:0:0:0:
256,192,13243,1,0,0:0:0:0:
256,192,13337,1,8,0:0:0:0:
256,192,13431,1,0,0:0:0:0:
256,192,13525,1,8,0:0:0:0:
256,192,13619,1,8,0:0:0:0:
256,192,13713,1,0,0:0:0:0:
256,192,13807,1,0,0:0:0:0:
256,192,13901,1,8,0:0:0:0:
256,192,13995,1,0,0:0:0:0:
256,192,14088,1,8,0:0:0:0:
256,192,14182,1,8,0:0:0:0:
256,192,14276,1,8,0:0:0:0:
256,192,14370,1,0,0:0:0:0:
256,192,14464,1,0,0:0:0:0:
256,192,14558,1,8,0:0:0:0:
256,192,14652,1,8,0:0:0:0:
256,192,14746,1,0,0:0:0:0:
256,192,14840,1,0,0:0:0:0:
256,192,14934,1,8,0:0:0:0:
256,192,15027,1,8,0:0:0:0:
256,192,15121,1,0,0:0:0:0:
256,192,15215,1,8,0:0:0:0:
256,192,15309,1,0,0:0:0:0:
256,192,15403,1,0,0:0:0:0:
256,192,15497,1,8,0:0:0:0:
256,192,15591,1,8,0:0:0:0:
256,192,15685,1,0,0:0:0:0:
256,192,15779,1,8,0:0:0:0:
256,192,15873,1,0,0:0:0:0:
256,192,15966,1,0,0:0:0:0:
256,192,16060,1,8,0:0:0:0:
256,192,16154,1,0,0:0:0:0:
256,192,16248,1,0,0:0:0:0:
256,192,16342,1,8,0:0:0:0:
256,192,16436,1,0,0:0:0:0:
256,192,16530,1,8,0:0:0:0:
256,192,16624,1,0,0:0:0:0:
256,192,16718,1,8,0:0:0:0:
256,192,16811,1,8,0:0:0:0:
256,192,16905,1,8,0:0:0:0:
256,192,16999,1,0,0:0:0:0:
256,192,17093,1,8,0:0:0:0:
256,192,17187,1,0,0:0:0:0:
256,192,17281,1,8,0:0:0:0:
256,192,17375,1,0,0:0:0:0:
256,192,17469,1,8,0:0:0:0:
256,192,17563,1,0,0:0:0:0:
256,192,17657,1,0,0:0:0:0:
256,192,17750,1,8,0:0:0:0:
256,192,17844,1,8,0:0:0:0:
256,192,17938,1,8,0:0:0:0:
256,192,18032,1,0,0:0:0:0:
256,192,19159,5,12,0:0:0:0:
256,192,19722,1,8,0:0:0:0:
256,192,19863,1,8,0:0:0:0:
256,192,20004,1,8,0:0:0:0:
256,192,20145,1,8,0:0:0:0:
256,192,20286,1,4,0:0:0:0:
256,192,20427,1,0,0:0:0:0:
256,192,20497,1,0,0:0:0:0:
256,192,20567,1,8,0:0:0:0:
256,192,20708,1,0,0:0:0:0:
256,192,20849,1,8,0:0:0:0:
256,192,20990,1,8,0:0:0:0:
256,192,21060,1,0,0:0:0:0:
256,192,21131,1,0,0:0:0:0:
256,192,21272,1,8,0:0:0:0:
256,192,21412,1,0,0:0:0:0:
256,192,21483,1,0,0:0:0:0:
256,192,21553,1,8,0:0:0:0:
256,192,21624,1,0,0:0:0:0:
256,192,21694,1,8,0:0:0:0:
256,192,21835,1,0,0:0:0:0:
256,192,21976,1,8,0:0:0:0:
256,192,22117,1,0,0:0:0:0:
256,192,22187,1,0,0:0:0:0:
256,192,22257,1,0,0:0:0:0:
256,192,22398,1,0,0:0:0:0:
256,192,22539,1,12,0:0:0:0:
256,192,22680,1,0,0:0:0:0:
256,192,22962,1,0,0:0:0:0:
256,192,23103,1,12,0:0:0:0:
256,192,23243,1,0,0:0:0:0:
256,192,23290,1,0,0:0:0:0:
256,192,23337,1,8,0:0:0:0:
256,192,23384,1,8,0:0:0:0:
256,192,23525,1,0,0:0:0:0:
256,192,23666,1,12,0:0:0:0:
256,192,23807,1,0,0:0:0:0:
256,192,23877,1,0,0:0:0:0:
256,192,23948,1,8,0:0:0:0:
256,192,24088,1,0,0:0:0:0:
256,192,24229,1,8,0:0:0:0:
256,192,24370,1,8,0:0:0:0:
256,192,24511,1,0,0:0:0:0:
256,192,24652,1,0,0:0:0:0:
256,192,24793,1,12,0:0:0:0:
256,192,25215,1,8,0:0:0:0:
256,192,25286,1,8,0:0:0:0:
256,192,25356,1,8,0:0:0:0:
256,192,25497,1,0,0:0:0:0:
256,192,25638,1,8,0:0:0:0:
256,192,25779,1,0,0:0:0:0:
256,192,25919,1,12,0:0:0:0:
256,192,26060,1,8,0:0:0:0:
256,192,26201,1,4,0:0:0:0:
256,192,26342,1,0,0:0:0:0:
256,192,26483,1,12,0:0:0:0:
256,192,26624,1,8,0:0:0:0:
256,192,26765,1,4,0:0:0:0:
256,192,26905,1,0,0:0:0:0:
256,192,27046,1,12,0:0:0:0:
256,192,27187,1,0,0:0:0:0:
256,192,27257,1,0,0:0:0:0:
256,192,27328,1,8,0:0:0:0:
256,192,27469,1,0,0:0:0:0:
256,192,27610,1,8,0:0:0:0:
256,192,27680,1,0,0:0:0:0:
256,192,27750,1,8,0:0:0:0:
256,192,27821,1,8,0:0:0:0:
256,192,27891,1,0,0:0:0:0:
256,192,28032,1,8,0:0:0:0:
256,192,28173,1,0,0:0:0:0:
256,192,28314,1,0,0:0:0:0:
256,192,28384,1,8,0:0:0:0:
256,192,28455,1,0,0:0:0:0:
256,192,28596,1,8,0:0:0:0:
256,192,28736,1,0,0:0:0:0:
256,192,28807,1,0,0:0:0:0:
256,192,28877,1,8,0:0:0:0:
256,192,28948,1,0,0:0:0:0:
256,192,29018,1,8,0:0:0:0:
256,192,29159,1,0,0:0:0:0:
256,192,29300,1,8,0:0:0:0:
256,192,29722,1,8,0:0:0:0:
256,192,29793,1,8,0:0:0:0:
256,192,29863,1,8,0:0:0:0:
256,192,30004,1,0,0:0:0:0:
256,192,30145,1,8,0:0:0:0:
256,192,30286,1,0,0:0:0:0:
256,192,30427,1,12,0:0:0:0:
256,192,30567,1,8,0:0:0:0:
256,192,30708,1,4,0:0:0:0:
256,192,30849,1,0,0:0:0:0:
256,192,30990,1,12,0:0:0:0:
256,192,31131,1,8,0:0:0:0:
256,192,31272,1,4,0:0:0:0:
256,192,31412,1,0,0:0:0:0:
256,192,31553,1,12,0:0:0:0:
256,192,31694,1,8,0:0:0:0:
256,192,31765,1,8,0:0:0:0:
256,192,31835,1,0,0:0:0:0:
256,192,31976,1,8,0:0:0:0:
256,192,32117,1,0,0:0:0:0:
256,192,32187,1,0,0:0:0:0:
256,192,32257,1,8,0:0:0:0:
256,192,32328,1,0,0:0:0:0:
256,192,32398,1,8,0:0:0:0:
256,192,32539,1,0,0:0:0:0:
256,192,32680,1,12,0:0:0:0:
256,192,32821,1,0,0:0:0:0:
256,192,32891,1,0,0:0:0:0:
256,192,33103,1,0,0:0:0:0:
256,192,33243,1,12,0:0:0:0:
256,192,33384,1,0,0:0:0:0:
256,192,33455,1,0,0:0:0:0:
256,192,33666,1,0,0:0:0:0:
256,192,33807,1,12,0:0:0:0:
256,192,33948,1,0,0:0:0:0:
256,192,34018,1,0,0:0:0:0:
256,192,34229,1,0,0:0:0:0:
256,192,34370,1,12,0:0:0:0:
256,192,34511,1,0,0:0:0:0:
256,192,34652,1,8,0:0:0:0:
256,192,34793,1,8,0:0:0:0:
256,192,34934,1,4,0:0:0:0:
256,192,35074,1,8,0:0:0:0:
256,192,35356,1,8,0:0:0:0:
256,192,35497,1,4,0:0:0:0:
256,192,35638,1,8,0:0:0:0:
256,192,35919,1,8,0:0:0:0:
256,192,36060,1,4,0:0:0:0:
256,192,36201,1,8,0:0:0:0:
256,192,36483,1,8,0:0:0:0:
256,192,36624,1,4,0:0:0:0:
256,192,36764,1,8,0:0:0:0:
256,192,37046,1,8,0:0:0:0:
256,192,37187,1,8,0:0:0:0:
256,192,37257,1,8,0:0:0:0:
256,192,37328,1,0,0:0:0:0:
256,192,37398,1,0,0:0:0:0:
256,192,37469,1,8,0:0:0:0:
256,192,37539,1,8,0:0:0:0:
256,192,37610,1,0,0:0:0:0:
256,192,37680,1,0,0:0:0:0:
256,192,37750,1,8,0:0:0:0:
256,192,37821,1,8,0:0:0:0:
256,192,37891,1,0,0:0:0:0:
256,192,37962,1,0,0:0:0:0:
256,192,38032,1,8,0:0:0:0:
256,192,38103,1,8,0:0:0:0:
256,192,38173,1,0,0:0:0:0:
256,192,38243,1,0,0:0:0:0:
256,192,38314,1,8,0:0:0:0:
256,192,38384,1,0,0:0:0:0:
256,192,38455,1,8,0:0:0:0:
256,192,38525,1,8,0:0:0:0:
256,192,38595,1,0,0:0:0:0:
256,192,38666,1,8,0:0:0:0:
256,192,38736,1,0,0:0:0:0:
256,192,38807,1,0,0:0:0:0:
256,192,38877,1,8,0:0:0:0:
256,192,38948,1,0,0:0:0:0:
256,192,39018,1,0,0:0:0:0:
256,192,39088,1,0,0:0:0:0:
256,192,39159,1,8,0:0:0:0:
256,192,39441,1,4,0:0:0:0:
256,192,39581,1,0,0:0:0:0:
256,192,39722,1,8,0:0:0:0:
256,192,39863,1,0,0:0:0:0:
256,192,39933,1,0,0:0:0:0:
256,192,40004,1,8,0:0:0:0:
256,192,40074,1,0,0:0:0:0:
256,192,40145,1,8,0:0:0:0:
256,192,40215,1,8,0:0:0:0:
256,192,40286,1,0,0:0:0:0:
256,192,40426,1,8,0:0:0:0:
256,192,40567,1,4,0:0:0:0:
256,192,40708,1,8,0:0:0:0:
256,192,40779,1,8,0:0:0:0:
256,192,40849,1,0,0:0:0:0:
256,192,40990,1,8,0:0:0:0:
256,192,41060,1,0,0:0:0:0:
256,192,41131,1,8,0:0:0:0:
256,192,41201,1,8,0:0:0:0:
256,192,41272,1,0,0:0:0:0:
256,192,41342,1,0,0:0:0:0:
256,192,41412,1,8,0:0:0:0:
256,192,41553,1,0,0:0:0:0:
256,192,41694,1,4,0:0:0:0:
256,192,41835,1,8,0:0:0:0:
256,192,41905,1,8,0:0:0:0:
256,192,41976,1,8,0:0:0:0:
256,192,42117,1,0,0:0:0:0:
256,192,42257,1,12,0:0:0:0:
256,192,42398,1,0,0:0:0:0:
256,192,42469,1,0,0:0:0:0:
256,192,42539,1,0,0:0:0:0:
256,192,42680,1,8,0:0:0:0:
256,192,42821,1,4,0:0:0:0:
256,192,42962,1,8,0:0:0:0:
256,192,43032,1,8,0:0:0:0:
256,192,43103,1,0,0:0:0:0:
256,192,43243,1,8,0:0:0:0:
256,192,43384,1,12,0:0:0:0:
256,192,43525,1,0,0:0:0:0:
256,192,43595,1,0,0:0:0:0:
256,192,43666,1,8,0:0:0:0:
256,192,43807,1,8,0:0:0:0:
256,192,43948,1,4,0:0:0:0:
256,192,44088,1,0,0:0:0:0:
256,192,44229,1,8,0:0:0:0:
256,192,44370,1,0,0:0:0:0:
256,192,44441,1,0,0:0:0:0:
256,192,44511,1,8,0:0:0:0:
256,192,44581,1,8,0:0:0:0:
256,192,44652,1,0,0:0:0:0:
256,192,44722,1,0,0:0:0:0:
256,192,44793,1,8,0:0:0:0:
256,192,44933,1,0,0:0:0:0:
256,192,45074,1,4,0:0:0:0:
256,192,45215,1,8,0:0:0:0:
256,192,45286,1,8,0:0:0:0:
256,192,45356,1,0,0:0:0:0:
256,192,45497,1,8,0:0:0:0:
256,192,45567,1,8,0:0:0:0:
256,192,45638,1,0,0:0:0:0:
256,192,45708,1,8,0:0:0:0:
256,192,45779,1,0,0:0:0:0:
256,192,45849,1,0,0:0:0:0:
256,192,45919,1,8,0:0:0:0:
256,192,46060,1,0,0:0:0:0:
256,192,46201,1,4,0:0:0:0:
256,192,46342,1,8,0:0:0:0:
256,192,46412,1,8,0:0:0:0:
256,192,46483,1,8,0:0:0:0:
256,192,46624,1,0,0:0:0:0:
256,192,46764,1,12,0:0:0:0:
256,192,46905,1,0,0:0:0:0:
256,192,46976,1,0,0:0:0:0:
256,192,47046,1,8,0:0:0:0:
256,192,47117,1,8,0:0:0:0:
256,192,47187,1,0,0:0:0:0:
256,192,47328,1,0,0:0:0:0:
256,192,47398,1,0,0:0:0:0:
256,192,47469,1,8,0:0:0:0:
256,192,47539,1,0,0:0:0:0:
256,192,47610,1,8,0:0:0:0:
256,192,47750,1,0,0:0:0:0:
256,192,47891,1,8,0:0:0:0:
256,192,48032,1,8,0:0:0:0:
256,192,48173,1,0,0:0:0:0:
256,192,48314,1,8,0:0:0:0:
256,192,48455,1,4,0:0:0:0:
256,192,49018,1,4,0:0:0:0:
256,192,49581,1,4,0:0:0:0:
256,192,50145,1,4,0:0:0:0:
256,192,50286,1,4,0:0:0:0:
256,192,50708,1,12,0:0:0:0:
256,192,50990,1,4,0:0:0:0:
256,192,51131,1,0,0:0:0:0:
256,192,51201,1,0,0:0:0:0:
256,192,51272,1,8,0:0:0:0:
256,192,51342,1,8,0:0:0:0:
256,192,51412,1,0,0:0:0:0:
256,192,51483,1,0,0:0:0:0:
256,192,51553,1,8,0:0:0:0:
256,192,51624,1,0,0:0:0:0:
256,192,51694,1,8,0:0:0:0:
256,192,51764,1,8,0:0:0:0:
256,192,51835,1,0,0:0:0:0:
256,192,51976,1,0,0:0:0:0:
256,192,52046,1,0,0:0:0:0:
256,192,52117,1,8,0:0:0:0:
256,192,52257,1,8,0:0:0:0:
256,192,52398,1,0,0:0:0:0:
256,192,52469,1,0,0:0:0:0:
256,192,52539,1,8,0:0:0:0:
256,192,52610,1,8,0:0:0:0:
256,192,52680,1,0,0:0:0:0:
256,192,52821,1,8,0:0:0:0:
256,192,52962,1,4,0:0:0:0:
256,192,53103,1,0,0:0:0:0:
256,192,53243,1,8,0:0:0:0:
256,192,53384,1,0,0:0:0:0:
256,192,53455,1,0,0:0:0:0:
256,192,53525,1,8,0:0:0:0:
256,192,53595,1,0,0:0:0:0:
256,192,53666,1,8,0:0:0:0:
256,192,53736,1,8,0:0:0:0:
256,192,53807,1,0,0:0:0:0:
256,192,53877,1,8,0:0:0:0:
256,192,53948,1,0,0:0:0:0:
256,192,54088,1,4,0:0:0:0:
256,192,54229,1,8,0:0:0:0:
256,192,54300,1,0,0:0:0:0:
256,192,54370,1,0,0:0:0:0:
256,192,54511,1,8,0:0:0:0:
256,192,54581,1,0,0:0:0:0:
256,192,54652,1,8,0:0:0:0:
256,192,54722,1,8,0:0:0:0:
256,192,54793,1,0,0:0:0:0:
256,192,54863,1,8,0:0:0:0:
256,192,54933,1,0,0:0:0:0:
256,192,55004,1,0,0:0:0:0:
256,192,55074,1,8,0:0:0:0:
256,192,55215,1,0,0:0:0:0:
256,192,55286,1,8,0:0:0:0:
256,192,55356,1,8,0:0:0:0:
256,192,55426,1,8,0:0:0:0:
256,192,55497,1,0,0:0:0:0:
256,192,55567,1,8,0:0:0:0:
256,192,55638,1,8,0:0:0:0:
256,192,55708,1,8,0:0:0:0:
256,192,55779,1,0,0:0:0:0:
256,192,55849,1,8,0:0:0:0:
256,192,55919,1,8,0:0:0:0:
256,192,55990,1,8,0:0:0:0:
256,192,56060,1,0,0:0:0:0:
256,192,56201,1,0,0:0:0:0:
256,192,56272,1,8,0:0:0:0:
256,192,56342,1,4,0:0:0:0:
256,192,56483,1,4,0:0:0:0:
256,192,56624,1,12,0:0:0:0:
256,192,56764,1,12,0:0:0:0:
256,192,56905,1,4,0:0:0:0:
256,192,57187,1,8,0:0:0:0:
256,192,57469,1,4,0:0:0:0:
256,192,57610,1,0,0:0:0:0:
256,192,57750,1,8,0:0:0:0:
256,192,57891,1,0,0:0:0:0:
256,192,57962,1,0,0:0:0:0:
256,192,58032,1,8,0:0:0:0:
256,192,58173,1,0,0:0:0:0:
256,192,58314,1,8,0:0:0:0:
256,192,58455,1,8,0:0:0:0:
256,192,58595,1,0,0:0:0:0:
256,192,58736,1,8,0:0:0:0:
256,192,58877,1,0,0:0:0:0:
256,192,59018,1,8,0:0:0:0:
256,192,59088,1,8,0:0:0:0:
256,192,59159,1,0,0:0:0:0:
256,192,59300,1,8,0:0:0:0:
256,192,59441,1,0,0:0:0:0:
256,192,59581,1,0,0:0:0:0:
256,192,59722,1,8,0:0:0:0:
256,192,59863,1,0,0:0:0:0:
256,192,60004,1,8,0:0:0:0:
256,192,60145,1,0,0:0:0:0:
256,192,60215,1,0,0:0:0:0:
256,192,60286,1,8,0:0:0:0:
256,192,60356,1,8,0:0:0:0:
256,192,60426,1,0,0:0:0:0:
256,192,60497,1,8,0:0:0:0:
256,192,60567,1,0,0:0:0:0:
256,192,60638,1,0,0:0:0:0:
256,192,60708,1,8,0:0:0:0:
256,192,60779,1,8,0:0:0:0:
256,192,60849,1,0,0:0:0:0:
256,192,60990,1,0,0:0:0:0:
256,192,61060,1,0,0:0:0:0:
256,192,61131,1,8,0:0:0:0:
256,192,61272,1,0,0:0:0:0:
256,192,61412,1,12,0:0:0:0:
256,192,61694,1,4,0:0:0:0:
256,192,61976,1,4,0:0:0:0:
256,192,62117,1,0,0:0:0:0:
256,192,62257,1,8,0:0:0:0:
256,192,62398,1,0,0:0:0:0:
256,192,62469,1,0,0:0:0:0:
256,192,62539,1,0,0:0:0:0:
256,192,62680,1,8,0:0:0:0:
256,192,62821,1,0,0:0:0:0:
256,192,62962,1,0,0:0:0:0:
256,192,63103,1,8,0:0:0:0:
256,192,63243,1,0,0:0:0:0:
256,192,63384,1,8,0:0:0:0:
256,192,63525,1,8,0:0:0:0:
256,192,63595,1,0,0:0:0:0:
256,192,63666,1,8,0:0:0:0:
256,192,63807,1,0,0:0:0:0:
256,192,63948,1,8,0:0:0:0:
256,192,64088,1,8,0:0:0:0:
256,192,64229,1,0,0:0:0:0:
256,192,64370,1,8,0:0:0:0:
256,192,64511,1,0,0:0:0:0:
256,192,64652,1,8,0:0:0:0:
256,192,64722,1,8,0:0:0:0:
256,192,64793,1,0,0:0:0:0:
256,192,64933,1,0,0:0:0:0:
256,192,65074,1,8,0:0:0:0:
256,192,65145,1,8,0:0:0:0:
256,192,65215,1,0,0:0:0:0:
256,192,65286,1,0,0:0:0:0:
256,192,65356,1,8,0:0:0:0:
256,192,65638,1,0,0:0:0:0:
256,192,65779,1,0,0:0:0:0:
256,192,65849,1,0,0:0:0:0:
256,192,65919,1,8,0:0:0:0:
256,192,66201,1,0,0:0:0:0:
256,192,66342,1,8,0:0:0:0:
256,192,66412,1,0,0:0:0:0:
256,192,66483,1,8,0:0:0:0:
256,192,66577,1,0,0:0:0:0:
256,192,66671,1,0,0:0:0:0:
256,192,66764,1,8,0:0:0:0:
256,192,66858,1,8,0:0:0:0:
256,192,66952,1,8,0:0:0:0:
256,192,67046,1,0,0:0:0:0:
256,192,67140,1,8,0:0:0:0:
256,192,67234,1,0,0:0:0:0:
256,192,67328,1,8,0:0:0:0:
256,192,67422,1,8,0:0:0:0:
256,192,67516,1,0,0:0:0:0:
256,192,67610,1,8,0:0:0:0:
256,192,67703,1,8,0:0:0:0:
256,192,67797,1,8,0:0:0:0:
256,192,67891,1,0,0:0:0:0:
256,192,67985,1,8,0:0:0:0:
256,192,68079,1,0,0:0:0:0:
256,192,68173,1,8,0:0:0:0:
256,192,68267,1,8,0:0:0:0:
256,192,68361,1,8,0:0:0:0:
256,192,68455,1,0,0:0:0:0:
256,192,68549,1,8,0:0:0:0:
256,192,68642,1,0,0:0:0:0:
256,192,68736,1,8,0:0:0:0:
256,192,68830,1,8,0:0:0:0:
256,192,68924,1,0,0:0:0:0:
256,192,69018,1,0,0:0:0:0:
256,192,69112,1,8,0:0:0:0:
256,192,69206,1,0,0:0:0:0:
256,192,69300,1,8,0:0:0:0:
256,192,69394,1,8,0:0:0:0:
256,192,69487,1,8,0:0:0:0:
256,192,69581,1,0,0:0:0:0:
256,192,69675,1,0,0:0:0:0:
256,192,69769,1,8,0:0:0:0:
256,192,69863,1,8,0:0:0:0:
256,192,69957,1,0,0:0:0:0:
256,192,70051,1,0,0:0:0:0:
256,192,70145,1,8,0:0:0:0:
256,192,70239,1,8,0:0:0:0:
256,192,70333,1,0,0:0:0:0:
256,192,70426,1,8,0:0:0:0:
256,192,70520,1,0,0:0:0:0:
256,192,70614,1,0,0:0:0:0:
256,192,70708,1,8,0:0:0:0:
256,192,70802,1,8,0:0:0:0:
256,192,70896,1,0,0:0:0:0:
256,192,70990,1,8,0:0:0:0:
256,192,71084,1,0,0:0:0:0:
256,192,71178,1,0,0:0:0:0:
256,192,71272,1,8,0:0:0:0:
256,192,71365,1,0,0:0:0:0:
256,192,71459,1,0,0:0:0:0:
256,192,71553,1,8,0:0:0:0:
256,192,71647,1,0,0:0:0:0:
256,192,71741,1,8,0:0:0:0:
256,192,71835,1,0,0:0:0:0:
256,192,71929,1,8,0:0:0:0:
256,192,72023,1,8,0:0:0:0:
256,192,72117,1,8,0:0:0:0:
256,192,72210,1,0,0:0:0:0:
256,192,72304,1,8,0:0:0:0:
256,192,72398,1,0,0:0:0:0:
256,192,72492,1,8,0:0:0:0:
256,192,72586,1,0,0:0:0:0:
256,192,72680,1,8,0:0:0:0:
256,192,72774,1,0,0:0:0:0:
256,192,72868,1,0,0:0:0:0:
256,192,72962,1,8,0:0:0:0:
256,192,73056,1,8,0:0:0:0:
256,192,73149,1,8,0:0:0:0:
256,192,73243,1,0,0:0:0:0:
256,192,74370,12,0,75215,0:0:0:0:
256,192,75497,5,12,0:0:0:0:
256,192,79097,1,0,0:0:0:0:
256,192,79397,1,0,0:0:0:0:
256,192,79697,1,8,0:0:0:0:
256,192,79997,1,8,0:0:0:0:
256,192,80297,1,0,0:0:0:0:
256,192,80597,1,0,0:0:0:0:
256,192,80897,1,8,0:0:0:0:
256,192,81497,1,0,0:0:0:0:
256,192,82697,1,0,0:0:0:0:
256,192,82997,1,0,0:0:0:0:
256,192,83297,1,8,0:0:0:0:
256,192,83597,1,8,0:0:0:0:
256,192,83897,1,0,0:0:0:0:
256,192,84197,1,8,0:0:0:0:
256,192,84497,1,0,0:0:0:0:
256,192,85097,1,8,0:0:0:0:
256,192,86297,1,0,0:0:0:0:
256,192,86597,1,0,0:0:0:0:
256,192,86897,1,8,0:0:0:0:
256,192,87197,1,8,0:0:0:0:
256,192,87497,1,0,0:0:0:0:
256,192,88097,1,0,0:0:0:0:
256,192,88397,1,0,0:0:0:0:
256,192,88697,1,8,0:0:0:0:
256,192,88997,1,0,0:0:0:0:
256,192,89297,1,8,0:0:0:0:
256,192,89897,1,8,0:0:0:0:
256,192,90197,1,8,0:0:0:0:
256,192,90497,1,0,0:0:0:0:
256,192,90797,1,8,0:0:0:0:
256,192,91097,1,0,0:0:0:0:
256,192,91397,1,0,0:0:0:0:
256,192,91697,1,8,0:0:0:0:
256,192,92297,1,0,0:0:0:0:
256,192,93497,1,0,0:0:0:0:
256,192,93797,1,0,0:0:0:0:
256,192,94097,1,8,0:0:0:0:
256,192,94397,1,8,0:0:0:0:
256,192,94697,1,0,0:0:0:0:
256,192,94997,1,8,0:0:0:0:
256,192,95297,1,0,0:0:0:0:
256,192,95897,1,8,0:0:0:0:
256,192,97097,1,8,0:0:0:0:
256,192,97397,1,8,0:0:0:0:
256,192,97697,1,0,0:0:0:0:
256,192,97997,1,8,0:0:0:0:
256,192,98297,1,0,0:0:0:0:
256,192,98597,1,8,0:0:0:0:
256,192,98897,1,0,0:0:0:0:
256,192,99497,1,8,0:0:0:0:
256,192,100697,1,0,0:0:0:0:
256,192,100997,1,0,0:0:0:0:
256,192,101297,1,8,0:0:0:0:
256,192,101597,1,8,0:0:0:0:
256,192,101897,1,8,0:0:0:0:
256,192,102497,1,0,0:0:0:0:
256,192,102797,1,0,0:0:0:0:
256,192,103097,1,8,0:0:0:0:
256,192,103397,1,0,0:0:0:0:
256,192,103697,1,8,0:0:0:0:
256,192,104297,1,0,0:0:0:0:
256,192,104597,1,0,0:0:0:0:
256,192,104897,1,8,0:0:0:0:
256,192,105197,1,8,0:0:0:0:
256,192,105497,1,0,0:0:0:0:
256,192,105797,1,8,0:0:0:0:
256,192,106097,1,0,0:0:0:0:
256,192,107297,1,8,0:0:0:0:
256,192,109097,1,0,0:0:0:0:
256,192,110897,1,0,0:0:0:0:
256,192,112697,1,0,0:0:0:0:
256,192,114497,1,8,0:0:0:0:
256,192,114778,1,8,0:0:0:0:
256,192,115060,1,8,0:0:0:0:
256,192,115342,1,8,0:0:0:0:
256,192,115623,1,0,0:0:0:0:
256,192,115763,1,0,0:0:0:0:
256,192,115834,1,0,0:0:0:0:
256,192,115904,1,8,0:0:0:0:
256,192,116045,1,0,0:0:0:0:
256,192,116186,1,8,0:0:0:0:
256,192,116327,1,8,0:0:0:0:
256,192,116468,1,0,0:0:0:0:
256,192,116608,1,8,0:0:0:0:
256,192,116749,1,0,0:0:0:0:
256,192,116890,1,8,0:0:0:0:
256,192,116961,1,0,0:0:0:0:
256,192,117031,1,8,0:0:0:0:
256,192,117172,1,8,0:0:0:0:
256,192,117313,1,0,0:0:0:0:
256,192,117453,1,8,0:0:0:0:
256,192,117594,1,0,0:0:0:0:
256,192,117735,1,8,0:0:0:0:
256,192,117876,1,0,0:0:0:0:
256,192,118017,1,0,0:0:0:0:
256,192,118158,1,8,0:0:0:0:
256,192,118299,1,0,0:0:0:0:
256,192,118439,1,8,0:0:0:0:
256,192,118580,1,8,0:0:0:0:
256,192,118721,1,0,0:0:0:0:
256,192,118862,1,8,0:0:0:0:
256,192,119003,1,0,0:0:0:0:
256,192,119144,1,8,0:0:0:0:
256,192,119214,1,8,0:0:0:0:
256,192,119284,1,0,0:0:0:0:
256,192,119425,1,0,0:0:0:0:
256,192,119566,1,8,0:0:0:0:
256,192,119707,1,8,0:0:0:0:
256,192,119848,1,0,0:0:0:0:
256,192,119989,1,8,0:0:0:0:
256,192,120130,1,0,0:0:0:0:
256,192,120552,1,8,0:0:0:0:
256,192,120623,1,8,0:0:0:0:
256,192,120693,1,8,0:0:0:0:
256,192,120834,1,0,0:0:0:0:
256,192,120975,1,8,0:0:0:0:
256,192,121115,1,0,0:0:0:0:
256,192,121256,1,12,0:0:0:0:
256,192,121397,1,8,0:0:0:0:
256,192,121538,1,4,0:0:0:0:
256,192,121679,1,0,0:0:0:0:
256,192,121820,1,12,0:0:0:0:
256,192,121961,1,8,0:0:0:0:
256,192,122101,1,4,0:0:0:0:
256,192,122242,1,0,0:0:0:0:
256,192,122383,1,12,0:0:0:0:
256,192,122524,1,0,0:0:0:0:
256,192,122594,1,0,0:0:0:0:
256,192,122665,1,8,0:0:0:0:
256,192,122806,1,0,0:0:0:0:
256,192,122946,1,8,0:0:0:0:
256,192,123017,1,0,0:0:0:0:
256,192,123087,1,8,0:0:0:0:
256,192,123158,1,8,0:0:0:0:
256,192,123228,1,8,0:0:0:0:
256,192,123369,1,0,0:0:0:0:
256,192,123439,1,0,0:0:0:0:
256,192,123510,1,8,0:0:0:0:
256,192,123651,1,8,0:0:0:0:
256,192,123721,1,0,0:0:0:0:
256,192,123792,1,0,0:0:0:0:
256,192,123932,1,8,0:0:0:0:
256,192,124073,1,0,0:0:0:0:
256,192,124214,1,8,0:0:0:0:
256,192,124284,1,0,0:0:0:0:
256,192,124355,1,8,0:0:0:0:
256,192,124496,1,0,0:0:0:0:
256,192,124637,1,12,0:0:0:0:
256,192,125059,1,8,0:0:0:0:
256,192,125130,1,8,0:0:0:0:
256,192,125200,1,8,0:0:0:0:
256,192,125341,1,0,0:0:0:0:
256,192,125482,1,8,0:0:0:0:
256,192,125622,1,0,0:0:0:0:
256,192,125763,1,12,0:0:0:0:
256,192,125904,1,8,0:0:0:0:
256,192,126045,1,4,0:0:0:0:
256,192,126186,1,0,0:0:0:0:
256,192,126327,1,12,0:0:0:0:
256,192,126468,1,8,0:0:0:0:
256,192,126608,1,4,0:0:0:0:
256,192,126749,1,0,0:0:0:0:
256,192,126890,1,12,0:0:0:0:
256,192,127031,1,8,0:0:0:0:
256,192,127101,1,0,0:0:0:0:
256,192,127172,1,8,0:0:0:0:
256,192,127313,1,0,0:0:0:0:
256,192,127383,1,0,0:0:0:0:
256,192,127453,1,8,0:0:0:0:
256,192,127524,1,8,0:0:0:0:
256,192,127594,1,0,0:0:0:0:
256,192,127665,1,0,0:0:0:0:
256,192,127735,1,8,0:0:0:0:
256,192,127876,1,0,0:0:0:0:
256,192,128017,1,12,0:0:0:0:
256,192,128158,1,0,0:0:0:0:
256,192,128228,1,0,0:0:0:0:
256,192,128439,1,0,0:0:0:0:
256,192,128580,1,12,0:0:0:0:
256,192,128721,1,0,0:0:0:0:
256,192,128792,1,0,0:0:0:0:
256,192,129003,1,0,0:0:0:0:
256,192,129144,1,12,0:0:0:0:
256,192,129284,1,0,0:0:0:0:
256,192,129355,1,0,0:0:0:0:
256,192,129566,1,0,0:0:0:0:
256,192,129707,1,12,0:0:0:0:
256,192,129848,1,8,0:0:0:0:
256,192,129989,1,0,0:0:0:0:
256,192,130130,1,8,0:0:0:0:
256,192,130270,1,4,0:0:0:0:
256,192,130410,1,8,0:0:0:0:
256,192,130692,1,8,0:0:0:0:
256,192,130833,1,4,0:0:0:0:
256,192,130974,1,8,0:0:0:0:
256,192,131255,1,8,0:0:0:0:
256,192,131396,1,4,0:0:0:0:
256,192,131537,1,8,0:0:0:0:
256,192,131819,1,8,0:0:0:0:
256,192,131960,1,4,0:0:0:0:
256,192,132100,1,8,0:0:0:0:
256,192,132382,1,8,0:0:0:0:
256,192,132523,1,0,0:0:0:0:
256,192,132593,1,0,0:0:0:0:
256,192,132664,1,8,0:0:0:0:
256,192,132734,1,8,0:0:0:0:
256,192,132805,1,0,0:0:0:0:
256,192,132875,1,0,0:0:0:0:
256,192,132946,1,8,0:0:0:0:
256,192,133016,1,8,0:0:0:0:
256,192,133086,1,0,0:0:0:0:
256,192,133157,1,0,0:0:0:0:
256,192,133227,1,8,0:0:0:0:
256,192,133298,1,8,0:0:0:0:
256,192,133368,1,0,0:0:0:0:
256,192,133439,1,0,0:0:0:0:
256,192,133509,1,8,0:0:0:0:
256,192,133579,1,8,0:0:0:0:
256,192,133650,1,0,0:0:0:0:
256,192,133720,1,0,0:0:0:0:
256,192,133791,1,8,0:0:0:0:
256,192,133861,1,0,0:0:0:0:
256,192,133931,1,8,0:0:0:0:
256,192,134002,1,8,0:0:0:0:
256,192,134072,1,0,0:0:0:0:
256,192,134143,1,8,0:0:0:0:
256,192,134213,1,0,0:0:0:0:
256,192,134284,1,0,0:0:0:0:
256,192,134354,1,8,0:0:0:0:
256,192,134424,1,0,0:0:0:0:
256,192,134495,1,8,0:0:0:0:
256,192,134542,1,8,0:0:0:0:
256,192,134589,1,8,0:0:0:0:
256,192,134636,1,0,0:0:0:0:
256,192,134706,1,0,0:0:0:0:
256,192,134777,1,12,0:0:0:0:
256,192,134917,1,0,0:0:0:0:
256,192,135058,1,8,0:0:0:0:
256,192,135199,1,0,0:0:0:0:
256,192,135270,1,0,0:0:0:0:
256,192,135340,1,8,0:0:0:0:
256,192,135410,1,0,0:0:0:0:
256,192,135481,1,8,0:0:0:0:
256,192,135551,1,8,0:0:0:0:
256,192,135622,1,0,0:0:0:0:
256,192,135692,1,0,0:0:0:0:
256,192,135762,1,8,0:0:0:0:
256,192,135903,1,4,0:0:0:0:
256,192,136044,1,8,0:0:0:0:
256,192,136115,1,8,0:0:0:0:
256,192,136185,1,0,0:0:0:0:
256,192,136326,1,8,0:0:0:0:
256,192,136396,1,0,0:0:0:0:
256,192,136467,1,8,0:0:0:0:
256,192,136537,1,8,0:0:0:0:
256,192,136608,1,0,0:0:0:0:
256,192,136678,1,0,0:0:0:0:
256,192,136748,1,8,0:0:0:0:
256,192,136819,1,0,0:0:0:0:
256,192,136889,1,8,0:0:0:0:
256,192,137030,1,4,0:0:0:0:
256,192,137171,1,0,0:0:0:0:
256,192,137241,1,0,0:0:0:0:
256,192,137312,1,8,0:0:0:0:
256,192,137382,1,8,0:0:0:0:
256,192,137453,1,0,0:0:0:0:
256,192,137593,1,12,0:0:0:0:
256,192,137734,1,8,0:0:0:0:
256,192,137805,1,0,0:0:0:0:
256,192,137875,1,8,0:0:0:0:
256,192,137946,1,8,0:0:0:0:
256,192,138016,1,0,0:0:0:0:
256,192,138157,1,4,0:0:0:0:
256,192,138298,1,0,0:0:0:0:
256,192,138368,1,0,0:0:0:0:
256,192,138439,1,8,0:0:0:0:
256,192,138509,1,0,0:0:0:0:
256,192,138579,1,8,0:0:0:0:
256,192,138720,1,12,0:0:0:0:
256,192,138861,1,8,0:0:0:0:
256,192,138931,1,8,0:0:0:0:
256,192,139002,1,0,0:0:0:0:
256,192,139072,1,0,0:0:0:0:
256,192,139143,1,8,0:0:0:0:
256,192,139284,1,4,0:0:0:0:
256,192,139424,1,0,0:0:0:0:
256,192,139565,1,8,0:0:0:0:
256,192,139706,1,0,0:0:0:0:
256,192,139777,1,0,0:0:0:0:
256,192,139847,1,8,0:0:0:0:
256,192,139917,1,8,0:0:0:0:
256,192,139988,1,0,0:0:0:0:
256,192,140058,1,8,0:0:0:0:
256,192,140129,1,0,0:0:0:0:
256,192,140199,1,0,0:0:0:0:
256,192,140270,1,8,0:0:0:0:
256,192,140410,1,4,0:0:0:0:
256,192,140551,1,8,0:0:0:0:
256,192,140622,1,8,0:0:0:0:
256,192,140692,1,0,0:0:0:0:
256,192,140833,1,8,0:0:0:0:
256,192,140903,1,8,0:0:0:0:
256,192,140974,1,0,0:0:0:0:
256,192,141044,1,0,0:0:0:0:
256,192,141115,1,8,0:0:0:0:
256,192,141185,1,0,0:0:0:0:
256,192,141255,1,8,0:0:0:0:
256,192,141326,1,8,0:0:0:0:
256,192,141396,1,0,0:0:0:0:
256,192,141537,1,4,0:0:0:0:
256,192,141678,1,0,0:0:0:0:
256,192,141748,1,0,0:0:0:0:
256,192,141819,1,8,0:0:0:0:
256,192,141889,1,0,0:0:0:0:
256,192,141960,1,8,0:0:0:0:
256,192,142100,1,12,0:0:0:0:
256,192,142241,1,8,0:0:0:0:
256,192,142312,1,8,0:0:0:0:
256,192,142382,1,0,0:0:0:0:
256,192,142453,1,0,0:0:0:0:
256,192,142523,1,8,0:0:0:0:
256,192,142664,1,0,0:0:0:0:
256,192,142734,1,0,0:0:0:0:
256,192,142805,1,8,0:0:0:0:
256,192,142875,1,0,0:0:0:0:
256,192,142946,1,8,0:0:0:0:
256,192,143086,1,0,0:0:0:0:
256,192,143227,1,8,0:0:0:0:
256,192,143368,1,8,0:0:0:0:
256,192,143509,1,0,0:0:0:0:
256,192,143650,1,8,0:0:0:0:
256,192,143791,1,4,0:0:0:0:
256,192,144354,1,4,0:0:0:0:
256,192,144917,1,4,0:0:0:0:
256,192,145481,1,4,0:0:0:0:
256,192,145622,1,4,0:0:0:0:
256,192,146044,1,12,0:0:0:0:
256,192,146326,1,4,0:0:0:0:
256,192,146467,1,0,0:0:0:0:
256,192,146537,1,0,0:0:0:0:
256,192,146608,1,8,0:0:0:0:
256,192,146678,1,0,0:0:0:0:
256,192,146748,1,8,0:0:0:0:
256,192,146819,1,8,0:0:0:0:
256,192,146889,1,8,0:0:0:0:
256,192,146960,1,0,0:0:0:0:
256,192,147030,1,8,0:0:0:0:
256,192,147100,1,0,0:0:0:0:
256,192,147171,1,8,0:0:0:0:
256,192,147241,1,0,0:0:0:0:
256,192,147312,1,0,0:0:0:0:
256,192,147382,1,0,0:0:0:0:
256,192,147453,1,8,0:0:0:0:
256,192,147593,1,0,0:0:0:0:
256,192,147734,1,8,0:0:0:0:
256,192,147875,1,8,0:0:0:0:
256,192,147946,1,8,0:0:0:0:
256,192,148016,1,0,0:0:0:0:
256,192,148157,1,8,0:0:0:0:
256,192,148298,1,4,0:0:0:0:
256,192,148439,1,0,0:0:0:0:
256,192,148579,1,8,0:0:0:0:
256,192,148720,1,0,0:0:0:0:
256,192,148791,1,0,0:0:0:0:
256,192,148861,1,8,0:0:0:0:
256,192,148931,1,0,0:0:0:0:
256,192,149002,1,8,0:0:0:0:
256,192,149072,1,8,0:0:0:0:
256,192,149143,1,0,0:0:0:0:
256,192,149213,1,0,0:0:0:0:
256,192,149284,1,8,0:0:0:0:
256,192,149424,1,4,0:0:0:0:
256,192,149565,1,8,0:0:0:0:
256,192,149636,1,8,0:0:0:0:
256,192,149706,1,0,0:0:0:0:
256,192,149847,1,8,0:0:0:0:
256,192,149917,1,8,0:0:0:0:
256,192,149988,1,0,0:0:0:0:
256,192,150058,1,8,0:0:0:0:
256,192,150129,1,0,0:0:0:0:
256,192,150199,1,8,0:0:0:0:
256,192,150269,1,8,0:0:0:0:
256,192,150340,1,0,0:0:0:0:
256,192,150410,1,8,0:0:0:0:
256,192,150551,1,0,0:0:0:0:
256,192,150622,1,8,0:0:0:0:
256,192,150692,1,8,0:0:0:0:
256,192,150762,1,8,0:0:0:0:
256,192,150833,1,0,0:0:0:0:
256,192,150903,1,8,0:0:0:0:
256,192,150974,1,8,0:0:0:0:
256,192,151044,1,8,0:0:0:0:
256,192,151115,1,0,0:0:0:0:
256,192,151185,1,8,0:0:0:0:
256,192,151255,1,8,0:0:0:0:
256,192,151326,1,8,0:0:0:0:
256,192,151396,1,0,0:0:0:0:
256,192,151537,1,0,0:0:0:0:
256,192,151608,1,0,0:0:0:0:
256,192,151678,1,12,0:0:0:0:
256,192,151819,1,12,0:0:0:0:
256,192,151960,1,4,0:0:0:0:
256,192,152100,1,4,0:0:0:0:
256,192,152241,1,12,0:0:0:0:
256,192,152523,1,8,0:0:0:0:
256,192,152805,1,4,0:0:0:0:
256,192,153227,1,0,0:0:0:0:
256,192,153298,1,0,0:0:0:0:
256,192,153368,1,8,0:0:0:0:
256,192,153509,1,8,0:0:0:0:
256,192,153650,1,0,0:0:0:0:
256,192,153791,1,8,0:0:0:0:
256,192,153931,1,0,0:0:0:0:
256,192,154354,1,8,0:0:0:0:
256,192,154424,1,8,0:0:0:0:
256,192,154495,1,0,0:0:0:0:
256,192,154636,1,8,0:0:0:0:
256,192,154777,1,0,0:0:0:0:
256,192,154917,1,0,0:0:0:0:
256,192,155058,1,8,0:0:0:0:
256,192,155481,1,0,0:0:0:0:
256,192,155551,1,0,0:0:0:0:
256,192,155622,1,8,0:0:0:0:
256,192,155692,1,8,0:0:0:0:
256,192,155762,1,0,0:0:0:0:
256,192,155833,1,8,0:0:0:0:
256,192,155903,1,0,0:0:0:0:
256,192,155974,1,0,0:0:0:0:
256,192,156044,1,8,0:0:0:0:
256,192,156115,1,8,0:0:0:0:
256,192,156185,1,0,0:0:0:0:
256,192,156608,1,0,0:0:0:0:
256,192,156678,1,0,0:0:0:0:
256,192,156748,1,8,0:0:0:0:
256,192,157030,1,0,0:0:0:0:
256,192,157312,1,4,0:0:0:0:
256,192,157734,1,0,0:0:0:0:
256,192,157805,1,0,0:0:0:0:
256,192,157875,1,8,0:0:0:0:
256,192,158016,1,8,0:0:0:0:
256,192,158157,1,0,0:0:0:0:
256,192,158298,1,8,0:0:0:0:
256,192,158439,1,0,0:0:0:0:
256,192,158861,1,8,0:0:0:0:
256,192,158931,1,0,0:0:0:0:
256,192,159002,1,8,0:0:0:0:
256,192,159143,1,8,0:0:0:0:
256,192,159284,1,0,0:0:0:0:
256,192,159424,1,8,0:0:0:0:
256,192,159565,1,0,0:0:0:0:
256,192,159988,1,8,0:0:0:0:
256,192,160058,1,8,0:0:0:0:
256,192,160129,1,0,0:0:0:0:
256,192,160410,1,8,0:0:0:0:
256,192,160481,1,8,0:0:0:0:
256,192,160551,1,0,0:0:0:0:
256,192,160622,1,0,0:0:0:0:
256,192,160692,1,8,0:0:0:0:
256,192,161115,1,0,0:0:0:0:
256,192,161185,1,0,0:0:0:0:
256,192,161255,1,8,0:0:0:0:
256,192,161678,1,8,0:0:0:0:
256,192,161748,1,0,0:0:0:0:
256,192,161819,1,8,0:0:0:0:
256,192,161913,1,0,0:0:0:0:
256,192,162007,1,0,0:0:0:0:
256,192,162100,1,8,0:0:0:0:
256,192,162194,1,8,0:0:0:0:
256,192,162288,1,8,0:0:0:0:
256,192,162382,1,0,0:0:0:0:
256,192,162476,1,8,0:0:0:0:
256,192,162570,1,0,0:0:0:0:
256,192,162664,1,8,0:0:0:0:
256,192,162758,1,8,0:0:0:0:
256,192,162852,1,0,0:0:0:0:
256,192,162946,1,8,0:0:0:0:
256,192,163039,1,8,0:0:0:0:
256,192,163133,1,8,0:0:0:0:
256,192,163227,1,0,0:0:0:0:
256,192,163321,1,8,0:0:0:0:
256,192,163415,1,0,0:0:0:0:
256,192,163509,1,8,0:0:0:0:
256,192,163603,1,8,0:0:0:0:
256,192,163697,1,8,0:0:0:0:
256,192,163791,1,0,0:0:0:0:
256,192,163885,1,8,0:0:0:0:
256,192,163978,1,0,0:0:0:0:
256,192,164072,1,8,0:0:0:0:
256,192,164166,1,8,0:0:0:0:
256,192,164260,1,0,0:0:0:0:
256,192,164354,1,0,0:0:0:0:
256,192,164448,1,8,0:0:0:0:
256,192,164542,1,0,0:0:0:0:
256,192,164636,1,8,0:0:0:0:
256,192,164730,1,8,0:0:0:0:
256,192,164823,1,8,0:0:0:0:
256,192,164917,1,0,0:0:0:0:
256,192,165011,1,0,0:0:0:0:
256,192,165105,1,8,0:0:0:0:
256,192,165199,1,8,0:0:0:0:
256,192,165293,1,0,0:0:0:0:
256,192,165387,1,0,0:0:0:0:
256,192,165481,1,8,0:0:0:0:
256,192,165575,1,8,0:0:0:0:
256,192,165669,1,0,0:0:0:0:
256,192,165762,1,8,0:0:0:0:
256,192,165856,1,0,0:0:0:0:
256,192,165950,1,0,0:0:0:0:
256,192,166044,1,8,0:0:0:0:
256,192,166138,1,8,0:0:0:0:
256,192,166232,1,0,0:0:0:0:
256,192,166326,1,8,0:0:0:0:
256,192,166420,1,0,0:0:0:0:
256,192,166514,1,0,0:0:0:0:
256,192,166608,1,8,0:0:0:0:
256,192,166701,1,0,0:0:0:0:
256,192,166795,1,0,0:0:0:0:
256,192,166889,1,8,0:0:0:0:
256,192,166983,1,0,0:0:0:0:
256,192,167077,1,8,0:0:0:0:
256,192,167171,1,0,0:0:0:0:
256,192,167265,1,8,0:0:0:0:
256,192,167359,1,8,0:0:0:0:
256,192,167453,1,8,0:0:0:0:
256,192,167546,1,0,0:0:0:0:
256,192,167640,1,8,0:0:0:0:
256,192,167734,1,0,0:0:0:0:
256,192,167828,1,8,0:0:0:0:
256,192,167922,1,0,0:0:0:0:
256,192,168016,1,8,0:0:0:0:
256,192,168110,1,0,0:0:0:0:
256,192,168204,1,0,0:0:0:0:
256,192,168298,1,8,0:0:0:0:
256,192,168392,1,8,0:0:0:0:
256,192,168485,1,8,0:0:0:0:
256,192,168579,1,0,0:0:0:0:
256,192,169706,12,8,170551,0:0:0:0:
256,192,170833,5,12,0:0:0:0:
