osu file format v14

[General]
AudioFilename: audio.ogg
AudioLeadIn: 0
PreviewTime: 57735
Countdown: 0
SampleSet: Soft
StackLeniency: 0.7
Mode: 3
LetterboxInBreaks: 0
SpecialStyle: 0
WidescreenStoryboard: 1

[Editor]
DistanceSpacing: 0.8
BeatDivisor: 4
GridSize: 4
TimelineZoom: 2.699999

[Metadata]
Title:Happy Life (TV Size)
TitleUnicode:はっぴーらいふ (TV Size)
Artist:MKLNtic
ArtistUnicode:MKLNtic
Creator:Savageeeee
Version:Easy
Source:宇崎ちゃんは遊びたい!ω
Tags:Uzaki-chan wa Asobitai! wants to hang out w season 2 s2 ending ed japanese anime jpop pop j-pop double female vocals ろん 鹿乃まほろ ron kano mahoro chinozo
BeatmapID:4414082
BeatmapSetID:2102902

[Difficulty]
HPDrainRate:6.5
CircleSize:4
OverallDifficulty:6.5
ApproachRate:5
SliderMultiplier:1.4
SliderTickRate:1

[Events]
//Background and Video events
0,0,"uzaki double.jpg",0,0
//Break Periods
//Storyboard Layer 0 (Background)
//Storyboard Layer 1 (Fail)
//Storyboard Layer 2 (Pass)
//Storyboard Layer 3 (Foreground)
//Storyboard Layer 4 (Overlay)
//Storyboard Sound Samples

[TimingPoints]
1132,566.037735849057,4,2,1,50,1,0
57735,-100,4,2,1,50,0,1
75848,-100,4,2,1,50,0,0

[HitObjects]
448,192,1132,5,0,0:0:0:0:
64,192,1698,1,0,0:0:0:0:
448,192,1698,1,0,0:0:0:0:
192,192,2264,1,0,0:0:0:0:
192,192,2830,1,0,0:0:0:0:
320,192,2830,1,0,0:0:0:0:
64,192,3396,1,0,0:0:0:0:
448,192,3962,1,0,0:0:0:0:
64,192,3962,1,0,0:0:0:0:
320,192,4528,1,0,0:0:0:0:
320,192,5094,1,0,0:0:0:0:
192,192,5094,1,0,0:0:0:0:
448,192,5660,1,0,0:0:0:0:
192,192,6226,1,0,0:0:0:0:
448,192,6226,1,0,0:0:0:0:
64,192,6792,1,0,0:0:0:0:
64,192,7358,1,0,0:0:0:0:
320,192,7358,1,0,0:0:0:0:
192,192,7924,1,0,0:0:0:0:
448,192,7924,128,0,8490:0:0:0:0:
64,192,8490,128,0,9056:0:0:0:0:
320,192,8490,1,0,0:0:0:0:
448,192,9056,1,0,0:0:0:0:
192,192,9339,1,0,0:0:0:0:
320,192,9622,128,0,10188:0:0:0:0:
64,192,10188,1,0,0:0:0:0:
448,192,10188,1,0,0:0:0:0:
192,192,10471,1,0,0:0:0:0:
320,192,10754,1,0,0:0:0:0:
64,192,11037,1,0,0:0:0:0:
448,192,11320,1,0,0:0:0:0:
448,192,11745,128,0,12169:0:0:0:0:
320,192,12169,1,0,0:0:0:0:
64,192,12452,1,0,0:0:0:0:
448,192,12735,1,0,0:0:0:0:
192,192,13018,1,0,0:0:0:0:
320,192,13301,1,0,0:0:0:0:
64,192,13584,128,0,14150:0:0:0:0:
320,192,14150,1,0,0:0:0:0:
448,192,14150,128,0,14716:0:0:0:0:
64,192,14716,1,0,0:0:0:0:
192,192,14716,1,0,0:0:0:0:
320,192,14999,1,0,0:0:0:0:
192,192,15282,1,0,0:0:0:0:
448,192,15565,1,0,0:0:0:0:
64,192,15848,1,0,0:0:0:0:
64,192,16273,128,0,16698:0:0:0:0:
192,192,16698,1,0,0:0:0:0:
448,192,16981,1,0,0:0:0:0:
320,192,17264,1,0,0:0:0:0:
64,192,17547,1,0,0:0:0:0:
192,192,17830,1,0,0:0:0:0:
448,192,18113,128,0,18679:0:0:0:0:
192,192,18679,1,0,0:0:0:0:
64,192,18679,128,0,19245:0:0:0:0:
448,192,19245,1,0,0:0:0:0:
320,192,19245,1,0,0:0:0:0:
448,192,19811,1,0,0:0:0:0:
64,192,20377,1,0,0:0:0:0:
64,192,20943,1,0,0:0:0:0:
320,192,21226,1,0,0:0:0:0:
192,192,21509,1,0,0:0:0:0:
192,192,22075,1,0,0:0:0:0:
448,192,22641,1,0,0:0:0:0:
448,192,23207,1,0,0:0:0:0:
64,192,23490,1,0,0:0:0:0:
320,192,23773,1,0,0:0:0:0:
320,192,24339,1,0,0:0:0:0:
192,192,24905,1,0,0:0:0:0:
192,192,25471,1,0,0:0:0:0:
448,192,25754,1,0,0:0:0:0:
64,192,26037,1,0,0:0:0:0:
64,192,26603,1,0,0:0:0:0:
448,192,27169,1,0,0:0:0:0:
448,192,27735,1,0,0:0:0:0:
320,192,28018,1,0,0:0:0:0:
192,192,28301,1,0,0:0:0:0:
64,192,28301,1,0,0:0:0:0:
448,192,28867,1,0,0:0:0:0:
64,192,29433,1,0,0:0:0:0:
192,192,29716,1,0,0:0:0:0:
320,192,29999,1,0,0:0:0:0:
64,192,30565,1,0,0:0:0:0:
448,192,31132,1,0,0:0:0:0:
192,192,31698,1,0,0:0:0:0:
320,192,31981,1,0,0:0:0:0:
64,192,32264,1,0,0:0:0:0:
448,192,32830,1,0,0:0:0:0:
64,192,33396,1,0,0:0:0:0:
320,192,33962,1,0,0:0:0:0:
192,192,34245,1,0,0:0:0:0:
448,192,34528,1,0,0:0:0:0:
192,192,35094,1,0,0:0:0:0:
64,192,35094,128,0,35660:0:0:0:0:
448,192,35660,1,0,0:0:0:0:
192,192,35943,1,0,0:0:0:0:
320,192,36226,1,0,0:0:0:0:
448,192,36226,128,0,36792:0:0:0:0:
64,192,36792,1,0,0:0:0:0:
192,192,37075,1,0,0:0:0:0:
320,192,37358,1,0,0:0:0:0:
448,192,37358,1,0,0:0:0:0:
192,192,37782,1,0,0:0:0:0:
320,192,38207,1,0,0:0:0:0:
64,192,38773,1,0,0:0:0:0:
320,192,39056,1,0,0:0:0:0:
192,192,39339,1,0,0:0:0:0:
448,192,39622,1,0,0:0:0:0:
64,192,40047,1,0,0:0:0:0:
320,192,40471,1,0,0:0:0:0:
192,192,41037,1,0,0:0:0:0:
448,192,41320,1,0,0:0:0:0:
64,192,41603,1,0,0:0:0:0:
320,192,41886,1,0,0:0:0:0:
192,192,42311,1,0,0:0:0:0:
448,192,42735,1,0,0:0:0:0:
64,192,43301,1,0,0:0:0:0:
192,192,43584,1,0,0:0:0:0:
320,192,43867,1,0,0:0:0:0:
64,192,44150,1,0,0:0:0:0:
448,192,44575,1,0,0:0:0:0:
192,192,44999,1,0,0:0:0:0:
320,192,45282,128,0,45848:0:0:0:0:
448,192,45282,1,0,0:0:0:0:
64,192,45848,1,0,0:0:0:0:
192,192,46132,1,0,0:0:0:0:
320,192,46415,1,0,0:0:0:0:
448,192,46415,1,0,0:0:0:0:
64,192,46839,1,0,0:0:0:0:
320,192,47264,1,0,0:0:0:0:
64,192,47547,1,0,0:0:0:0:
448,192,47830,1,0,0:0:0:0:
192,192,48113,1,0,0:0:0:0:
320,192,48396,1,0,0:0:0:0:
64,192,48679,128,0,49245:0:0:0:0:
192,192,48679,1,0,0:0:0:0:
448,192,49245,128,0,49811:0:0:0:0:
320,192,49245,1,0,0:0:0:0:
192,192,49811,128,0,50377:0:0:0:0:
448,192,50377,1,0,0:0:0:0:
320,192,50660,1,0,0:0:0:0:
64,192,50943,128,0,51509:0:0:0:0:
192,192,50943,1,0,0:0:0:0:
448,192,51509,128,0,52075:0:0:0:0:
192,192,52075,128,0,52641:0:0:0:0:
320,192,52641,128,0,53207:0:0:0:0:
448,192,53207,1,0,0:0:0:0:
64,192,53207,128,0,54905:0:0:0:0:
448,192,53773,1,0,0:0:0:0:
448,192,54339,1,0,0:0:0:0:
448,192,54905,1,0,0:0:0:0:
64,192,55471,1,0,0:0:0:0:
192,192,55754,1,0,0:0:0:0:
448,192,56037,1,0,0:0:0:0:
320,192,56320,1,0,0:0:0:0:
192,192,56603,128,0,57169:0:0:0:0:
320,192,57169,128,0,57735:0:0:0:0:
448,192,57735,1,0,0:0:0:0:
64,192,57735,1,0,0:0:0:0:
320,192,58301,1,0,0:0:0:0:
192,192,58301,1,0,0:0:0:0:
64,192,58867,1,0,0:0:0:0:
192,192,59150,1,0,0:0:0:0:
320,192,59433,1,0,0:0:0:0:
448,192,59433,1,0,0:0:0:0:
64,192,59999,128,0,60565:0:0:0:0:
320,192,60565,128,0,61132:0:0:0:0:
448,192,60565,1,0,0:0:0:0:
192,192,61132,128,0,61698:0:0:0:0:
320,192,61698,1,0,0:0:0:0:
448,192,61698,128,0,62264:0:0:0:0:
64,192,62264,1,0,0:0:0:0:
192,192,62830,1,0,0:0:0:0:
64,192,62830,128,0,63396:0:0:0:0:
448,192,63396,1,0,0:0:0:0:
192,192,63679,1,0,0:0:0:0:
448,192,63962,1,0,0:0:0:0:
320,192,63962,128,0,64528:0:0:0:0:
64,192,64528,1,0,0:0:0:0:
320,192,65094,1,0,0:0:0:0:
192,192,65094,1,0,0:0:0:0:
448,192,65660,1,0,0:0:0:0:
64,192,65943,1,0,0:0:0:0:
320,192,66226,128,0,66792:0:0:0:0:
448,192,66226,1,0,0:0:0:0:
64,192,66792,1,0,0:0:0:0:
192,192,66792,1,0,0:0:0:0:
320,192,67358,1,0,0:0:0:0:
448,192,67358,1,0,0:0:0:0:
192,192,67924,1,0,0:0:0:0:
320,192,68207,1,0,0:0:0:0:
192,192,68490,1,0,0:0:0:0:
64,192,68490,1,0,0:0:0:0:
448,192,69056,128,0,69622:0:0:0:0:
192,192,69622,128,0,70188:0:0:0:0:
64,192,69622,1,0,0:0:0:0:
320,192,70188,128,0,70754:0:0:0:0:
192,192,70754,1,0,0:0:0:0:
64,192,70754,128,0,71320:0:0:0:0:
448,192,71320,1,0,0:0:0:0:
320,192,71886,1,0,0:0:0:0:
448,192,71886,128,0,72452:0:0:0:0:
64,192,72452,1,0,0:0:0:0:
320,192,72735,1,0,0:0:0:0:
64,192,73018,1,0,0:0:0:0:
192,192,73018,128,0,73584:0:0:0:0:
448,192,73584,128,0,74150:0:0:0:0:
192,192,74150,1,0,0:0:0:0:
64,192,74150,128,0,74716:0:0:0:0:
320,192,74716,1,0,0:0:0:0:
192,192,74999,1,0,0:0:0:0:
320,192,75282,1,0,0:0:0:0:
448,192,75282,128,0,75848:0:0:0:0:
192,192,75848,1,0,0:0:0:0:
64,192,75848,128,0,76415:0:0:0:0:
320,192,76415,1,0,0:0:0:0:
448,192,76415,1,0,0:0:0:0:
64,192,76981,128,0,77547:0:0:0:0:
320,192,77547,1,0,0:0:0:0:
448,192,77547,1,0,0:0:0:0:
192,192,78113,1,0,0:0:0:0:
64,192,78679,1,0,0:0:0:0:
448,192,78679,1,0,0:0:0:0:
320,192,79245,1,0,0:0:0:0:
448,192,79811,1,0,0:0:0:0:
64,192,79811,1,0,0:0:0:0:
448,192,80377,128,0,80943:0:0:0:0:
192,192,80943,1,0,0:0:0:0:
64,192,80943,1,0,0:0:0:0:
448,192,81509,128,0,82075:0:0:0:0:
192,192,82075,1,0,0:0:0:0:
64,192,82075,1,0,0:0:0:0:
320,192,82641,128,0,83207:0:0:0:0:
64,192,83207,1,0,0:0:0:0:
448,192,83207,1,0,0:0:0:0:
192,192,83773,128,0,84339:0:0:0:0:
320,192,84339,1,0,0:0:0:0:
448,192,84339,1,0,0:0:0:0:
64,192,84905,1,0,0:0:0:0:
448,192,85471,1,0,0:0:0:0:
192,192,85471,1,0,0:0:0:0:
64,192,86037,1,0,0:0:0:0:
448,192,86037,1,0,0:0:0:0:
192,192,86320,1,0,0:0:0:0:
320,192,86603,1,0,0:0:0:0:
192,192,86886,1,0,0:0:0:0:
448,192,87169,1,0,0:0:0:0:
