osu file format v14

[General]
AudioFilename: audio.mp3
AudioLeadIn: 0
PreviewTime: 76268
Countdown: 0
SampleSet: Normal
StackLeniency: 0.7
Mode: 0
LetterboxInBreaks: 0
WidescreenStoryboard: 0

[Editor]
Bookmarks: 76268
DistanceSpacing: 2.2
BeatDivisor: 8
GridSize: 32
TimelineZoom: 2.2

[Metadata]
Title:Shelter
TitleUnicode:Shelter
Artist:MJQ-P Ft. Hatsune Miku
ArtistUnicode:MJQ-P Ft. Hatsune Miku
Creator:YelloJello
Version:Hope
Source:Porter Robinson & Madeon
Tags:MJQ-P Hatsune Miku vocaloid Porter robinson
BeatmapID:1319312
BeatmapSetID:625871

[Difficulty]
HPDrainRate:6
CircleSize:4
OverallDifficulty:7
ApproachRate:9
SliderMultiplier:2.4
SliderTickRate:1

[Events]
//Background and Video events
0,0,"Shelter Wallpaper.png",0,0
Video,0,"Shelter - Porter Madeon - MJQ-P Ft. Hatsune Miku (Short Cover).mp4"
//Break Periods
//Storyboard Layer 0 (Background)
//Storyboard Layer 1 (Fail)
//Storyboard Layer 2 (Pass)
//Storyboard Layer 3 (Foreground)
//Storyboard Layer 4 (Overlay)
//Storyboard Sound Samples

[TimingPoints]
68,600,4,1,0,100,1,0
9068,-133.333333333333,4,1,0,100,0,0
9668,-66.6666666666667,4,1,0,100,0,0
14091,-66.6666666666667,4,1,0,5,0,0
14168,-66.6666666666667,4,1,0,100,0,0
18818,-133.333333333333,4,1,0,100,0,0
19268,-66.6666666666667,4,1,0,100,0,1
19568,-66.6666666666667,4,1,0,100,0,1
21068,-133.333333333333,4,1,0,100,0,1
21291,-133.333333333333,4,1,0,5,0,1
21368,-66.6666666666667,4,1,0,100,0,1
21596,-66.6666666666667,4,1,0,5,0,1
21668,-66.6666666666667,4,1,0,100,0,1
22268,-133.333333333333,4,1,0,100,0,1
22718,-66.6666666666667,4,1,0,100,0,1
23468,-133.333333333333,4,1,0,100,0,1
24668,-66.6666666666667,4,1,0,100,0,1
28868,-133.333333333333,4,1,0,100,0,1
29468,-66.6666666666667,4,1,0,100,0,1
30668,-133.333333333333,4,1,0,100,0,1
30891,-133.333333333333,4,1,0,5,0,1
30968,-66.6666666666667,4,1,0,100,0,1
31192,-66.6666666666667,4,1,0,5,0,1
31268,-66.6666666666667,4,1,0,100,0,1
33068,-100,4,1,0,100,0,1
33289,-100,4,1,0,5,0,1
33368,-66.6666666666667,4,1,0,100,0,1
35468,-100,4,1,0,100,0,1
35696,-100,4,1,0,5,0,1
35768,-66.6666666666667,4,1,0,100,0,1
38468,-66.6666666666667,4,1,0,100,0,0
39068,-100,4,2,0,100,0,0
42668,-133.333333333333,4,2,0,100,0,0
43268,-100,4,2,0,100,0,0
66968,-80,4,2,0,100,0,0
76868,-66.6666666666667,4,1,0,100,0,1
88868,-66.6666666666667,4,1,0,100,0,1
90896,-66.6666666666667,4,1,0,5,0,1
90968,-66.6666666666667,4,1,0,100,0,1
109868,-133.333333333333,4,1,0,100,0,1
110468,-66.6666666666667,4,1,0,100,0,1
112568,-66.6666666666667,4,1,0,95,0,1
112868,-66.6666666666667,4,1,0,90,0,1
113018,-66.6666666666667,4,1,0,85,0,1
113168,-66.6666666666667,4,1,0,80,0,1
113468,-66.6666666666667,4,1,0,75,0,1
113618,-66.6666666666667,4,1,0,70,0,1
113768,-66.6666666666667,4,1,0,65,0,1
114068,-66.6666666666667,4,1,0,55,0,1
114218,-66.6666666666667,4,1,0,50,0,1
114518,-66.6666666666667,4,1,0,45,0,1
114668,-66.6666666666667,4,1,0,40,0,1
114818,-66.6666666666667,4,1,0,35,0,1
115118,-66.6666666666667,4,1,0,30,0,0

[Colours]
Combo1 : 240,240,240
Combo2 : 255,128,128
Combo3 : 0,128,0
Combo4 : 142,142,255

[HitObjects]
88,80,68,6,0,P|145:81|240:157,1,180
87,192,668,2,0,P|129:158|138:134,1,60
193,48,1118,1,0,0:0:0:0:
421,336,1568,5,0,0:0:0:0:
385,74,1868,1,0,0:0:0:0:
153,200,2168,1,0,0:0:0:0:
192,299,2468,6,0,P|231:257|244:138,1,180
112,220,3068,2,0,P|165:214|189:224,1,60
353,304,3518,2,0,L|463:366,2,120
193,216,4268,1,0,0:0:0:0:
415,156,4568,1,0,0:0:0:0:
309,75,4868,6,0,P|252:48|129:50,1,180
215,168,5468,2,0,P|209:114|219:90,1,60
249,15,5768,1,0,0:0:0:0:
358,130,5918,2,0,P|395:174|454:212,2,120
249,15,6668,1,0,0:0:0:0:
358,130,6818,1,0,0:0:0:0:
193,179,6968,6,0,P|129:172|85:138,1,120
193,179,7418,1,0,0:0:0:0:
193,179,7718,6,0,P|233:168|266:146,1,60
375,83,8018,1,0,0:0:0:0:
193,179,8318,2,0,P|212:219|238:241,1,60
366,343,8618,1,0,0:0:0:0:
193,179,8918,1,0,0:0:0:0:
294,96,9068,6,0,P|326:109|352:158,1,90.0000034332277
366,343,9518,1,0,0:0:0:0:
218,306,9668,6,0,P|181:321|122:328,2,90.0000034332277,2|0|0,3:0|0:0|0:0,0:0:0:0:
372,256,10118,1,0,0:0:0:0:
218,306,10268,1,0,0:0:0:0:
285,180,10418,2,0,P|331:176|371:147,1,90.0000034332277
366,152,10718,1,0,0:0:0:0:
482,214,10868,1,0,0:0:0:0:
463,102,11018,2,0,P|429:60|387:42,2,90.0000034332277
482,214,11468,5,0,0:0:0:0:
397,44,11618,1,0,0:0:0:0:
280,224,11768,6,0,P|220:217|143:125,1,180.000006866455,0|2,0:0|3:0,0:0:0:0:
280,224,12218,5,0,0:0:0:0:
138,127,12368,1,0,0:0:0:0:
185,281,12518,1,0,0:0:0:0:
254,130,12668,2,0,P|300:111|343:121,1,90.0000034332277
320,226,12968,6,0,L|305:171,1,45.0000017166138
281,50,13118,2,0,P|236:32|184:40,1,90.0000034332277
281,50,13418,1,0,0:0:0:0:
154,129,13568,1,0,0:0:0:0:
178,35,13718,1,0,0:0:0:0:
178,35,13793,1,0,0:0:0:0:
178,35,13868,6,0,B|129:42|104:37|104:37|77:63|100:133,1,135.000005149841
112,187,14168,2,0,P|157:226|161:266,1,90.0000034332277
237,202,14468,2,0,P|251:160|287:135,1,90.0000034332277,2|0,3:0|0:0,0:0:0:0:
237,202,14693,1,0,0:0:0:0:
237,202,14768,1,0,0:0:0:0:
107,139,14918,1,0,0:0:0:0:
156,202,15068,6,0,P|172:258|153:293,1,90.0000034332277
71,343,15368,1,0,0:0:0:0:
156,202,15518,1,0,0:0:0:0:
71,343,15668,1,0,0:0:0:0:
280,130,15818,2,0,P|326:122|358:81,1,90.0000034332277
289,58,16118,1,0,0:0:0:0:
314,252,16268,2,0,P|327:288|341:303,2,45.0000017166138
233,102,16568,6,0,P|172:94|81:164,1,180.000006866455
238,106,17018,1,0,0:0:0:0:
238,106,17093,1,0,0:0:0:0:
238,106,17168,1,0,0:0:0:0:
238,106,17318,6,0,P|277:85|322:80,1,90.0000034332277
81,161,17618,1,0,0:0:0:0:
81,161,17693,1,0,0:0:0:0:
81,161,17768,1,0,0:0:0:0:
81,161,17918,6,0,P|67:106|32:85,1,90.0000034332277
322,80,18218,1,0,0:0:0:0:
322,80,18293,1,0,0:0:0:0:
322,80,18368,1,0,0:0:0:0:
322,80,18518,6,0,P|361:112|376:157,1,90.0000034332277
41,88,18818,6,0,B|66:77|94:88|94:88|119:80|147:95,1,90.0000034332277,0|0,3:0|3:0,3:0:0:0:
224,102,19268,1,6,0:2:0:0:
279,117,19343,1,0,0:0:0:0:
330,154,19418,1,0,0:0:0:0:
339,212,19493,1,0,0:0:0:0:
377,262,19568,1,0,0:0:0:0:
442,264,19643,1,0,0:0:0:0:
491,234,19718,1,0,0:0:0:0:
507,184,19793,1,0,0:0:0:0:
512,102,19868,6,0,P|473:45|435:27,1,90.0000034332277,4|0,0:2|0:0,0:0:0:0:
266,71,20168,1,0,0:0:0:0:
153,260,20318,1,0,0:0:0:0:
90,79,20468,2,0,P|150:105|180:137,1,90.0000034332277,0|0,3:0|0:0,0:0:0:0:
282,264,20768,1,0,0:0:0:0:
266,71,20918,1,0,0:0:0:0:
153,260,21068,2,0,P|182:299|188:336,1,67.5000025749207,0|0,3:0|0:0,0:0:0:0:
186,316,21368,6,0,B|231:317|260:347|260:347|309:293,1,135.000005149841
295,307,21668,2,0,P|284:273|286:241,1,45.0000017166138,4|0,0:2|0:0,0:0:0:0:
296,210,21818,1,0,0:0:0:0:
337,168,21893,1,0,0:0:0:0:
362,118,21968,1,0,0:0:0:0:
360,63,22043,1,0,0:0:0:0:
312,34,22118,1,0,0:0:0:0:
268,65,22193,1,0,0:0:0:0:
201,145,22268,6,0,L|160:190,1,45.0000017166138,0|0,3:0|0:0,0:0:0:0:
56,296,22568,1,0,0:0:0:0:
63,168,22718,2,0,P|76:116|98:83,1,90.0000034332277
159,1,23018,1,0,0:0:0:0:
289,196,23168,1,2,0:3:0:0:
325,0,23318,1,0,0:0:0:0:
256,102,23468,6,0,B|244:141|199:134|190:171,1,90.0000034332277,2|0,0:3|0:0,0:0:0:0:
66,151,24068,5,4,0:2:0:0:
78,203,24143,1,0,0:0:0:0:
123,236,24218,1,0,0:0:0:0:
157,282,24293,1,0,0:0:0:0:
145,336,24368,1,0,0:0:0:0:
106,377,24443,1,0,0:0:0:0:
55,365,24518,1,0,0:0:0:0:
17,326,24593,1,0,0:0:0:0:
78,203,24668,6,0,P|92:185|162:184,1,90.0000034332277,0|0,3:0|0:0,0:0:0:0:
270,347,24968,2,0,P|319:321|341:280,1,90.0000034332277
434,203,25268,1,0,0:0:0:0:
242,347,25418,1,0,0:0:0:0:
431,156,25568,1,0,0:0:0:0:
283,345,25718,1,0,0:0:0:0:
416,112,25868,1,0,0:0:0:0:
322,333,26018,1,0,0:0:0:0:
390,73,26168,6,0,P|350:40|310:27,1,90.0000034332277,0|0,3:0|0:0,0:0:0:0:
361,214,26468,6,0,P|319:162|319:123,1,90.0000034332277,4|0,0:2|0:0,0:0:0:0:
362,253,26768,1,0,0:0:0:0:
362,253,26843,1,0,0:0:0:0:
362,253,26918,1,0,0:0:0:0:
234,87,27068,6,0,P|286:129|325:129,1,90.0000034332277,4|0,0:2|0:0,0:0:0:0:
151,214,27368,1,0,0:0:0:0:
151,214,27443,1,0,0:0:0:0:
151,214,27518,1,0,0:0:0:0:
361,170,27668,6,0,P|319:222|319:261,1,90.0000034332277,4|0,0:2|0:0,0:0:0:0:
234,87,27968,1,0,0:0:0:0:
234,87,28043,1,0,0:0:0:0:
234,87,28118,1,0,0:0:0:0:
278,297,28268,6,0,P|226:255|187:255,1,90.0000034332277,4|0,0:2|3:0,0:0:0:0:
361,170,28568,1,0,0:0:0:0:
361,170,28643,1,0,0:0:0:0:
361,170,28718,1,0,0:0:0:0:
197,186,28868,6,0,L|235:141,1,45.0000017166138,6|0,0:2|0:0,0:0:0:0:
262,107,29093,1,0,0:0:0:0:
311,82,29168,1,0,0:0:0:0:
362,99,29243,1,0,0:0:0:0:
385,152,29318,1,0,0:0:0:0:
428,188,29393,1,0,0:0:0:0:
489,266,29468,6,0,P|463:311|421:341,1,90.0000034332277,0|0,3:0|0:0,0:0:0:0:
345,384,29768,1,0,0:0:0:0:
259,289,29918,2,0,P|231:239|236:195,1,90.0000034332277
190,123,30218,2,0,P|239:113|287:129,1,90.0000034332277
386,185,30518,1,0,0:0:0:0:
239,194,30668,2,0,B|219:199|217:239|175:242,1,67.5000025749207,0|0,3:0|0:0,0:0:0:0:
190,238,30968,6,0,B|162:261|123:231|123:231|91:266|55:236,1,135.000005149841,0|0,3:0|0:0,0:0:0:0:
68,245,31268,2,0,P|37:229|31:218,1,45.0000017166138,4|0,0:2|0:0,0:0:0:0:
39,175,31418,1,0,0:0:0:0:
80,142,31493,1,0,0:0:0:0:
134,144,31568,1,0,0:0:0:0:
183,129,31643,1,0,0:0:0:0:
202,88,31718,1,0,0:0:0:0:
188,40,31793,1,0,0:0:0:0:
100,7,31868,6,0,P|48:21|26:63,1,90.0000034332277,0|0,3:0|0:0,0:0:0:0:
98,82,32168,2,0,P|121:128|162:147,1,90.0000034332277,0|0,3:0|0:0,0:0:0:0:
255,188,32468,1,0,0:0:0:0:
98,82,32618,1,0,0:0:0:0:
274,208,32768,1,0,0:0:0:0:
79,58,32918,1,0,0:0:0:0:
80,289,33068,6,0,B|119:290|127:241|171:236,1,90,0|0,3:0|0:0,0:0:0:0:
235,243,33368,2,0,P|225:196|175:167,1,90.0000034332277,0|0,3:0|0:0,0:0:0:0:
88,148,33668,6,0,P|100:115|121:94,1,45.0000017166138,4|0,0:2|0:0,0:0:0:0:
138,67,33818,1,0,0:0:0:0:
186,41,33893,1,0,0:0:0:0:
239,45,33968,1,0,0:0:0:0:
278,83,34043,1,0,0:0:0:0:
275,138,34118,1,0,0:0:0:0:
299,183,34193,1,0,0:0:0:0:
278,271,34268,6,0,P|324:273|373:238,1,90.0000034332277,0|0,3:0|0:0,0:0:0:0:
192,239,34568,2,0,P|155:207|147:157,1,90.0000034332277
267,187,34868,2,0,L|322:108,1,90.0000034332277
267,187,35168,1,0,0:0:0:0:
362,253,35318,1,0,0:0:0:0:
136,313,35468,2,0,B|122:273|96:279|74:233,1,90,0|0,3:0|0:0,0:0:0:0:
151,214,35768,6,0,P|193:162|193:123,1,90.0000034332277
136,313,36068,2,0,P|87:297|56:266,1,90.0000034332277,4|0,0:2|0:0,0:0:0:0:
197,27,36368,1,0,0:0:0:0:
197,27,36443,1,0,0:0:0:0:
197,27,36518,1,0,0:0:0:0:
356,73,36668,6,0,P|405:89|436:120,1,90.0000034332277,4|0,0:2|0:0,0:0:0:0:
79,268,36968,1,0,0:0:0:0:
79,268,37043,1,0,0:0:0:0:
79,268,37118,1,0,0:0:0:0:
375,292,37268,6,0,P|359:341|328:372,1,90.0000034332277,4|0,0:2|0:0,0:0:0:0:
356,73,37568,1,0,0:0:0:0:
356,73,37643,1,0,0:0:0:0:
356,73,37718,1,0,0:0:0:0:
137,92,37868,6,0,P|153:43|184:12,1,90.0000034332277
375,292,38168,1,0,0:0:0:0:
375,292,38243,1,0,0:0:0:0:
375,292,38318,1,0,0:0:0:0:
256,192,38468,5,2,0:2:0:0:
32,145,39068,6,0,P|86:142|151:99,1,120
201,33,39668,2,0,P|228:82|215:157,1,120
125,239,40268,2,0,P|177:258|255:244,1,120
338,210,40718,1,0,0:0:0:0:
260,144,40868,6,0,P|315:118|386:121,1,120
475,130,41318,2,0,L|439:56,1,60
407,5,41618,1,0,0:0:0:0:
305,2,41768,2,0,P|304:41|316:64,1,60
369,150,42068,2,0,P|320:176|246:164,1,120
158,128,42518,1,0,0:0:0:0:
63,89,42668,6,0,B|37:127|80:172|50:233,1,135.000005149841,0|0,3:0|0:0,0:0:0:0:
27,308,43268,6,0,L|83:339,1,60
177,296,43568,2,0,L|122:268,1,60
34,216,43868,1,0,0:0:0:0:
213,153,44018,1,0,0:0:0:0:
90,65,44168,1,0,0:0:0:0:
149,253,44318,1,0,0:0:0:0:
194,65,44468,6,0,B|223:56|274:72|316:51,1,120,0|0,3:0|0:0,0:0:0:0:
387,17,44918,1,0,0:0:0:0:
294,168,45068,1,0,0:0:0:0:
417,115,45218,2,0,P|444:148|452:189,1,60
376,180,45518,2,0,P|354:214|366:303,1,120
258,311,45968,2,0,L|197:254,1,60
113,236,46268,6,0,L|169:184,1,60,8|0,0:0|0:0,0:0:0:0:
226,124,46568,1,0,0:0:0:0:
375,261,46718,1,4,0:2:0:0:
284,251,46868,6,0,P|308:200|370:171,1,120,0|0,3:0|0:0,0:0:0:0:
469,152,47318,1,8,0:0:0:0:
250,61,47468,1,8,0:0:0:0:
245,129,47618,1,8,0:0:0:0:
479,116,47768,1,8,0:0:0:0:
236,96,47918,1,8,0:0:0:0:
369,123,48068,6,0,P|389:165|383:259,1,120,0|0,3:0|0:0,0:0:0:0:
341,326,48518,1,0,0:0:0:0:
256,223,48668,1,8,0:0:0:0:
143,231,48818,2,0,L|180:159,1,60
120,119,49118,2,0,P|170:100|234:125,1,120,0|0,3:0|0:0,0:0:0:0:
316,161,49568,6,0,L|314:237,1,60
383,115,49868,2,0,P|334:85|308:80,1,60,8|0,0:0|0:0,0:0:0:0:
224,58,50168,1,0,0:0:0:0:
289,176,50318,1,0,0:0:0:0:
146,176,50468,6,0,P|172:207|148:290,1,120,0|0,3:0|0:0,0:0:0:0:
102,234,50918,1,0,0:0:0:0:
89,119,51068,2,0,P|123:95|159:93,1,60,8|0,0:0|0:0,0:0:0:0:
249,82,51368,1,0,0:0:0:0:
229,252,51518,1,8,0:0:0:0:
294,205,51668,6,0,P|268:181|185:180,1,120,0|0,3:0|0:0,0:0:0:0:
87,235,52118,1,0,0:0:0:0:
218,310,52268,2,0,L|232:236,1,60,0|0,3:0|0:0,0:0:0:0:
253,137,52568,1,0,0:0:0:0:
346,135,52718,1,0,0:0:0:0:
415,207,52868,6,0,P|429:246|376:313,1,120,4|0,0:0|0:0,0:0:0:0:
271,347,53318,1,0,0:0:0:0:
174,273,53468,2,0,P|187:227|178:201,1,60
142,113,53768,1,0,0:0:0:0:
232,64,53918,1,0,0:0:0:0:
330,79,54068,6,0,P|375:106|389:127,1,60,0|0,3:0|0:0,0:0:0:0:
312,150,54368,1,0,0:0:0:0:
431,208,54518,1,0,0:0:0:0:
346,278,54668,2,0,P|297:284|274:272,1,60,8|0,0:0|0:0,0:0:0:0:
198,243,54968,1,0,0:0:0:0:
120,150,55118,1,0,0:0:0:0:
249,132,55268,6,0,P|229:101|255:24,1,120,0|0,3:0|0:0,0:0:0:0:
303,80,55718,1,0,0:0:0:0:
383,29,55868,1,8,0:0:0:0:
447,100,56018,1,0,0:0:0:0:
439,193,56168,1,0,0:0:0:0:
367,136,56318,1,0,0:0:0:0:
303,80,56468,6,0,P|266:62|226:59,1,60,0|0,3:0|0:0,0:0:0:0:
117,56,56768,2,0,P|85:92|75:125,1,60,4|0,0:0|0:0,0:0:0:0:
167,121,57068,2,0,P|199:157|209:190,1,60,2|0,0:0|0:0,0:0:0:0:
125,189,57368,2,0,P|93:225|83:258,1,60,0|0,3:0|0:0,0:0:0:0:
168,346,57668,6,0,P|226:295|238:241,1,120,0|0,3:0|0:0,0:0:0:0:
387,191,58118,2,0,P|361:141|285:105,1,120
297,189,58568,2,0,P|230:97|322:28,1,240
407,41,59318,1,0,0:0:0:0:
451,128,59468,2,0,L|393:183,1,60
318,204,59768,2,0,L|376:259,1,60
277,290,60068,6,0,L|190:202,1,120
105,205,60518,2,0,P|131:155|207:119,1,120
195,203,60968,2,0,P|262:111|170:42,1,240
254,193,61868,5,0,0:0:0:0:
335,141,62168,1,0,0:0:0:0:
354,56,62468,2,0,P|312:32|220:40,1,120
280,104,62918,2,0,P|238:128|146:120,1,120
202,60,63368,2,0,P|135:62|155:208,1,240
256,191,64268,5,0,0:0:0:0:
177,141,64568,1,0,0:0:0:0:
158,56,64868,2,0,P|200:32|292:40,1,120
232,104,65318,2,0,P|274:128|366:120,1,120
313,60,65768,2,0,P|380:62|360:208,1,240
279,241,66518,1,0,0:0:0:0:
142,183,66668,1,0,0:0:0:0:
256,141,66818,1,0,0:0:0:0:
172,268,66968,6,0,P|193:299|230:314,1,75
280,373,67268,2,0,P|308:338|313:291,1,75
270,252,67568,2,0,P|308:232|351:241,1,75
424,272,67868,1,0,0:0:0:0:
334,337,68018,1,0,0:0:0:0:
240,330,68168,2,0,P|200:301|193:257,1,75
120,246,68468,6,0,P|151:214|203:203,1,75
253,226,68768,2,0,P|248:172|221:140,1,75
130,118,69068,2,0,L|203:80,1,75
275,48,69368,2,0,P|315:45|316:239,1,300
249,267,70118,1,0,0:0:0:0:
180,174,70268,6,0,L|122:111,1,75
97,282,70568,2,0,L|178:257,1,75
347,204,70868,2,0,P|332:141|257:91,1,150
167,75,71318,1,0,0:0:0:0:
159,186,71468,2,0,P|99:176|61:85,1,150
60,17,71918,1,0,0:0:0:0:
188,57,72068,6,0,L|128:118,1,75
233,136,72368,2,0,P|280:148|299:181,1,75
234,205,72668,2,0,P|267:238|316:237,1,75
301,328,72968,2,0,P|373:213|267:109,1,300
143,115,73868,1,0,0:0:0:0:
178,26,74168,6,0,P|117:211|167:23,1,600
355,88,75668,5,0,3:0:0:0:
388,129,75743,1,0,3:0:0:0:
404,175,75818,1,0,3:0:0:0:
307,165,75968,2,0,P|269:189|228:184,1,75,0|0,3:0|0:0,0:0:0:0:
172,218,76268,6,0,P|172:162|245:115,1,150
236,41,76868,6,0,P|284:57|309:94,1,90.0000034332277,6|0,0:2|0:0,0:0:0:0:
325,137,77093,1,0,0:0:0:0:
309,188,77168,1,0,0:0:0:0:
320,240,77243,1,0,0:0:0:0:
368,265,77318,1,0,0:0:0:0:
410,226,77393,1,0,0:0:0:0:
479,129,77468,6,0,P|479:77|446:45,1,90.0000034332277
380,1,77768,1,0,0:0:0:0:
362,186,77918,1,0,0:0:0:0:
257,57,78068,2,0,P|220:90|202:141,1,90.0000034332277
181,217,78368,1,0,0:0:0:0:
257,57,78518,1,0,0:0:0:0:
90,154,78668,1,0,3:0:0:0:
291,192,78968,2,0,P|327:157|332:107,1,90.0000034332277
325,34,79268,5,4,0:2:0:0:
286,75,79343,1,0,0:0:0:0:
236,96,79418,1,0,0:0:0:0:
188,71,79493,1,0,0:0:0:0:
143,97,79568,1,0,0:0:0:0:
117,145,79643,1,0,0:0:0:0:
131,195,79718,1,0,0:0:0:0:
182,201,79793,1,0,0:0:0:0:
292,224,79868,6,0,P|337:253|358:292,1,90.0000034332277
292,224,80168,1,0,0:0:0:0:
111,143,80318,1,0,0:0:0:0:
294,114,80468,2,0,P|339:85|360:46,1,90.0000034332277
421,130,80768,2,0,P|376:159|355:198,1,90.0000034332277
233,189,81068,2,0,L|251:251,1,45.0000017166138
154,203,81218,2,0,P|125:156|134:107,1,90.0000034332277
165,39,81518,1,0,0:0:0:0:
261,114,81668,6,0,P|302:130|348:119,1,90.0000034332277,4|0,0:2|0:0,0:0:0:0:
385,96,81893,1,0,0:0:0:0:
419,57,81968,1,0,0:0:0:0:
412,10,82043,1,0,0:0:0:0:
368,0,82118,1,0,0:0:0:0:
332,41,82193,1,0,0:0:0:0:
289,126,82268,6,0,P|274:173|233:205,1,90.0000034332277
122,236,82568,1,0,0:0:0:0:
163,86,82718,1,0,0:0:0:0:
262,221,82868,2,0,P|305:274|335:283,1,90.0000034332277
323,280,83168,1,0,0:0:0:0:
463,210,83318,1,0,0:0:0:0:
262,221,83468,2,0,L|327:286,1,90.0000034332277
174,218,83768,6,0,P|197:163|239:138,1,90.0000034332277
416,128,84068,2,0,P|352:96|320:64,1,90.0000034332277,4|0,0:2|0:0,0:0:0:0:
221,146,84368,1,0,0:0:0:0:
221,146,84443,1,0,0:0:0:0:
221,146,84518,1,0,0:0:0:0:
320,352,84668,6,0,P|352:288|384:256,1,90.0000034332277,4|0,0:2|0:0,0:0:0:0:
416,128,84968,1,0,0:0:0:0:
416,128,85043,1,0,0:0:0:0:
416,128,85118,1,0,0:0:0:0:
173,299,85268,6,0,P|137:273|96:256,1,90.0000034332277,4|0,0:2|0:0,0:0:0:0:
363,274,85568,1,0,0:0:0:0:
363,274,85643,1,0,0:0:0:0:
363,274,85718,1,0,0:0:0:0:
148,109,85868,6,0,P|174:73|192:32,1,90.0000034332277,4|0,0:2|0:0,0:0:0:0:
96,256,86168,1,0,0:0:0:0:
96,256,86243,1,0,0:0:0:0:
96,256,86318,1,0,0:0:0:0:
206,277,86468,6,0,P|206:242|194:212,1,45.0000017166138,6|0,0:2|0:0,0:0:0:0:
194,199,86618,1,0,0:0:0:0:
169,152,86693,1,0,0:0:0:0:
187,104,86768,1,0,0:0:0:0:
236,111,86843,1,0,0:0:0:0:
285,98,86918,1,0,0:0:0:0:
320,60,86993,1,0,0:0:0:0:
388,127,87068,6,0,P|342:156|329:200,1,90.0000034332277
411,199,87368,2,0,P|439:246|475:270,1,90.0000034332277
423,335,87668,2,0,L|334:274,1,90.0000034332277
259,229,87968,1,0,0:0:0:0:
259,229,88043,1,0,0:0:0:0:
259,229,88118,1,0,0:0:0:0:
457,243,88268,1,0,3:0:0:0:
336,57,88568,6,0,P|326:83|271:117,1,90.0000034332277
233,186,88868,2,0,L|182:141,1,45.0000017166138,4|0,0:2|0:0,0:0:0:0:
161,119,89018,1,0,0:0:0:0:
114,114,89093,1,0,0:0:0:0:
72,143,89168,1,0,0:0:0:0:
67,196,89243,1,0,0:0:0:0:
108,232,89318,1,0,0:0:0:0:
155,213,89393,1,0,0:0:0:0:
233,186,89468,6,0,P|207:140|209:98,1,90.0000034332277
285,129,89768,2,0,P|311:175|309:217,1,90.0000034332277
239,314,90068,1,0,0:0:0:0:
161,194,90218,1,0,0:0:0:0:
161,194,90293,1,0,0:0:0:0:
161,194,90368,1,0,0:0:0:0:
327,220,90518,1,0,0:0:0:0:
284,157,90668,2,0,P|347:143|401:190,1,135.000005149841
398,184,90968,6,0,P|412:138|402:77,1,90.0000034332277
380,3,91268,1,4,0:2:0:0:
367,56,91343,1,0,0:0:0:0:
337,101,91418,1,0,0:0:0:0:
358,152,91493,1,0,0:0:0:0:
398,184,91568,1,0,0:0:0:0:
447,160,91643,1,0,0:0:0:0:
495,173,91718,1,0,0:0:0:0:
511,225,91793,1,0,0:0:0:0:
484,310,91868,6,0,P|444:279|444:234,1,90.0000034332277
358,152,92168,2,0,P|357:212|328:230,1,90.0000034332277
244,275,92468,1,0,0:0:0:0:
164,99,92618,1,0,0:0:0:0:
204,257,92768,1,0,0:0:0:0:
222,65,92918,1,0,0:0:0:0:
172,201,93068,1,0,0:0:0:0:
322,79,93218,1,0,0:0:0:0:
206,125,93368,2,0,L|265:146,1,45.0000017166138
387,192,93518,1,0,0:0:0:0:
277,144,93668,6,0,P|273:199|296:243,1,90.0000034332277,4|0,0:2|0:0,0:0:0:0:
432,90,93968,1,0,0:0:0:0:
432,90,94043,1,0,0:0:0:0:
432,90,94118,1,0,0:0:0:0:
195,103,94268,6,0,P|191:158|214:202,1,90.0000034332277,4|0,0:2|0:0,0:0:0:0:
350,49,94568,1,0,0:0:0:0:
350,49,94643,1,0,0:0:0:0:
350,49,94718,1,0,0:0:0:0:
131,172,94868,6,0,P|127:227|150:271,1,90.0000034332277,4|0,0:2|0:0,0:0:0:0:
286,118,95168,1,0,0:0:0:0:
286,118,95243,1,0,0:0:0:0:
286,118,95318,1,0,0:0:0:0:
361,243,95468,5,0,3:0:0:0:
343,290,95543,1,0,3:0:0:0:
300,316,95618,1,0,3:0:0:0:
182,309,95768,2,0,L|220:255,1,45.0000017166138,0|0,3:0|3:0,0:0:0:0:
168,144,95918,2,0,L|130:195,1,45.0000017166138,0|0,3:0|3:0,0:0:0:0:
285,197,96068,6,0,P|305:165|358:135,1,90.0000034332277,6|0,0:2|0:0,0:0:0:0:
390,109,96293,1,0,0:0:0:0:
430,77,96368,1,0,0:0:0:0:
434,30,96443,1,0,0:0:0:0:
389,7,96518,1,0,0:0:0:0:
352,42,96593,1,0,0:0:0:0:
240,27,96668,6,0,P|262:81|259:124,1,90.0000034332277
346,201,96968,2,0,P|279:182|241:192,1,90.0000034332277
208,266,97268,2,0,P|176:221|171:174,1,90.0000034332277
266,30,97568,1,0,0:0:0:0:
436,210,97718,1,0,0:0:0:0:
160,340,97868,2,0,P|122:306|117:258,1,90.0000034332277
261,217,98168,6,0,L|185:276,1,90.0000034332277
325,169,98468,1,4,0:2:0:0:
301,223,98543,1,0,0:0:0:0:
315,272,98618,1,0,0:0:0:0:
351,315,98693,1,0,0:0:0:0:
405,298,98768,1,0,0:0:0:0:
441,254,98843,1,0,0:0:0:0:
448,199,98918,1,0,0:0:0:0:
489,164,98993,1,0,0:0:0:0:
386,100,99068,6,0,P|323:72|286:72,1,90.0000034332277
325,155,99368,2,0,P|276:196|239:214,1,90.0000034332277
120,251,99668,1,0,0:0:0:0:
325,155,99818,1,0,0:0:0:0:
84,274,99968,1,0,0:0:0:0:
359,133,100118,1,0,0:0:0:0:
49,300,100268,2,0,P|99:327|143:314,1,90.0000034332277
390,106,100568,2,0,P|400:157|368:194,1,90.0000034332277
292,244,100868,5,4,0:2:0:0:
235,263,100943,1,0,0:0:0:0:
177,247,101018,1,0,0:0:0:0:
123,272,101093,1,0,0:0:0:0:
116,330,101168,1,0,0:0:0:0:
157,373,101243,1,0,0:0:0:0:
209,339,101318,1,0,0:0:0:0:
229,280,101393,1,0,0:0:0:0:
247,171,101468,6,0,P|283:120|317:107,1,90.0000034332277
324,184,101768,2,0,P|370:214|418:212,1,90.0000034332277
403,215,102068,1,0,0:0:0:0:
186,290,102218,1,0,0:0:0:0:
324,184,102368,1,0,0:0:0:0:
275,321,102518,1,0,0:0:0:0:
231,182,102668,1,0,0:0:0:0:
375,316,102818,1,0,0:0:0:0:
231,182,102968,6,0,P|256:118|256:81,1,90.0000034332277
135,104,103268,6,0,P|160:64|223:61,1,90.0000034332277,4|0,0:2|0:0,0:0:0:0:
190,276,103568,1,0,0:0:0:0:
190,276,103643,1,0,0:0:0:0:
190,276,103718,1,0,0:0:0:0:
383,260,103868,6,0,P|352:319|314:320,1,90.0000034332277,4|0,0:2|0:0,0:0:0:0:
109,232,104168,1,0,0:0:0:0:
109,232,104243,1,0,0:0:0:0:
109,232,104318,1,0,0:0:0:0:
188,319,104468,6,0,P|129:288|128:250,1,90.0000034332277,4|0,0:2|0:0,0:0:0:0:
410,132,104768,1,0,0:0:0:0:
410,132,104843,1,0,0:0:0:0:
410,132,104918,1,0,0:0:0:0:
347,83,105068,6,0,P|406:114|407:152,1,90.0000034332277,4|0,0:2|0:0,0:0:0:0:
125,126,105368,1,0,0:0:0:0:
125,126,105443,1,0,0:0:0:0:
125,126,105518,1,0,0:0:0:0:
213,232,105668,6,0,L|256:192,1,45.0000017166138,4|0,0:2|0:0,0:0:0:0:
284,163,105818,1,0,0:0:0:0:
334,135,105893,1,0,0:0:0:0:
390,145,105968,1,0,0:0:0:0:
432,107,106043,1,0,0:0:0:0:
416,54,106118,1,0,0:0:0:0:
360,43,106193,1,0,0:0:0:0:
245,25,106268,6,0,P|252:73|207:112,1,90.0000034332277
175,50,106568,2,0,P|116:52|88:84,1,90.0000034332277
245,25,106868,1,0,0:0:0:0:
94,71,107018,1,0,0:0:0:0:
245,190,107168,1,0,0:0:0:0:
190,98,107318,1,0,0:0:0:0:
125,293,107468,1,0,3:0:0:0:
326,245,107768,6,0,P|353:187|345:146,1,90.0000034332277
333,79,108068,2,0,L|281:35,1,45.0000017166138,4|0,0:2|0:0,0:0:0:0:
255,13,108218,1,0,0:0:0:0:
200,8,108293,1,0,0:0:0:0:
152,35,108368,1,0,0:0:0:0:
143,88,108443,1,0,0:0:0:0:
183,124,108518,1,0,0:0:0:0:
207,172,108593,1,0,0:0:0:0:
134,222,108668,6,0,P|123:173|68:153,1,90.0000034332277
62,217,108968,2,0,P|78:276|110:297,1,90.0000034332277
188,354,109268,1,0,0:0:0:0:
62,217,109418,1,0,0:0:0:0:
265,290,109568,1,0,0:0:0:0:
62,217,109718,1,0,0:0:0:0:
289,192,109868,6,0,P|261:141|269:98,1,90.0000034332277
380,112,110468,2,0,P|401:146|398:202,1,90.0000034332277
352,285,110768,1,0,0:0:0:0:
352,285,110843,1,0,0:0:0:0:
352,285,110918,1,0,0:0:0:0:
234,333,111068,2,0,P|175:353|138:351,1,90.0000034332277
181,275,111368,1,0,0:0:0:0:
147,352,111518,1,0,0:0:0:0:
224,126,111668,6,0,P|283:127|319:99,1,90.0000034332277
393,15,111968,1,0,0:0:0:0:
393,15,112043,1,0,0:0:0:0:
393,15,112118,1,0,0:0:0:0:
358,200,112268,2,0,P|295:230|270:257,1,90.0000034332277
153,333,112568,6,0,P|111:284|105:247,1,90.0000034332277
95,162,112868,1,0,0:0:0:0:
380,242,113018,1,0,0:0:0:0:
385,318,113168,2,0,P|324:293|308:257,1,90.0000034332277
254,101,113468,1,0,0:0:0:0:
59,315,113618,1,0,0:0:0:0:
151,316,113768,2,0,P|133:266|104:235,1,90.0000034332277
0,162,114068,5,0,0:0:0:0:
286,38,114218,1,0,0:0:0:0:
479,162,114518,1,0,0:0:0:0:
122,64,114668,1,0,0:0:0:0:
255,166,114818,1,0,0:0:0:0:
215,237,115118,6,0,P|178:184|179:153,1,90.0000034332277
