osu file format v14

[General]
AudioFilename: audio.mp3
AudioLeadIn: 0
PreviewTime: 76250
Countdown: 0
SampleSet: None
StackLeniency: 0.7
Mode: 0
LetterboxInBreaks: 0
WidescreenStoryboard: 1

[Editor]
Bookmarks: 50,9650,19250,28850,38450,43250,57650,76250
DistanceSpacing: 2.2
BeatDivisor: 8
GridSize: 4
TimelineZoom: 1.4

[Metadata]
Title:Shelter
TitleUnicode:Shelter
Artist:MJQ-P Ft. Hatsune Miku
ArtistUnicode:MJQ-P Ft. Hatsune Miku
Creator:YelloJello
Version:Hope V2
Source:Porter Robinson & Madeon
Tags:MJQ-P Hatsune Miku vocaloid Porter Robinson
BeatmapID:1519674
BeatmapSetID:625871

[Difficulty]
HPDrainRate:5.5
CircleSize:4
OverallDifficulty:7
ApproachRate:9.2
SliderMultiplier:2
SliderTickRate:2

[Events]
//Background and Video events
0,0,"Shelter Wallpaper.png",0,0
Video,0,"Shelter - Porter Madeon - MJQ-P Ft. Hatsune Miku (Short Cover).mp4"
//Break Periods
2,38650,42050
//Storyboard Layer 0 (Background)
//Storyboard Layer 1 (Fail)
//Storyboard Layer 2 (Pass)
//Storyboard Layer 3 (Foreground)
//Storyboard Sound Samples

[TimingPoints]
50,600,4,2,2,25,1,0
125,-100,4,2,2,5,0,0
650,-166.666666666667,4,2,2,25,0,0
725,-166.666666666667,4,2,2,5,0,0
1100,-166.666666666667,4,2,2,15,0,0
2150,-200,4,2,2,5,0,0
2450,-100,4,2,2,25,0,0
2525,-100,4,2,2,5,0,0
3050,-166.666666666667,4,2,2,25,0,0
3125,-166.666666666667,4,2,2,5,0,0
3500,-166.666666666667,4,2,2,15,0,0
4250,-200,4,2,2,5,0,0
4850,-100,4,2,2,25,0,0
4925,-100,4,2,2,5,0,0
5450,-166.666666666667,4,2,2,25,0,0
5525,-166.666666666667,4,2,2,5,0,0
5900,-166.666666666667,4,2,2,15,0,0
6950,-200,4,2,2,5,0,0
7250,-100,4,2,1,10,0,0
9050,-173.913043478261,4,2,1,30,0,0
9125,-173.913043478261,4,2,2,5,0,0
9650,-100,4,2,1,30,0,0
10250,-172.413793103448,4,2,1,30,0,0
10850,-100,4,2,1,30,0,0
11750,-172.413793103448,4,2,1,30,0,0
12050,-100,4,2,1,30,0,0
12650,-172.413793103448,4,2,1,30,0,0
13250,-100,4,2,1,30,0,0
13850,-172.413793103448,4,2,1,30,0,0
14450,-100,4,2,1,30,0,0
15050,-172.413793103448,4,2,1,30,0,0
15650,-100,4,2,1,30,0,0
16850,-100,4,2,1,20,0,0
18650,-172.413793103448,4,2,1,30,0,0
19250,-74.0740740740741,4,2,1,60,0,1
21050,-74.0740740740741,4,2,1,60,0,0
21350,-133.333333333333,4,2,1,30,0,0
21650,-74.0740740740741,4,2,1,60,0,1
23450,-133.333333333333,4,2,1,30,0,0
24050,-74.0740740740741,4,2,1,60,0,1
28848,-74.0740740740741,4,2,1,60,0,1
30650,-74.0740740740741,4,2,1,60,0,0
30950,-133.333333333333,4,2,1,30,0,0
31250,-74.0740740740741,4,2,1,60,0,1
33050,-133.333333333333,4,2,1,30,0,0
33650,-74.0740740740741,4,2,1,60,0,1
37850,-200,4,2,1,30,0,0
43250,-83.3333333333333,4,2,1,45,0,0
43850,-166.666666666667,4,2,1,45,0,0
44300,-83.3333333333333,4,2,1,45,0,0
45200,-166.666666666667,4,2,1,45,0,0
46250,-83.3333333333333,4,2,1,45,0,0
47450,-83.3333333333333,4,2,1,70,0,0
47975,-83.3333333333333,4,2,1,5,0,0
48050,-83.3333333333333,4,2,1,70,0,0
48650,-166.666666666667,4,2,1,70,0,0
49250,-83.3333333333333,4,2,1,70,0,0
50150,-166.666666666667,4,2,1,70,0,0
50450,-83.3333333333333,4,2,1,70,0,0
52850,-166.666666666667,4,2,1,70,0,0
53600,-83.3333333333333,4,2,1,70,0,0
53900,-166.666666666667,4,2,1,70,0,0
58775,-166.666666666667,4,2,1,5,0,0
58850,-166.666666666667,4,2,1,70,0,0
59975,-166.666666666667,4,2,1,5,0,0
60050,-166.666666666667,4,2,1,70,0,0
61175,-166.666666666667,4,2,1,5,0,0
61250,-166.666666666667,4,2,1,70,0,0
62375,-166.666666666667,4,2,1,5,0,0
62450,-166.666666666667,4,2,1,70,0,0
63575,-166.666666666667,4,2,1,5,0,0
63650,-166.666666666667,4,2,1,70,0,0
65975,-166.666666666667,4,2,1,5,0,0
66050,-166.666666666667,4,2,1,70,0,0
67175,-166.666666666667,4,2,1,5,0,0
67250,-95.2380952380952,4,2,1,35,0,0

[Colours]
Combo1 : 240,240,240
Combo2 : 255,128,128
Combo3 : 0,128,0
Combo4 : 142,142,255

[HitObjects]
387,60,50,6,0,P|336:111|336:43,1,175,2|0,3:0|0:0,0:0:0:0:
469,6,650,2,0,L|469:84,1,74.9999977111817,2|0,3:0|0:0,0:0:0:0:
470,130,1100,1,2,0:0:0:0:
304,232,2150,6,0,L|257:232,1,37.5
228,196,2450,6,0,P|191:133|257:151,1,175,2|0,3:0|0:0,0:0:0:0:
91,216,3050,2,0,L|91:129,1,74.9999977111817,2|0,3:0|0:0,0:0:0:0:
92,92,3500,1,2,0:0:0:0:
393,135,4250,6,0,L|393:223,1,87.5
300,134,4850,6,0,P|337:71|271:89,1,175,2|0,3:0|0:0,0:0:0:0:
196,147,5450,2,0,L|196:52,1,75,2|0,3:0|0:0,0:0:0:0:
197,23,5900,1,2,0:0:0:0:
92,265,6950,6,0,L|140:265,1,37.5
176,264,7250,5,0,0:0:0:0:
22,202,7400,2,0,L|22:103,1,100
176,264,7850,5,0,0:0:0:0:
22,202,8000,2,0,L|22:103,1,100
176,264,8450,5,0,0:0:0:0:
22,202,8600,2,0,L|22:103,1,100
176,264,9050,6,0,L|176:373,1,100.62500191927,4|0,3:0|0:0,0:0:0:0:
306,335,9650,6,0,P|324:307|331:273,1,50
270,165,9950,2,0,P|259:196|261:231,1,50
397,200,10250,2,0,L|494:200,1,87.0000026550294,4|0,3:0|0:0,0:0:0:0:
511,112,10850,6,0,P|503:79|484:50,1,50
344,13,11150,2,0,P|349:45|369:74,1,50
406,126,11450,1,0,0:0:0:0:
366,136,11600,1,0,0:0:0:0:
285,205,11750,2,0,L|277:153,1,43.5000013275147
237,62,12050,6,0,P|204:70|175:89,1,50
138,229,12350,2,0,P|170:224|199:204,1,50
40,145,12650,2,0,L|55:240,1,87.0000026550294,4|0,3:0|0:0,0:0:0:0:
86,382,13250,6,0,P|119:374|148:355,1,50
185,215,13550,2,0,P|153:220|124:240,1,50
282,220,13850,2,0,L|268:148,1,58.0000017700196,4|0,3:0|0:0,0:0:0:0:
363,53,14450,6,0,P|392:69|415:95,1,50
414,240,14750,2,0,P|384:226|361:200,1,50
511,309,15050,2,0,L|415:326,1,87.0000026550294,4|0,3:0|0:0,0:0:0:0:
353,373,15650,6,0,P|320:382|285:380,1,50
231,319,15950,2,0,P|261:307|296:310,1,50
173,373,16250,1,0,0:0:0:0:
133,383,16400,1,0,0:0:0:0:
51,319,16550,1,4,3:0:0:0:
91,309,16700,1,0,0:0:0:0:
121,183,16850,5,0,0:0:0:0:
228,262,17000,2,0,P|250:221|251:149,1,100
121,183,17450,5,0,0:0:0:0:
245,235,17600,2,0,P|255:189|237:119,1,100
121,183,18050,5,0,0:0:0:0:
254,200,18200,2,0,P|252:153|217:90,1,100
121,183,18650,5,4,3:0:0:0:
121,183,18800,2,0,L|113:119,1,58.0000017700196,8|0,3:0|0:0,0:0:0:0:
98,0,19250,5,2,0:0:0:0:
98,0,19325,1,0,0:0:0:0:
98,0,19400,1,0,0:0:0:0:
98,0,19475,1,0,0:0:0:0:
67,14,19550,1,0,0:0:0:0:
42,36,19625,1,0,0:0:0:0:
25,65,19700,1,0,0:0:0:0:
17,98,19775,1,0,0:0:0:0:
20,132,19850,6,0,P|36:181|35:203,1,67.5000002574921,8|0,3:0|0:0,0:0:0:0:
110,245,20150,2,0,P|112:278|125:309,1,67.5000002574921
240,336,20450,1,0,0:0:0:0:
195,161,20600,1,0,0:0:0:0:
110,245,20750,1,0,0:0:0:0:
300,228,20900,1,0,0:0:0:0:
196,65,21050,5,2,0:0:0:0:
328,147,21350,2,0,L|378:147,1,37.5000014305115
482,151,21650,5,2,0:0:0:0:
482,151,21725,1,0,0:0:0:0:
482,151,21800,1,0,0:0:0:0:
482,151,21875,1,0,0:0:0:0:
475,118,21950,1,0,0:0:0:0:
458,89,22025,1,0,0:0:0:0:
432,66,22100,1,0,0:0:0:0:
401,53,22175,1,0,0:0:0:0:
368,51,22250,6,0,P|322:49|280:60,1,67.5000002574921
193,113,22550,1,0,0:0:0:0:
339,127,22700,1,0,0:0:0:0:
121,80,22850,2,0,P|116:123|127:155,1,67.5000002574921
183,260,23150,1,0,0:0:0:0:
325,270,23300,1,0,0:0:0:0:
436,173,23450,6,0,L|436:252,1,75.0000028610231
313,354,24050,5,2,0:0:0:0:
313,354,24125,1,0,0:0:0:0:
313,354,24200,1,0,0:0:0:0:
313,354,24275,1,0,0:0:0:0:
282,339,24350,1,0,0:0:0:0:
260,314,24425,1,0,0:0:0:0:
249,282,24500,1,0,0:0:0:0:
251,248,24575,1,0,0:0:0:0:
266,218,24650,6,0,P|286:183|287:152,1,67.5000002574921,8|0,3:0|0:0,0:0:0:0:
148,37,24950,2,0,P|138:76|145:106,1,67.5000002574921
211,168,25250,1,0,0:0:0:0:
268,27,25400,1,0,0:0:0:0:
357,145,25550,1,0,0:0:0:0:
143,102,25700,1,0,0:0:0:0:
357,145,25850,5,0,0:0:0:0:
190,238,26000,1,0,0:0:0:0:
268,27,26150,2,0,P|300:15|336:16,1,67.5000002574921
154,166,26450,5,2,0:0:0:0:
154,166,26525,1,0,0:0:0:0:
154,166,26600,2,0,P|142:134|143:98,1,67.5000002574921
268,27,26900,1,0,0:0:0:0:
363,152,27050,5,2,0:0:0:0:
363,152,27125,1,0,0:0:0:0:
363,152,27200,2,0,P|375:184|374:220,1,67.5000002574921
268,357,27500,1,0,0:0:0:0:
161,216,27650,5,2,0:0:0:0:
161,216,27725,1,0,0:0:0:0:
161,216,27800,2,0,P|161:183|173:152,1,67.5000002574921
268,27,28100,1,0,0:0:0:0:
252,214,28250,5,2,0:0:0:0:
252,214,28325,1,0,0:0:0:0:
252,214,28400,2,0,P|248:248|233:278,1,67.5000002574921
205,73,28700,1,0,0:0:0:0:
341,97,28850,5,2,0:0:0:0:
341,97,28925,1,0,0:0:0:0:
341,97,29000,1,0,0:0:0:0:
341,97,29076,1,0,0:0:0:0:
356,125,29151,1,0,0:0:0:0:
362,159,29226,1,0,0:0:0:0:
357,191,29301,1,0,0:0:0:0:
341,222,29375,1,0,0:0:0:0:
317,244,29450,6,0,P|291:261|244:269,1,67.5000002574921
75,225,29750,2,0,P|101:208|148:200,1,67.5000002574921
249,201,30050,1,0,0:0:0:0:
138,276,30200,1,0,0:0:0:0:
196,139,30350,1,0,0:0:0:0:
199,329,30500,1,0,0:0:0:0:
101,128,30650,5,2,0:0:0:0:
351,84,30950,2,0,L|351:136,1,37.5000014305115
369,262,31250,5,2,0:0:0:0:
369,262,31325,1,0,0:0:0:0:
369,262,31400,1,0,0:0:0:0:
369,262,31475,1,0,0:0:0:0:
342,282,31550,1,0,0:0:0:0:
311,296,31625,1,0,0:0:0:0:
278,303,31700,1,0,0:0:0:0:
244,303,31775,1,0,0:0:0:0:
211,296,31850,6,0,P|171:279|136:279,1,67.5000002574921
12,341,32150,2,0,P|51:357|86:357,1,67.5000002574921
160,189,32450,1,0,0:0:0:0:
160,354,32600,1,0,0:0:0:0:
72,274,32750,1,0,0:0:0:0:
278,303,32900,1,0,0:0:0:0:
279,150,33050,6,0,L|279:225,1,75.0000028610231
160,56,33650,5,2,0:0:0:0:
160,56,33725,1,0,0:0:0:0:
160,56,33800,1,0,0:0:0:0:
160,56,33875,1,0,0:0:0:0:
130,72,33950,1,0,0:0:0:0:
108,97,34025,1,0,0:0:0:0:
93,127,34100,1,0,0:0:0:0:
88,160,34175,1,0,0:0:0:0:
93,194,34250,6,0,P|107:229|106:269,1,67.5000002574921
191,173,34550,2,0,P|214:143|249:124,1,67.5000002574921
330,99,34850,1,0,0:0:0:0:
379,210,35000,1,0,0:0:0:0:
264,203,35150,1,0,0:0:0:0:
444,115,35300,1,0,0:0:0:0:
448,316,35450,5,0,0:0:0:0:
247,316,35600,1,0,0:0:0:0:
247,115,35750,2,0,P|247:72|267:35,1,67.5000002574921
171,170,36050,5,2,0:0:0:0:
171,170,36125,1,0,0:0:0:0:
171,170,36200,2,0,P|128:190|93:188,1,67.5000002574921
127,66,36500,1,0,0:0:0:0:
260,226,36650,5,2,0:0:0:0:
260,226,36725,1,0,0:0:0:0:
260,226,36800,2,0,P|268:272|257:306,1,67.5000002574921
170,260,37100,1,0,0:0:0:0:
280,106,37250,5,2,0:0:0:0:
280,106,37325,1,0,0:0:0:0:
280,106,37400,2,0,P|323:85|358:87,1,67.5000002574921
344,259,37700,1,0,0:0:0:0:
200,133,37850,6,0,P|194:97|223:34,1,100,0|2,0:0|0:0,0:0:0:0:
157,384,42650,5,0,0:0:0:0:
355,262,42800,2,0,L|355:326,1,62.5
106,232,43250,6,0,P|100:199|107:165,1,59.9999981689454,2|0,0:0|0:0,0:0:0:0:
221,282,43550,2,0,P|189:290|155:283,1,59.9999981689454
256,160,43850,2,0,P|266:193|260:225,1,59.9999981689454
187,104,44300,1,0,0:0:0:0:
188,10,44450,5,0,0:0:0:0:
233,4,44600,1,0,0:0:0:0:
111,123,44750,1,0,0:0:0:0:
66,129,44900,1,0,0:0:0:0:
77,50,45050,1,0,0:0:0:0:
100,210,45200,2,0,L|110:272,1,59.9999981689454
184,329,45650,5,0,0:0:0:0:
201,287,45800,1,0,0:0:0:0:
47,334,45950,5,0,0:0:0:0:
30,292,46100,1,0,0:0:0:0:
100,210,46250,2,0,L|163:200,1,59.9999981689454
226,40,46550,1,0,0:0:0:0:
226,40,46700,2,0,L|216:99,1,59.9999981689454,0|0,3:0|3:0,0:0:0:0:
226,40,47150,5,0,0:0:0:0:
226,40,47300,1,0,0:0:0:0:
322,135,47450,1,10,3:0:0:0:
128,109,47600,1,0,0:0:0:0:
339,38,47750,1,10,3:0:0:0:
293,258,47900,2,0,L|282:295,1,29.9999990844727
192,379,48050,6,0,P|168:353|165:249,1,119.999996337891,2|0,0:0|0:0,0:0:0:0:
184,175,48500,1,0,0:0:0:0:
89,204,48650,2,0,L|33:226,1,59.9999981689454
105,107,49100,1,0,0:0:0:0:
105,107,49250,6,0,P|110:53|102:22,1,59.9999981689454
12,11,49550,1,0,0:0:0:0:
17,55,49700,1,0,0:0:0:0:
196,137,49850,1,0,0:0:0:0:
191,93,50000,1,0,0:0:0:0:
299,122,50150,2,0,L|352:110,1,29.9999990844727
420,40,50450,6,0,P|444:99|428:173,1,119.999996337891
298,121,50900,2,0,P|292:180|316:235,1,119.999996337891
450,313,51350,2,0,L|374:323,1,59.9999981689454
274,384,51650,6,0,P|210:391|143:357,1,119.999996337891
243,251,52100,2,0,P|298:229|357:238,1,119.999996337891
450,313,52550,1,0,0:0:0:0:
445,269,52700,1,0,0:0:0:0:
504,80,52850,6,0,L|507:146,1,59.9999981689454
509,225,53300,1,0,0:0:0:0:
385,151,53450,1,0,0:0:0:0:
385,151,53600,2,0,P|351:107|345:77,1,59.9999981689454
250,175,53900,6,0,P|216:197|170:197,1,59.9999981689454
97,157,54350,1,0,0:0:0:0:
151,59,54500,2,0,P|181:86|192:130,1,59.9999981689454
97,157,54950,1,0,0:0:0:0:
26,99,55100,2,0,P|40:73|64:54,1,59.9999981689454
97,157,55550,5,0,0:0:0:0:
102,201,55700,1,0,0:0:0:0:
193,273,55850,1,0,0:0:0:0:
200,230,56000,1,0,0:0:0:0:
293,161,56150,1,0,0:0:0:0:
286,204,56300,1,0,0:0:0:0:
399,349,56450,6,0,P|416:326|421:291,1,59.9999981689454
286,204,56900,1,0,0:0:0:0:
399,349,57050,1,10,3:0:0:0:
439,154,57200,1,0,0:0:0:0:
399,349,57350,1,10,3:0:0:0:
347,114,57500,1,0,0:0:0:0:
399,349,57650,6,0,B|357:373|290:355|290:355|218:334|181:366,1,224.999993133545,2|0,0:0|0:0,0:0:0:0:
182,365,58850,2,0,P|140:386|168:294,1,224.999993133545,2|0,0:0|0:0,0:0:0:0:
160,290,60050,2,0,P|209:214|119:223,1,224.999993133545,2|0,0:0|0:0,0:0:0:0:
119,223,61250,2,0,P|55:133|102:38,1,224.999993133545,2|0,0:0|0:0,0:0:0:0:
99,39,62450,6,0,P|154:25|129:133,1,224.999993133545,2|0,0:0|0:0,0:0:0:0:
132,133,63650,2,0,P|160:84|218:178,1,224.999993133545,2|0,0:0|0:0,0:0:0:0:
221,176,64850,2,0,P|231:269|310:219,1,224.999993133545,2|0,0:0|0:0,0:0:0:0:
310,218,66050,2,0,P|250:291|342:311,1,224.999993133545,2|0,0:0|0:0,0:0:0:0:
407,252,67250,5,0,0:0:0:0:
