osu file format v14

[General]
AudioFilename: audio.mp3
AudioLeadIn: 0
PreviewTime: 17081
Countdown: 0
SampleSet: Soft
StackLeniency: 0.7
Mode: 0
LetterboxInBreaks: 1
WidescreenStoryboard: 1

[Editor]
Bookmarks: 14773,93542
DistanceSpacing: 1.5
BeatDivisor: 4
GridSize: 8
TimelineZoom: 1.699998

[Metadata]
Title:Nanashi no Senkiyorashi
TitleUnicode:名無しの宣教師
Artist:MIssionary
ArtistUnicode:MIssionary
Creator:cjn1508
Version:Hard
Source:Dynamix
Tags:electric game trance core ZHD hachihachi 88 zion
BeatmapID:1325734
BeatmapSetID:628848

[Difficulty]
HPDrainRate:6
CircleSize:4
OverallDifficulty:7
ApproachRate:8
SliderMultiplier:1.5
SliderTickRate:1

[Events]
//Background and Video events
0,0,"maxresdefault.jpg",0,0
//Break Periods
//Storyboard Layer 0 (Background)
//Storyboard Layer 1 (Fail)
//Storyboard Layer 2 (Pass)
//Storyboard Layer 3 (Foreground)
//Storyboard Sound Samples

[TimingPoints]
6184,307.692307692308,4,2,0,100,1,0
7415,-166.666666666667,4,2,0,100,0,0
17261,-100,4,2,0,100,0,1
27338,-133.333333333333,4,2,0,100,0,0
46799,-166.666666666667,4,2,0,100,0,0
96030,-100,4,2,0,100,0,0
106953,-100,4,2,0,100,0,1
126799,-100,4,2,0,100,0,0

[HitObjects]
199,193,7414,5,0,0:0:0:0:
389,131,8645,1,0,0:0:0:0:
428,325,9876,1,0,0:0:0:0:
174,221,11107,2,0,L|279:117,1,134.999995880127
296,112,11722,2,0,L|402:207,1,134.999995880127
408,221,12338,5,0,0:0:0:0:
234,295,13568,1,0,0:0:0:0:
157,118,14337,2,0,P|109:141|120:206,1,112.499996566773
134,230,14799,2,0,L|213:208,2,67.4999979400635
188,157,16030,5,0,0:0:0:0:
155,322,16261,2,0,L|241:331,1,67.4999979400635
355,255,16645,1,0,0:0:0:0:
205,146,16953,2,0,L|248:105,1,44.999998626709
332,104,17261,6,0,L|417:95,2,75
311,178,17722,2,0,L|376:217,2,75
219,114,18184,1,0,0:0:0:0:
103,163,18491,2,0,P|146:222|233:211,1,150
284,192,18953,1,0,0:0:0:0:
341,240,19107,2,0,P|286:287|182:276,1,150
145,250,19568,1,0,0:0:0:0:
88,200,19722,6,0,L|56:272,2,75
192,168,20184,2,0,L|224:96,2,75
296,200,20645,2,0,L|264:272,2,75
408,168,21107,2,0,L|440:96,2,75
304,216,21568,2,0,L|259:323,1,112.5
240,328,21876,2,0,L|205:350,3,37.5
187,351,22184,6,0,B|143:357|41:323,1,150
215,250,22645,2,0,P|294:246|363:226,1,150
333,151,23107,1,0,0:0:0:0:
298,80,23261,1,0,0:0:0:0:
223,104,23414,2,0,L|152:132,2,75
176,191,23876,1,0,0:0:0:0:
282,203,24184,5,0,0:0:0:0:
212,301,24338,2,0,L|248:314,3,37.5
278,325,24645,2,0,P|339:332|416:307,2,112.5
196,59,25568,1,0,0:0:0:0:
148,207,25876,6,0,L|186:219,6,37.5
200,165,26491,2,0,L|243:156,6,37.5
144,232,27107,2,0,P|150:260|195:297,1,75
376,296,27415,6,0,L|288:224,1,112.5
120,216,28030,2,0,L|208:144,1,112.5
376,120,28645,2,0,L|288:48,1,112.5
120,120,29261,1,0,0:0:0:0:
80,274,29568,6,0,L|44:301,2,25
168,312,29876,2,0,L|256:240,1,112.5
424,232,30491,2,0,L|336:160,1,112.5
168,136,31107,2,0,L|256:64,1,112.5
424,104,31722,1,0,0:0:0:0:
392,308,32030,6,0,L|422:317,2,28.1250010728836
398,234,32338,2,0,L|272:192,1,112.500004291535
171,78,32953,2,0,L|291:27,2,112.500004291535
33,176,33876,2,0,L|153:232,1,112.500004291535
57,322,34491,6,0,L|30:348,2,25
152,320,34799,2,0,L|248:224,1,112.500004291535
248,72,35414,2,0,L|128:56,2,112.500004291535
416,88,36338,1,0,0:0:0:0:
408,266,36645,2,0,L|383:272,3,25
338,282,36953,6,0,L|279:295,3,56.2500021457673
199,305,37568,1,0,0:0:0:0:
199,305,37722,1,0,0:0:0:0:
65,201,38030,1,0,0:0:0:0:
65,201,38184,1,0,0:0:0:0:
223,138,38491,1,0,0:0:0:0:
389,164,38799,1,0,0:0:0:0:
223,138,39107,1,0,0:0:0:0:
232,288,39414,6,0,L|182:259,3,56.2500021457673
107,221,40030,1,0,0:0:0:0:
107,221,40184,1,0,0:0:0:0:
178,123,40491,1,0,0:0:0:0:
178,123,40645,1,0,0:0:0:0:
304,232,40953,1,0,0:0:0:0:
425,114,41261,1,0,0:0:0:0:
304,232,41568,1,0,0:0:0:0:
192,288,41876,6,0,L|245:302,3,50
351,319,42491,1,0,0:0:0:0:
351,319,42645,1,0,0:0:0:0:
444,173,42953,1,0,0:0:0:0:
444,173,43107,1,0,0:0:0:0:
279,137,43414,1,0,0:0:0:0:
115,178,43722,1,0,0:0:0:0:
279,137,44030,1,0,0:0:0:0:
280,288,44338,6,0,L|333:263,3,56.2500021457673
406,189,44953,1,0,0:0:0:0:
406,189,45107,1,0,0:0:0:0:
435,109,45261,1,0,0:0:0:0:
365,62,45414,1,0,0:0:0:0:
280,57,45568,1,0,0:0:0:0:
127,129,45876,1,0,0:0:0:0:
273,188,46184,1,0,0:0:0:0:
132,135,46491,2,0,L|117:163,3,25
156,171,46799,6,0,P|235:242|368:272,1,224.999993133545
346,193,47722,1,0,0:0:0:0:
406,236,47876,1,0,0:0:0:0:
340,272,48030,2,0,P|250:252|209:228,1,134.999995880127
214,249,48645,2,0,P|157:304|105:322,1,134.999995880127
86,290,49261,2,0,B|96:248|96:248|148:240|168:196|168:196|208:232|266:241,1,224.999993133545
270,233,50184,2,0,P|275:155|429:162,1,269.999991760254
96,235,51414,5,0,0:0:0:0:
96,235,51568,1,0,0:0:0:0:
96,235,51722,2,0,P|162:180|70:124,1,224.999993133545
106,180,52645,1,0,0:0:0:0:
106,180,52799,1,0,0:0:0:0:
106,180,52953,2,0,B|288:222|288:222|336:118,1,292.499991073609
449,72,54184,2,0,B|468:84|468:84|424:200|340:233|240:248,1,314.999990386963
209,258,55414,2,0,P|302:278|370:334,1,179.999994506836
437,196,56338,6,0,L|437:164,3,22.4999993133545
405,154,56645,2,0,P|323:201|195:226,1,224.999993133545
141,186,57568,5,0,0:0:0:0:
93,239,57722,1,0,0:0:0:0:
158,267,57876,2,0,P|238:244|261:234,1,89.999997253418
256,249,58338,2,0,P|312:308|379:309,1,134.999995880127
428,117,59107,2,0,B|353:165|353:165|320:137|320:137|192:224,1,269.999991760254
212,75,60338,6,0,L|125:144,1,89.999997253418
270,47,60953,2,0,L|374:33,1,89.999997253418
369,212,61568,1,0,0:0:0:0:
216,215,61876,2,0,B|198:208|198:208|211:148|218:123,1,89.999997253418
355,199,62491,1,0,0:0:0:0:
192,200,62799,2,0,L|103:136,1,89.999997253418
234,249,63414,2,0,L|274:344,1,89.999997253418
256,192,64030,2,0,L|304:152,1,44.999998626709
368,192,64338,2,0,L|416:152,1,44.999998626709
416,256,64645,2,0,L|376:304,1,44.999998626709
312,256,64953,2,0,L|272:296,1,44.999998626709
256,192,65261,12,0,66338,0:0:0:0:
256,192,66491,6,0,L|135:289,1,134.999995880127
150,276,67414,1,0,0:0:0:0:
281,246,67722,5,0,0:0:0:0:
355,133,68030,2,0,L|303:147,1,44.999998626709
168,205,68568,2,0,L|183:155,1,44.999998626709
224,34,69107,2,0,L|264:79,1,44.999998626709
345,168,69568,2,0,L|286:190,1,44.999998626709
296,182,71415,5,0,0:0:0:0:
296,182,71876,2,0,L|173:298,1,150
263,177,72953,6,0,L|320:194,1,44.999998626709
228,306,73414,2,0,L|214:243,1,44.999998626709
360,265,73876,2,0,L|345:201,1,44.999998626709
231,279,74338,1,0,0:0:0:0:
136,95,74799,2,0,L|180:135,1,44.999998626709
357,293,76338,6,0,L|241:195,1,134.999995880127
253,205,77261,1,0,0:0:0:0:
170,98,77568,5,0,0:0:0:0:
164,233,77876,2,0,L|228:215,1,44.999998626709
409,204,78491,2,0,L|394:154,1,44.999998626709
353,33,79030,2,0,L|313:78,1,44.999998626709
232,167,79491,2,0,L|291:189,1,44.999998626709
146,152,81261,6,0,L|249:268,1,134.999995880127
237,255,82184,1,0,0:0:0:0:
249,177,82799,6,0,L|188:196,1,44.999998626709
284,306,83261,2,0,L|296:243,1,44.999998626709
152,265,83722,2,0,L|167:205,1,44.999998626709
281,279,84184,1,0,0:0:0:0:
376,95,84645,2,0,L|327:136,1,44.999998626709
144,256,86184,5,0,0:0:0:0:
144,256,86799,2,0,L|172:113,1,134.999995880127
174,109,87414,1,0,0:0:0:0:
177,112,88030,2,0,L|284:220,1,134.999995880127
282,218,88645,1,0,0:0:0:0:
282,218,89261,2,0,L|402:304,1,134.999995880127
404,304,89876,2,0,P|458:217|437:128,1,179.999994506836
136,208,91107,6,0,P|220:255|321:271,1,179.999994506836
235,74,92338,2,0,P|165:188|200:283,1,224.999993133545
235,305,93261,2,0,L|274:321,3,22.4999993133545
289,312,93568,2,0,P|332:279|340:248,2,67.4999979400635
326,66,94799,5,0,0:0:0:0:
432,103,95030,1,0,0:0:0:0:
343,172,95261,1,0,0:0:0:0:
316,102,95414,1,0,0:0:0:0:
323,251,95722,1,0,0:0:0:0:
262,295,95876,1,0,0:0:0:0:
196,258,96030,6,0,L|134:299,2,75
199,151,96491,2,0,L|264:107,2,75
112,120,98491,6,0,L|41:172,2,75
158,191,98953,2,0,L|124:263,2,75
236,237,99414,2,0,L|236:316,2,75
335,236,99876,1,0,0:0:0:0:
275,166,100030,1,0,0:0:0:0:
328,92,100184,1,0,0:0:0:0:
399,121,100338,2,0,L|481:152,3,75
481,164,100645,2,0,L|470:202,3,37.5
439,226,100953,6,0,L|378:277,2,75
314,213,101415,2,0,P|207:229|34:144,1,300
58,54,102184,2,0,P|118:101|169:241,1,225
411,307,102953,5,0,0:0:0:0:
328,303,103107,2,0,L|289:292,3,37.5
247,258,103414,2,0,P|210:235|167:181,2,112.5
439,303,104338,1,0,0:0:0:0:
305,202,104645,5,0,0:0:0:0:
157,284,104876,2,0,L|88:194,1,112.5
290,233,105338,1,0,0:0:0:0:
452,276,105568,2,0,L|472:199,1,75
98,89,106645,6,0,L|109:126,2,37.5
224,170,107107,6,0,L|342:271,1,150
224,170,107568,2,0,L|91:238,1,150
224,56,108184,2,0,P|309:83|448:246,1,300
238,327,109107,1,0,0:0:0:0:
163,242,109261,1,0,0:0:0:0:
176,130,109414,1,0,0:0:0:0:
275,77,109568,6,0,P|342:109|380:175,1,150
267,158,110030,2,0,L|224:188,1,37.5
131,282,110338,2,0,L|178:298,1,37.5
317,321,110645,2,0,L|291:281,1,37.5
163,118,110953,2,0,L|136:160,1,37.5
69,283,111261,2,0,P|169:327|239:333,1,150
404,274,111876,6,0,L|344:223,1,75
190,238,112338,1,0,0:0:0:0:
190,238,112491,2,0,L|292:118,1,150
393,161,112953,2,0,L|446:98,2,75
97,116,113722,2,0,B|142:172|142:172|178:160|178:160|258:248,1,225
416,248,114491,6,0,L|383:319,1,75
292,249,114799,2,0,L|256:320,1,75
223,208,115107,2,0,L|260:140,1,75
331,228,115414,2,0,L|366:156,1,75
442,241,115722,5,0,0:0:0:0:
93,176,116338,1,0,0:0:0:0:
286,144,116645,1,0,0:0:0:0:
278,118,116722,1,0,0:0:0:0:
260,93,116799,1,0,0:0:0:0:
244,71,116876,1,0,0:0:0:0:
221,57,116953,5,0,0:0:0:0:
185,155,117261,2,0,L|201:228,1,75
47,332,117722,1,0,0:0:0:0:
47,332,118030,2,0,P|112:300|260:316,1,225
259,315,118645,1,0,0:0:0:0:
364,316,118953,1,0,0:0:0:0:
306,219,119107,1,0,0:0:0:0:
196,193,119261,1,0,0:0:0:0:
85,175,119414,6,0,P|101:140|197:80,1,150
300,119,119876,2,0,L|282:158,1,37.5
233,308,120184,2,0,L|267:279,1,37.5
414,221,120491,2,0,L|373:213,1,37.5
243,111,120799,2,0,L|263:153,1,37.5
282,308,121107,1,0,0:0:0:0:
143,162,121414,1,0,0:0:0:0:
114,285,121722,6,0,L|187:265,1,75
397,288,122107,1,0,0:0:0:0:
410,290,122184,2,0,B|345:151|345:151|281:185,1,225
260,215,122799,2,0,L|241:304,2,75
53,94,123568,2,0,B|160:90|160:90|163:43|163:43|310:37,1,300
387,152,124338,6,0,L|361:223,1,75
251,198,124645,2,0,L|221:273,1,75
335,292,124953,2,0,L|361:221,1,75
256,192,125261,2,0,L|282:117,1,75
256,192,125568,12,0,126799,0:0:0:0:
