osu file format v14

[General]
AudioFilename: audio.mp3
AudioLeadIn: 0
PreviewTime: 14357
Countdown: 0
SampleSet: Normal
StackLeniency: 0.7
Mode: 1
LetterboxInBreaks: 0
WidescreenStoryboard: 0

[Editor]
DistanceSpacing: 1.9
BeatDivisor: 4
GridSize: 32
TimelineZoom: 2.1

[Metadata]
Title:Flashback (TV Size)
TitleUnicode:Flashback (TV Size)
Artist:MIYAVI vs. KenKen
ArtistUnicode:MIYAVI vs. KenKen
Creator:duski
Version:Oni
Source:刻刻
Tags:anime japanese english kokkoku kokukoku moment by moment opening samurai sessions volume 2 vol. crazy now ARGENTINE DREAM _WWWWWW_WWWWWW_ _w6
BeatmapID:1600875
BeatmapSetID:761305

[Difficulty]
HPDrainRate:6
CircleSize:6
OverallDifficulty:6
ApproachRate:6
SliderMultiplier:1.4
SliderTickRate:1

[Events]
//Background and Video events
0,0,"ay.png",0,0
//Break Periods
//Storyboard Layer 0 (Background)
//Storyboard Layer 1 (Fail)
//Storyboard Layer 2 (Pass)
//Storyboard Layer 3 (Foreground)
//Storyboard Layer 4 (Overlay)
//Storyboard Sound Samples

[TimingPoints]
-964,428.571428571429,4,1,0,80,1,0
6750,-90.9090909090909,4,1,0,60,0,0
7607,-90.9090909090909,4,1,0,90,0,0
14464,-86.9565217391304,4,1,0,90,0,1
27214,-89.2857142857143,4,1,0,90,0,1
27536,-91.743119266055,4,1,0,90,0,1
27857,-94.3396226415094,4,1,0,90,0,1
28178,-97.0873786407767,4,1,0,90,0,0
28286,-100,4,1,0,90,0,0
34607,-99.009900990099,4,1,0,90,0,0
34821,-97.0873786407767,4,1,0,90,0,0
34928,-96.1538461538461,4,1,0,90,0,0
35036,-95.2380952380952,4,1,0,90,0,0
37928,-94.3396226415094,4,1,0,90,0,0
38036,-93.4579439252336,4,1,0,90,0,0
38250,-92.5925925925926,4,1,0,90,0,0
38464,-90.9090909090909,4,1,0,90,0,0
39964,-89.2857142857143,4,1,0,90,0,0
40178,-87.719298245614,4,1,0,80,0,0
40286,-86.9565217391304,4,1,0,80,0,0
40393,-86.2068965517241,4,1,0,80,0,0
40500,-85.4700854700855,4,1,0,80,0,0
40607,-84.7457627118644,4,1,0,80,0,0
40821,-83.3333333333333,4,1,0,80,0,0
40928,-82.6446280991736,4,1,0,80,0,0
41036,-81.9672131147541,4,1,0,80,0,0
41143,-81.3008130081301,4,1,0,80,0,0
41250,-80.6451612903226,4,1,0,80,0,0
41464,-79.3650793650794,4,1,0,80,0,0
41571,-78.740157480315,4,1,0,80,0,0
41678,-78.125,4,1,0,80,0,0
41786,-77.5193798449612,4,1,0,80,0,0
41893,-76.9230769230769,4,1,0,80,0,0
42321,-81.9672131147541,4,1,0,60,0,0
42750,-87.719298245614,4,1,0,60,0,0
43178,-94.3396226415094,4,1,0,60,0,0
43393,-98.0392156862745,4,1,0,60,0,0
43821,-106.382978723404,4,1,0,60,0,0
44036,-111.111111111111,4,1,0,60,0,0
44250,-116.279069767442,4,1,0,60,0,0
44464,-121.951219512195,4,1,0,60,0,0
44893,-135.135135135135,4,1,0,60,0,0
55607,-90.9090909090909,4,1,0,90,0,0
68893,-89.2857142857143,4,1,0,90,0,0
69000,-87.719298245614,4,1,0,90,0,0
69107,-86.2068965517241,4,1,0,90,0,0
69214,-84.7457627118644,4,1,0,90,0,0
69321,-83.3333333333333,4,1,0,90,0,1
83036,-86.9565217391304,4,1,0,90,0,0
83464,-88.4955752212389,4,1,0,60,0,0
83893,-90.0900900900901,4,1,0,60,0,0
84321,-93.4579439252336,4,1,0,60,0,0
84536,-94.3396226415094,4,1,0,60,0,0
84964,-96.1538461538461,4,1,0,60,0,0
85178,-97.0873786407767,4,1,0,60,0,0
85393,-98.0392156862745,4,1,0,60,0,0
85607,-99.009900990099,4,1,0,60,0,0
86036,-101.010101010101,4,1,0,60,0,0
86464,-103.092783505155,4,1,0,60,0,0
86893,-105.263157894737,4,1,0,60,0,0

[HitObjects]
256,192,536,5,0,0:0:0:0:
256,192,750,1,8,0:0:0:0:
256,192,1928,1,8,0:0:0:0:
256,192,2250,1,0,0:0:0:0:
256,192,3321,1,8,0:0:0:0:
256,192,3643,1,8,0:0:0:0:
256,192,3964,1,0,0:0:0:0:
256,192,4178,1,0,0:0:0:0:
256,192,5357,1,8,0:0:0:0:
256,192,5678,1,0,0:0:0:0:
256,192,6750,1,8,0:0:0:0:
256,192,6857,1,8,0:0:0:0:
256,192,6964,1,8,0:0:0:0:
256,192,7071,1,8,0:0:0:0:
256,192,7178,1,0,0:0:0:0:
256,192,7607,1,4,0:0:0:0:
256,192,7821,1,8,0:0:0:0:
256,192,7928,1,8,0:0:0:0:
256,192,8036,1,0,0:0:0:0:
256,192,8250,1,8,0:0:0:0:
256,192,8464,1,0,0:0:0:0:
256,192,8678,1,8,0:0:0:0:
256,192,8786,1,0,0:0:0:0:
256,192,9000,1,0,0:0:0:0:
256,192,9107,1,8,0:0:0:0:
256,192,9321,1,0,0:0:0:0:
256,192,9536,1,8,0:0:0:0:
256,192,9643,1,8,0:0:0:0:
256,192,9750,1,0,0:0:0:0:
256,192,9964,1,0,0:0:0:0:
256,192,10071,1,8,0:0:0:0:
256,192,10178,1,0,0:0:0:0:
256,192,10393,1,8,0:0:0:0:
256,192,10500,1,0,0:0:0:0:
256,192,10714,1,0,0:0:0:0:
256,192,10821,1,8,0:0:0:0:
256,192,10928,1,8,0:0:0:0:
256,192,11036,1,0,0:0:0:0:
256,192,11250,1,8,0:0:0:0:
256,192,11357,1,0,0:0:0:0:
256,192,11464,1,8,0:0:0:0:
256,192,11678,1,0,0:0:0:0:
256,192,11893,1,8,0:0:0:0:
256,192,12107,1,0,0:0:0:0:
256,192,12214,1,8,0:0:0:0:
256,192,12428,1,0,0:0:0:0:
256,192,12536,1,8,0:0:0:0:
256,192,12750,1,0,0:0:0:0:
256,192,12857,1,8,0:0:0:0:
256,192,12964,1,8,0:0:0:0:
256,192,13071,1,8,0:0:0:0:
256,192,13178,1,0,0:0:0:0:
256,192,13393,1,8,0:0:0:0:
256,192,13500,1,8,0:0:0:0:
256,192,13607,1,0,0:0:0:0:
256,192,13714,1,0,0:0:0:0:
256,192,13821,1,0,0:0:0:0:
256,192,13928,1,0,0:0:0:0:
256,192,14464,1,4,0:0:0:0:
256,192,14678,1,0,0:0:0:0:
256,192,14786,1,0,0:0:0:0:
256,192,14893,1,8,0:0:0:0:
256,192,15107,1,0,0:0:0:0:
256,192,15321,1,8,0:0:0:0:
256,192,15428,1,0,0:0:0:0:
256,192,15643,1,0,0:0:0:0:
256,192,15750,1,8,0:0:0:0:
256,192,15964,1,0,0:0:0:0:
256,192,16393,1,0,0:0:0:0:
256,192,16607,1,8,0:0:0:0:
256,192,16821,1,8,0:0:0:0:
256,192,17036,1,0,0:0:0:0:
256,192,17357,1,0,0:0:0:0:
256,192,17464,1,8,0:0:0:0:
256,192,17678,1,0,0:0:0:0:
256,192,17893,1,8,0:0:0:0:
256,192,18107,1,0,0:0:0:0:
256,192,18214,1,0,0:0:0:0:
256,192,18321,1,8,0:0:0:0:
256,192,18536,1,0,0:0:0:0:
256,192,18643,1,8,0:0:0:0:
256,192,18750,1,0,0:0:0:0:
256,192,19071,1,0,0:0:0:0:
256,192,19178,1,8,0:0:0:0:
256,192,19393,1,0,0:0:0:0:
256,192,19821,1,0,0:0:0:0:
256,192,20036,1,8,0:0:0:0:
256,192,20250,1,0,0:0:0:0:
256,192,20464,1,0,0:0:0:0:
256,192,20786,1,0,0:0:0:0:
256,192,20893,1,8,0:0:0:0:
256,192,21107,1,0,0:0:0:0:
256,192,21321,1,8,0:0:0:0:
256,192,21536,1,0,0:0:0:0:
256,192,21643,1,0,0:0:0:0:
256,192,21750,1,8,0:0:0:0:
256,192,21964,1,0,0:0:0:0:
256,192,22178,1,0,0:0:0:0:
256,192,22500,1,0,0:0:0:0:
256,192,22607,1,8,0:0:0:0:
256,192,22821,1,0,0:0:0:0:
256,192,23250,1,0,0:0:0:0:
256,192,23464,1,8,0:0:0:0:
256,192,23678,1,8,0:0:0:0:
256,192,23893,1,0,0:0:0:0:
256,192,24214,1,0,0:0:0:0:
256,192,24321,1,8,0:0:0:0:
256,192,24536,1,0,0:0:0:0:
256,192,24750,1,8,0:0:0:0:
256,192,24964,1,0,0:0:0:0:
256,192,25071,1,0,0:0:0:0:
256,192,25178,1,8,0:0:0:0:
256,192,25393,1,0,0:0:0:0:
256,192,25607,1,8,0:0:0:0:
256,192,25714,1,0,0:0:0:0:
256,192,25928,1,0,0:0:0:0:
256,192,26036,1,8,0:0:0:0:
256,192,26250,1,0,0:0:0:0:
256,192,26464,12,0,27107,0:0:0:0:
256,192,27321,5,0,0:0:0:0:
256,192,27643,1,0,0:0:0:0:
256,192,27964,1,0,0:0:0:0:
256,192,28178,1,8,0:0:0:0:
256,192,28393,1,0,0:0:0:0:
256,192,28607,1,8,0:0:0:0:
256,192,28714,1,0,0:0:0:0:
256,192,28928,1,0,0:0:0:0:
256,192,29036,1,8,0:0:0:0:
256,192,29250,1,0,0:0:0:0:
256,192,29357,1,8,0:0:0:0:
256,192,29571,1,8,0:0:0:0:
256,192,29678,1,0,0:0:0:0:
256,192,30107,1,8,0:0:0:0:
256,192,30321,1,8,0:0:0:0:
256,192,30428,1,0,0:0:0:0:
256,192,30643,1,0,0:0:0:0:
256,192,30750,1,8,0:0:0:0:
256,192,30964,1,8,0:0:0:0:
256,192,31071,1,0,0:0:0:0:
256,192,31286,1,8,0:0:0:0:
256,192,31393,1,0,0:0:0:0:
256,192,31607,1,8,0:0:0:0:
256,192,31821,1,0,0:0:0:0:
256,192,32036,1,8,0:0:0:0:
256,192,32143,1,0,0:0:0:0:
256,192,32357,1,0,0:0:0:0:
256,192,32464,1,8,0:0:0:0:
256,192,32678,1,0,0:0:0:0:
256,192,32786,1,8,0:0:0:0:
256,192,33000,1,8,0:0:0:0:
256,192,33107,1,0,0:0:0:0:
256,192,33321,1,0,0:0:0:0:
256,192,33536,1,8,0:0:0:0:
256,192,33750,1,0,0:0:0:0:
256,192,33857,1,8,0:0:0:0:
256,192,34071,1,0,0:0:0:0:
256,192,34178,1,0,0:0:0:0:
256,192,34286,1,8,0:0:0:0:
256,192,34500,1,0,0:0:0:0:
256,192,34607,1,8,0:0:0:0:
256,192,34821,1,8,0:0:0:0:
256,192,34928,1,8,0:0:0:0:
256,192,35036,1,0,0:0:0:0:
256,192,35250,1,0,0:0:0:0:
256,192,35464,1,8,0:0:0:0:
256,192,35786,1,0,0:0:0:0:
256,192,35893,1,8,0:0:0:0:
256,192,36107,1,8,0:0:0:0:
256,192,36214,1,8,0:0:0:0:
256,192,36321,1,8,0:0:0:0:
256,192,36536,1,0,0:0:0:0:
256,192,36750,1,8,0:0:0:0:
256,192,37071,1,0,0:0:0:0:
256,192,37178,1,8,0:0:0:0:
256,192,37393,1,0,0:0:0:0:
256,192,37500,1,0,0:0:0:0:
256,192,37607,1,8,0:0:0:0:
256,192,37821,1,8,0:0:0:0:
256,192,37928,1,8,0:0:0:0:
256,192,38036,1,8,0:0:0:0:
256,192,38250,1,0,0:0:0:0:
256,192,38464,1,8,0:0:0:0:
256,192,38678,1,8,0:0:0:0:
256,192,38893,1,8,0:0:0:0:
256,192,39107,1,8,0:0:0:0:
256,192,39321,1,8,0:0:0:0:
256,192,39536,1,8,0:0:0:0:
256,192,39750,1,8,0:0:0:0:
256,192,39964,1,0,0:0:0:0:
256,192,40178,1,8,0:0:0:0:
256,192,40286,1,0,0:0:0:0:
256,192,40393,1,8,0:0:0:0:
256,192,40500,1,0,0:0:0:0:
256,192,40607,1,8,0:0:0:0:
256,192,40821,1,0,0:0:0:0:
256,192,40928,1,0,0:0:0:0:
256,192,41036,1,8,0:0:0:0:
256,192,41143,1,8,0:0:0:0:
256,192,41250,1,0,0:0:0:0:
256,192,41464,1,8,0:0:0:0:
256,192,41571,1,8,0:0:0:0:
256,192,41678,1,8,0:0:0:0:
256,192,41786,1,8,0:0:0:0:
256,192,41893,1,4,0:0:0:0:
256,192,42321,1,0,0:0:0:0:
256,192,42750,1,8,0:0:0:0:
256,192,43178,1,0,0:0:0:0:
256,192,43393,1,8,0:0:0:0:
256,192,43821,1,8,0:0:0:0:
256,192,44036,1,0,0:0:0:0:
256,192,44250,1,0,0:0:0:0:
256,192,44464,1,8,0:0:0:0:
256,192,44893,1,8,0:0:0:0:
256,192,45750,1,8,0:0:0:0:
256,192,46178,1,0,0:0:0:0:
256,192,46607,1,0,0:0:0:0:
256,192,46821,1,8,0:0:0:0:
256,192,47250,1,8,0:0:0:0:
256,192,47464,1,0,0:0:0:0:
256,192,47678,1,0,0:0:0:0:
256,192,47893,1,8,0:0:0:0:
256,192,48321,1,8,0:0:0:0:
256,192,49178,1,8,0:0:0:0:
256,192,49607,1,0,0:0:0:0:
256,192,50036,1,0,0:0:0:0:
256,192,50250,1,8,0:0:0:0:
256,192,50678,1,8,0:0:0:0:
256,192,50893,1,8,0:0:0:0:
256,192,51107,1,0,0:0:0:0:
256,192,51321,1,8,0:0:0:0:
256,192,51750,1,0,0:0:0:0:
256,192,51964,1,8,0:0:0:0:
256,192,52393,1,8,0:0:0:0:
256,192,52607,1,0,0:0:0:0:
256,192,52821,1,8,0:0:0:0:
256,192,53036,1,0,0:0:0:0:
256,192,53678,1,8,0:0:0:0:
256,192,54107,1,8,0:0:0:0:
256,192,54321,1,0,0:0:0:0:
256,192,54536,1,8,0:0:0:0:
256,192,54750,1,0,0:0:0:0:
256,192,55178,1,8,0:0:0:0:
256,192,55607,1,4,0:0:0:0:
256,192,56036,1,8,0:0:0:0:
256,192,56250,1,0,0:0:0:0:
256,192,56464,1,0,0:0:0:0:
256,192,56678,1,0,0:0:0:0:
256,192,56786,1,0,0:0:0:0:
256,192,56893,1,8,0:0:0:0:
256,192,57107,1,0,0:0:0:0:
256,192,57321,1,0,0:0:0:0:
256,192,57536,1,8,0:0:0:0:
256,192,57643,1,8,0:0:0:0:
256,192,57750,1,8,0:0:0:0:
256,192,57964,1,0,0:0:0:0:
256,192,58178,1,8,0:0:0:0:
256,192,58607,1,8,0:0:0:0:
256,192,59036,1,0,0:0:0:0:
256,192,59464,1,8,0:0:0:0:
256,192,59678,1,0,0:0:0:0:
256,192,59786,1,0,0:0:0:0:
256,192,59893,1,8,0:0:0:0:
256,192,60107,1,0,0:0:0:0:
256,192,60321,1,8,0:0:0:0:
256,192,60536,1,0,0:0:0:0:
256,192,60964,1,0,0:0:0:0:
256,192,61178,1,8,0:0:0:0:
256,192,61393,1,8,0:0:0:0:
256,192,61500,1,8,0:0:0:0:
256,192,61607,1,0,0:0:0:0:
256,192,62036,1,8,0:0:0:0:
256,192,62464,1,0,0:0:0:0:
256,192,62893,1,8,0:0:0:0:
256,192,63107,1,8,0:0:0:0:
256,192,63214,1,8,0:0:0:0:
256,192,63321,1,0,0:0:0:0:
256,192,63536,1,0,0:0:0:0:
256,192,63750,1,8,0:0:0:0:
256,192,63964,1,0,0:0:0:0:
256,192,64178,1,0,0:0:0:0:
256,192,64286,1,0,0:0:0:0:
256,192,64393,1,0,0:0:0:0:
256,192,64607,1,8,0:0:0:0:
256,192,64821,1,8,0:0:0:0:
256,192,64928,1,8,0:0:0:0:
256,192,65036,1,0,0:0:0:0:
256,192,65464,1,8,0:0:0:0:
256,192,65678,1,0,0:0:0:0:
256,192,66107,1,8,0:0:0:0:
256,192,66321,1,0,0:0:0:0:
256,192,66536,1,8,0:0:0:0:
256,192,66750,1,0,0:0:0:0:
256,192,66964,1,0,0:0:0:0:
256,192,67071,1,0,0:0:0:0:
256,192,67178,1,8,0:0:0:0:
256,192,67393,1,0,0:0:0:0:
256,192,67821,1,8,0:0:0:0:
256,192,68036,1,0,0:0:0:0:
256,192,68250,1,8,0:0:0:0:
256,192,68464,1,0,0:0:0:0:
256,192,68571,1,0,0:0:0:0:
256,192,68678,1,0,0:0:0:0:
256,192,68893,1,8,0:0:0:0:
256,192,69000,1,8,0:0:0:0:
256,192,69107,1,8,0:0:0:0:
256,192,69214,1,8,0:0:0:0:
256,192,69321,1,4,0:0:0:0:
256,192,69536,1,0,0:0:0:0:
256,192,69643,1,0,0:0:0:0:
256,192,69750,1,8,0:0:0:0:
256,192,69964,1,8,0:0:0:0:
256,192,70071,1,8,0:0:0:0:
256,192,70178,1,0,0:0:0:0:
256,192,70393,1,0,0:0:0:0:
256,192,70607,1,8,0:0:0:0:
256,192,70821,1,0,0:0:0:0:
256,192,71250,1,0,0:0:0:0:
256,192,71464,1,8,0:0:0:0:
256,192,71678,1,8,0:0:0:0:
256,192,71786,1,8,0:0:0:0:
256,192,71893,1,0,0:0:0:0:
256,192,72107,1,0,0:0:0:0:
256,192,72321,1,8,0:0:0:0:
256,192,72750,1,0,0:0:0:0:
256,192,72964,1,0,0:0:0:0:
256,192,73071,1,0,0:0:0:0:
256,192,73178,1,8,0:0:0:0:
256,192,73393,1,0,0:0:0:0:
256,192,73607,1,8,0:0:0:0:
256,192,73821,1,8,0:0:0:0:
256,192,73928,1,8,0:0:0:0:
256,192,74036,1,8,0:0:0:0:
256,192,74250,1,0,0:0:0:0:
256,192,74678,1,0,0:0:0:0:
256,192,74893,1,8,0:0:0:0:
256,192,75107,1,8,0:0:0:0:
256,192,75214,1,8,0:0:0:0:
256,192,75321,1,0,0:0:0:0:
256,192,75536,1,0,0:0:0:0:
256,192,75750,1,8,0:0:0:0:
256,192,75964,1,8,0:0:0:0:
256,192,76178,1,0,0:0:0:0:
256,192,76393,1,0,0:0:0:0:
256,192,76500,1,0,0:0:0:0:
256,192,76607,1,8,0:0:0:0:
256,192,76821,1,0,0:0:0:0:
256,192,77036,1,8,0:0:0:0:
256,192,77250,1,8,0:0:0:0:
256,192,77357,1,8,0:0:0:0:
256,192,77464,1,0,0:0:0:0:
256,192,77678,1,8,0:0:0:0:
256,192,77893,1,8,0:0:0:0:
256,192,78000,1,8,0:0:0:0:
256,192,78107,1,0,0:0:0:0:
256,192,78214,1,0,0:0:0:0:
256,192,78321,1,8,0:0:0:0:
256,192,78536,1,8,0:0:0:0:
256,192,78750,1,0,0:0:0:0:
256,192,79178,1,0,0:1:0:0:
256,192,79393,1,8,0:0:0:0:
256,192,79607,1,8,0:0:0:0:
256,192,79714,1,8,0:0:0:0:
256,192,79821,1,0,0:0:0:0:
256,192,80036,1,8,0:0:0:0:
256,192,80250,1,8,0:0:0:0:
256,192,80464,1,0,0:0:0:0:
256,192,80678,1,8,0:0:0:0:
256,192,80786,1,8,0:0:0:0:
256,192,80893,1,8,0:0:0:0:
256,192,81107,1,8,0:0:0:0:
256,192,81321,1,0,0:0:0:0:
256,192,81428,1,8,0:0:0:0:
256,192,81536,1,0,0:0:0:0:
256,192,81643,1,0,0:0:0:0:
256,192,81750,1,8,0:0:0:0:
256,192,81964,1,8,0:0:0:0:
256,192,82178,1,0,0:0:0:0:
256,192,82393,1,0,0:0:0:0:
256,192,82500,1,0,0:0:0:0:
256,192,82607,1,8,0:0:0:0:
256,192,83036,1,0,0:0:0:0:
256,192,83464,1,0,0:0:0:0:
256,192,83893,1,8,0:0:0:0:
256,192,84321,1,0,0:0:0:0:
256,192,84536,1,8,0:0:0:0:
256,192,84964,1,0,0:0:0:0:
256,192,85178,1,0,0:0:0:0:
256,192,85393,1,0,0:0:0:0:
256,192,85607,1,8,0:0:0:0:
256,192,86036,1,8,0:0:0:0:
256,192,86464,1,8,0:0:0:0:
256,192,86893,1,8,0:0:0:0:
