osu file format v14

[General]
AudioFilename: audio.mp3
AudioLeadIn: 0
PreviewTime: 11082
Countdown: 0
SampleSet: Soft
StackLeniency: 0
Mode: 0
LetterboxInBreaks: 0
WidescreenStoryboard: 0

[Editor]
Bookmarks: 28278,55707,69421
DistanceSpacing: 0.3
BeatDivisor: 8
GridSize: 32
TimelineZoom: 1.9

[Metadata]
Title:Flashback (TV Size)
TitleUnicode:Flashback (TV Size)
Artist:MIYAVI vs. KenKen
ArtistUnicode:MIYAVI vs. KenKen
Creator:Xarr
Version:Crazy Now
Source:
Tags:
BeatmapID:1932077
BeatmapSetID:924924

[Difficulty]
HPDrainRate:5
CircleSize:4
OverallDifficulty:8.5
ApproachRate:9.4
SliderMultiplier:2.43
SliderTickRate:1

[Events]
//Background and Video events
0,0,"crazy now.PNG",0,0
//Break Periods
//Storyboard Layer 0 (Background)
//Storyboard Layer 1 (Fail)
//Storyboard Layer 2 (Pass)
//Storyboard Layer 3 (Foreground)
//Storyboard Sound Samples

[TimingPoints]
-864,428.571428571429,4,2,0,100,1,0
7278,-200,4,2,0,100,0,0
7707,-66.6666666666667,4,2,0,100,0,0
10707,-90.9090909090909,4,2,0,100,0,0
11136,-58.8235294117647,4,2,0,100,0,0
11993,-55.5555555555556,4,2,0,100,0,0
12421,-50,4,2,0,100,0,0
14564,-41.6666666666667,4,2,0,100,0,0
14993,-50,4,2,0,100,0,0
15421,-45.4545454545455,4,2,0,100,0,0
15850,-50,4,2,0,100,0,0
18421,-37.037037037037,4,2,0,100,0,0
18850,-50,4,2,0,100,0,0
20564,-45.4545454545455,4,2,0,100,0,0
20993,-41.6666666666667,4,2,0,100,0,0
21421,-45.4545454545455,4,2,0,100,0,0
21850,-50,4,2,0,100,0,0
25278,-41.6666666666667,4,2,0,100,0,0
25707,-45.4545454545455,4,2,0,100,0,0
26136,-50,4,2,0,100,0,0
26564,-100,4,2,0,100,0,0
27421,-83.3333333333333,4,2,0,100,0,0
27743,-111.111111111111,4,2,0,100,0,0
28064,-142.857142857143,4,2,0,100,0,0
28493,-76.9230769230769,4,2,0,100,0,0
29778,-153.846153846154,4,2,0,100,0,0
30207,-76.9230769230769,4,2,0,100,0,0
33207,-153.846153846154,4,2,0,100,0,0
33743,-57.1428571428571,4,2,0,100,0,0
35136,-55.5555555555556,4,2,0,100,0,0
35993,-50,4,2,0,100,0,0
36850,-45.4545454545455,4,2,0,100,0,0
37707,-41.6666666666667,4,2,0,100,0,0
38564,-38.4615384615385,4,2,0,100,0,0
38778,-41.6666666666667,4,2,0,100,0,0
38993,-45.4545454545455,4,2,0,100,0,0
39207,-50,4,2,0,100,0,0
39421,-55.5555555555556,4,2,0,100,0,0
39636,-62.5,4,2,0,100,0,0
39850,-71.4285714285714,4,2,0,100,0,0
40064,-83.3333333333333,4,2,0,100,0,0
41136,-41.6666666666667,4,2,0,100,0,0
41243,-47.6190476190476,4,2,0,100,0,0
41350,-55.5555555555556,4,2,0,100,0,0
41457,-66.6666666666667,4,2,0,100,0,0
41564,-83.3333333333333,4,2,0,100,0,0
41671,-111.111111111111,4,2,0,100,0,0
41778,-166.666666666666,4,2,0,100,0,0
41886,-333.333333333332,4,2,0,100,0,0
41993,-166.666666666667,4,2,0,100,0,0
55707,-100,4,2,0,100,0,0
69421,-58.8235294117647,4,2,0,100,0,0
71082,-58.8235294117647,4,2,0,5,0,0
71136,-1000,4,2,0,100,0,0
72796,-1000,4,2,0,5,0,0
72850,-52.6315789473684,4,2,0,100,0,0
74511,-52.6315789473684,4,2,0,5,0,0
74564,-1000,4,2,0,100,0,0
75796,-1000,4,2,0,5,0,0
75850,-66.6666666666667,4,2,0,100,0,0
76064,-55.5555555555556,4,2,0,100,0,0
76278,-50,4,2,0,100,0,0
77939,-50,4,2,0,5,0,0
77993,-1000,4,2,0,100,0,0
79493,-50,4,2,0,100,0,0
80564,-1000,4,2,0,100,0,0
81421,-40,4,2,0,100,0,0
82278,-1000,4,2,0,100,0,0

[Colours]
Combo1 : 129,251,94
Combo2 : 206,67,252
Combo3 : 235,251,32
Combo4 : 249,57,130
Combo5 : 121,121,255

[HitObjects]
277,355,636,5,0,0:0:0:0:
455,333,850,2,0,P|411:297|345:291,1,121.5
89,24,2028,6,0,P|99:89|109:159,1,121.5
120,234,2350,1,0,0:0:0:0:
445,55,3421,6,0,P|398:91|338:99,1,121.5
64,85,3743,2,0,P|123:92|171:128,1,121.5
235,298,4064,1,0,0:0:0:0:
262,4,4278,1,0,0:0:0:0:
386,370,5457,6,0,P|396:304|406:235,1,121.5
417,160,5779,1,0,0:0:0:0:
82,293,6850,5,0,0:0:0:0:
82,293,6957,1,0,0:0:0:0:
66,201,7064,1,0,0:0:0:0:
66,201,7171,1,0,0:0:0:0:
52,111,7278,6,0,L|161:135,1,106.3125
155,133,7707,6,0,P|148:90|141:19,1,91.125003476143
142,42,7921,1,0,0:0:0:0:
344,249,8136,6,0,P|351:206|358:135,1,91.125003476143
356,158,8350,1,0,0:0:0:0:
271,383,8564,6,0,P|253:340|266:285,1,91.125003476143
344,249,8778,1,0,0:0:0:0:
173,231,8886,2,0,P|207:201|264:196,1,91.125003476143
344,249,9100,1,0,0:3:0:0:
296,94,9207,2,0,P|335:118|357:170,1,91.125003476143
509,196,9421,6,0,B|411:177|444:272|319:245,1,182.250006952286
13,290,9850,2,0,B|111:271|78:366|203:339,1,182.250006952286
249,287,10171,1,0,0:0:0:0:
336,384,10278,6,0,P|340:338|348:293,1,91.125003476143
157,149,10493,2,0,P|164:193|170:239,1,91.125003476143
220,47,10707,6,0,P|124:31|50:94,1,200.475006118012
346,372,11136,6,0,P|336:321|333:270,1,103.275001969814
435,307,11350,1,0,0:0:0:0:
435,307,11457,1,0,0:0:0:0:
171,150,11564,6,0,P|166:202|157:252,1,103.275001969814
72,188,11778,1,0,0:0:0:0:
72,188,11885,1,0,0:0:0:0:
125,357,11993,6,0,P|176:347|233:340,1,109.349996662903
381,96,12207,2,0,P|323:89|272:79,1,109.349996662903
333,270,12421,6,0,B|354:315|354:315|335:392,1,121.5
171,150,12636,2,0,B|150:105|150:105|169:28,1,121.5
10,256,12850,5,0,0:0:0:0:
96,300,12957,1,0,0:0:0:0:
190,277,13064,1,0,0:0:0:0:
238,193,13171,1,0,0:0:0:0:
202,299,13278,5,0,0:0:0:0:
263,194,13385,1,0,0:0:0:0:
380,163,13492,1,0,0:0:0:0:
484,224,13599,1,0,0:0:0:0:
487,342,13707,6,0,P|473:360|478:338,6,60.75
487,342,14136,1,0,0:0:0:0:
78,68,14564,6,0,B|178:18|178:18|153:212,1,291.599991101075
143,308,14886,1,0,2:0:0:0:
35,356,14993,2,0,B|18:297|18:297|47:234,1,121.5,0|0,2:0|2:0,2:0:0:0:
251,262,15207,2,0,B|267:320|267:320|238:383,1,121.5,0|0,2:0|2:0,2:0:0:0:
470,51,15421,6,0,B|385:57|385:57|330:136|330:136|222:148,1,267.300008157349
354,259,15743,1,0,0:0:0:0:
354,259,15850,2,0,P|412:275|472:285,1,121.5
143,308,16064,2,0,P|83:318|25:334,1,121.5
262,384,16278,5,0,0:0:0:0:
262,384,16386,1,0,0:0:0:0:
262,384,16493,2,0,L|248:228,1,121.5
232,18,16707,1,0,0:0:0:0:
232,18,16921,2,0,P|176:56|82:58,1,121.5
337,51,17136,6,0,P|459:53|526:163,1,243
370,276,17457,1,0,0:0:0:0:
370,276,17564,2,0,P|386:215|407:160,1,121.5
85,50,17778,2,0,P|106:106|122:165,1,121.5
36,331,17993,6,0,P|4:210|142:294,1,364.5
466,368,18421,6,0,P|540:226|352:308,1,492.075001877117
349,297,18850,6,0,P|287:311|192:333,1,121.5
447,273,19064,1,0,0:0:0:0:
447,273,19171,1,0,0:0:0:0:
134,138,19278,2,0,P|191:157|249:175,1,121.5
472,44,19493,2,0,P|415:63|357:81,1,121.5
248,360,19707,5,0,0:0:0:0:
248,360,19814,1,0,0:0:0:0:
248,360,19921,2,0,L|258:204,1,121.5
274,20,20136,1,0,0:0:0:0:
274,20,20350,2,0,L|262:164,1,121.5
126,384,20564,6,0,P|90:332|101:258,1,133.650004078674
0,223,20778,2,0,P|38:173|111:161,1,133.650004078674
382,246,20993,6,0,P|419:191|407:113,1,145.799995550537
512,66,21207,2,0,P|471:13|394:1,1,145.799995550537
467,360,21421,6,0,P|345:376|245:240,1,267.300008157349
263,141,21743,1,0,0:0:0:0:
122,211,21850,2,0,P|62:196|3:185,1,121.5
382,246,22064,2,0,P|442:234|500:220,1,121.5
237,20,22278,6,0,L|254:269,1,243
130,348,22600,1,0,0:0:0:0:
130,348,22707,2,0,P|104:285|108:198,1,121.5
375,354,22921,2,0,P|400:291|397:204,1,121.5
252,384,23136,5,0,0:0:0:0:
252,384,23243,1,0,0:0:0:0:
252,384,23350,2,0,L|255:218,1,121.5
259,0,23564,1,0,0:0:0:0:
259,0,23778,2,0,P|197:11|123:23,1,121.5
333,132,23993,6,0,P|400:27|520:35,1,243
231,130,24314,1,0,0:0:0:0:
231,130,24421,2,0,P|167:117|107:100,1,121.5
392,310,24636,2,0,P|450:294|510:282,1,121.5
220,234,24850,6,0,B|91:199|128:335|-20:290,1,243
0,295,25171,1,0,0:0:0:0:
317,153,25278,6,0,B|387:75|336:-8|244:-2|183:86|278:179|303:150|367:206|293:314,1,437.399986651612
131,364,25707,6,0,P|248:332|427:308,1,267.300008157349
452,383,26028,1,0,0:0:0:0:
452,383,26136,6,0,P|483:326|469:261,1,121.5
355,109,26350,2,0,P|348:168|378:219,1,121.5
405,0,26564,6,0,P|282:119|24:107,1,425.25
39,115,27421,6,0,P|113:146|150:221,1,145.799995550537
232,184,27743,6,0,P|227:236|182:280,1,109.349996662903
202,355,28064,6,0,P|174:357|130:334,1,63.7874980533601,0|0,0:3|0:3,0:3:0:0:
100,269,28278,5,0,0:0:0:0:
362,159,28493,6,0,L|462:118,1,78.9749963848116
254,198,28707,1,0,0:0:0:0:
238,305,28814,6,0,L|222:412,1,78.9749963848116,0|0,0:3|0:3,0:3:0:0:
254,198,29028,1,0,0:0:0:0:
167,132,29136,6,0,L|81:65,1,78.9749963848116,0|0,0:3|0:3,0:3:0:0:
254,198,29350,1,0,0:0:0:0:
362,159,29457,6,0,L|462:118,1,78.9749963848116
254,198,29671,1,0,0:0:0:0:
238,305,29778,6,0,L|226:385,1,78.9749963848116,0|0,0:3|0:3,0:3:0:0:
227,384,30207,6,0,L|240:294,1,78.9749963848116
254,198,30421,1,0,0:0:0:0:
124,325,30528,6,0,L|137:235,1,78.9749963848116
151,139,30742,1,0,0:0:0:0:
408,298,30850,6,0,L|395:208,1,78.9749963848116
381,112,31064,1,0,0:0:0:0:
511,239,31171,6,0,L|498:149,1,78.9749963848116
484,53,31385,1,0,0:0:0:0:
484,53,31493,1,0,0:0:0:0:
484,53,31600,1,0,0:0:0:0:
484,53,31707,1,0,0:0:0:0:
309,92,31921,6,0,L|232:111,1,78.9749963848116
155,187,32136,1,0,0:0:0:0:
144,10,32243,6,0,L|122:85,1,78.9749963848116
155,187,32458,1,0,0:0:0:0:
0,110,32564,6,0,L|54:167,1,78.9749963848116
155,187,32779,1,0,0:0:0:0:
17,284,32886,6,0,L|93:265,1,78.9749963848116
155,187,33101,1,0,0:0:0:0:
175,361,33207,6,0,L|199:285,1,78.9749963848116
199,285,33528,1,0,0:0:0:0:
199,285,33636,1,0,0:0:0:0:
199,285,33743,6,0,P|229:244|285:230,1,106.312501013875
299,128,33957,6,0,P|346:144|376:191,1,106.312501013875
353,283,34171,1,0,0:0:0:0:
478,185,34278,1,0,0:0:0:0:
478,185,34386,6,0,P|476:232|437:275,1,106.312501013875
479,369,34600,6,0,P|430:380|376:358,1,106.312501013875
353,283,34814,5,0,0:0:0:0:
353,283,34921,1,0,0:0:0:0:
353,283,35028,1,0,0:0:0:0:
263,317,35136,6,0,P|259:259|286:214,1,109.349996662903
422,347,35350,2,0,P|446:299|441:245,1,109.349996662903
150,384,35564,2,0,P|81:291|112:177,1,218.699993325806
98,195,35886,1,0,0:0:0:0:
190,232,35993,6,0,P|198:174|164:115,1,121.5
30,262,36207,2,0,P|2:209|9:149,1,121.5
325,334,36421,2,0,P|402:242|374:115,1,243
383,127,36743,1,0,0:0:0:0:
289,170,36850,6,0,P|281:112|323:47,1,133.650004078674
446,208,37064,2,0,P|481:153|475:88,1,133.650004078674
171,306,37278,2,0,P|94:214|123:76,1,267.300008157349
121,78,37600,1,0,0:0:0:0:
223,132,37707,6,0,P|233:61|197:0,1,145.799995550537
47,163,37921,2,0,P|10:101|20:30,1,145.799995550537
361,272,38135,2,0,P|438:180|412:14,1,291.599991101075
415,18,38457,1,0,0:0:0:0:
313,67,38564,6,0,P|305:-21|354:-75,1,157.949992769623,0|0,0:0|0:0,0:0:0:0:
218,165,38778,6,0,P|256:104|325:86,1,145.799995550537
99,186,38993,6,0,P|163:170|223:196,1,133.650004078674
13,131,39207,6,0,P|62:158|90:217,1,121.5
72,303,39421,6,0,P|56:345|4:385,1,109.349996662903,0|0,0:3|0:3,0:3:0:0:
150,276,39636,6,0,P|119:291|54:289,1,97.2,0|0,0:3|0:3,0:3:0:0:
224,298,39850,6,0,P|198:292|149:248,1,85.0499974044801,0|0,0:3|0:3,0:3:0:0:
258,350,40064,6,0,P|241:329|233:269,1,72.8999977752686,0|0,0:3|0:3,0:3:0:0:
374,373,40278,5,0,0:0:0:0:
392,357,40386,1,0,0:0:0:0:
413,331,40493,1,0,0:0:0:0:
429,283,40600,1,0,0:0:0:0:
429,223,40707,1,0,0:0:0:0:
408,166,40814,1,0,0:0:0:0:
358,112,40921,1,0,0:0:0:0:
273,86,41028,1,0,0:0:0:0:
167,91,41136,6,0,P|167:47|179:17,1,72.8999977752686,0|0,0:0|0:0,0:0:0:0:
145,150,41243,6,0,P|167:113|193:93,1,63.7874980533601
110,186,41350,6,0,P|148:165|186:162,1,54.6749983314515
69,203,41457,6,0,P|113:204|144:227,1,45.5625017380715
33,226,41564,6,0,P|49:211|59:191,1,36.4499988876343
10,257,41671,6,0,P|16:236|15:213,1,30.375
4,282,41778,6,0,P|1:268|-5:254,1,18.2249994438172,0|0,0:3|0:3,0:3:0:0:
8,303,41886,6,0,P|3:298|-2:293,1,9.11249972190858,0|0,0:3|0:3,0:3:0:0:
55,367,41993,5,0,0:0:0:0:
256,192,42100,12,0,45421,0:0:0:0:
256,192,45850,12,0,48850,0:0:0:0:
256,192,49225,12,0,51850,0:0:0:0:
256,192,52064,12,0,53564,0:0:0:0:
256,192,53778,12,0,55278,0:0:0:0:
3,161,55707,6,0,B|96:139|78:228|175:204,1,182.25
24,251,56136,1,0,0:0:0:0:
265,180,56350,2,0,P|268:212|252:259,1,60.75
150,112,56564,2,0,P|136:45|175:-15,1,121.5
292,68,56886,1,0,0:0:0:0:
292,68,56993,2,0,L|228:60,1,60.75
355,150,57207,2,0,L|418:157,1,60.75
482,71,57421,6,0,B|433:106|433:106|455:230,1,182.25
507,329,57850,2,0,L|422:315,1,60.75
348,306,58064,1,0,0:0:0:0:
115,335,58278,2,0,L|238:317,1,121.5
32,378,58707,2,0,P|22:349|24:319,1,60.75
235,317,58921,2,0,P|244:345|242:375,1,60.75
150,204,59136,6,0,L|126:395,1,182.25
239,181,59564,1,0,0:0:0:0:
48,120,59778,1,0,0:0:0:0:
48,120,59886,1,0,0:0:0:0:
48,120,59993,2,0,B|103:91|103:91|164:112,1,121.5
239,181,60314,1,0,0:0:0:0:
239,181,60421,2,0,L|248:106,1,60.75
256,29,60636,1,0,0:0:0:0:
453,234,60850,6,0,L|435:94,1,121.5
424,29,61171,1,0,0:0:0:0:
424,29,61278,2,0,P|455:35|494:41,1,60.75
341,108,61493,2,0,P|310:112|281:118,1,60.75
321,352,61707,2,0,P|308:292|341:226,1,121.5
220,338,62136,2,0,L|152:345,1,60.75
72,357,62350,1,0,0:0:0:0:
72,357,62457,1,0,0:0:0:0:
23,276,62564,6,0,B|30:209|30:209|68:180|68:180|79:93,1,182.25
262,252,62993,2,0,L|238:104,1,121.5
262,33,63314,1,0,0:0:0:0:
262,33,63421,2,0,L|195:42,1,60.75
76,113,63636,2,0,L|143:104,1,60.75
368,0,63850,2,0,L|351:127,1,121.5
394,320,64171,1,0,0:0:0:0:
490,290,64278,6,0,P|415:223|320:244,1,182.25
285,320,64707,2,0,L|294:382,1,60.75
182,190,64921,2,0,L|191:127,1,60.75
20,324,65136,2,0,P|102:312|204:292,1,182.25
199,293,65564,2,0,P|161:286|125:275,1,60.75
36,111,65778,1,0,0:0:0:0:
36,111,65886,1,0,0:0:0:0:
36,111,65993,6,0,P|45:169|61:252,1,121.5
308,55,66421,2,0,P|300:107|283:196,1,121.5
199,293,66743,1,0,0:0:0:0:
199,293,66850,2,0,P|192:260|180:215,1,60.75
375,265,67064,2,0,P|367:294|361:324,1,60.75
278,384,67278,1,0,0:0:0:0:
287,174,67493,1,0,0:0:0:0:
287,174,67600,1,0,0:0:0:0:
287,174,67707,6,0,P|238:141|157:157,1,121.5
59,344,68136,2,0,P|118:348|168:314,1,121.5
177,144,68457,1,0,0:0:0:0:
173,162,68564,1,0,0:0:0:0:
169,180,68671,1,0,0:0:0:0:
165,198,68778,1,0,0:0:0:0:
162,217,68886,1,0,0:0:0:0:
90,262,68993,5,0,0:0:0:0:
90,262,69421,6,0,B|82:209|22:172|22:172|146:207|203:338|115:464|30:469|-165:363|-70:97|130:21|130:21|151:143|330:178|289:70|369:-19|502:-15|601:181|477:260|308:233|274:91|333:4,1,1600.76253053212
305,25,71136,6,0,P|340:4|394:-4,1,94.1625
483,6,72850,6,0,B|516:104|477:222|429:152|333:232|393:383|393:383|401:305|467:257|546:278|546:278|466:149|380:95|239:137|174:293|266:257|220:355|-24:365|-125:214|-2:52|-2:52|-25:147|58:202|69:141|154:201|115:315,1,1789.08745222621
127,311,74564,6,0,P|101:336|70:332,1,69.8625
58,318,75850,6,0,P|110:337|132:378,1,91.125003476143
229,251,76064,2,0,P|256:305|233:371,1,109.349996662903
121,146,76278,6,0,B|43:165|22:250|22:250|-68:97|81:-58|259:34|299:97|252:145|361:288|559:184|567:8|392:-25|392:-25|318:390|318:390|348:222|148:154|67:263|115:375|211:341,1,1883.25
222,332,77993,6,0,P|217:300|213:264,1,66.825
444,0,79493,6,0,P|295:130|-17:62,1,486
405,361,80136,2,0,P|488:297|436:144,1,243
270,337,80564,6,0,L|245:343,1,24.3
246,342,81207,1,0,0:0:0:0:
16,80,81421,6,0,L|64:405,1,303.75
510,45,81850,2,0,L|462:370,1,303.75
256,181,82278,6,0,L|258:205,1,24.3
256,192,83136,12,0,84850,0:0:0:0:
256,192,84850,12,0,85707,0:0:0:0:
256,192,85707,12,0,86564,0:0:0:0:
256,192,86564,12,0,87421,0:0:0:0:
