osu file format v14

[General]
AudioFilename: audio.mp3
AudioLeadIn: 0
PreviewTime: 421
Countdown: 0
SampleSet: Soft
StackLeniency: 0.2
Mode: 0
LetterboxInBreaks: 0
WidescreenStoryboard: 1

[Editor]
Bookmarks: 850,7707,14564,17564,28278,28493,28814,29028,29136,29457,29671,29778,35136,41993,55707,66957,69421,83136
DistanceSpacing: 0.5
BeatDivisor: 4
GridSize: 4
TimelineZoom: 2.2

[Metadata]
Title:Flashback (TV Size)
TitleUnicode:Flashback (TV Size)
Artist:MIYAVI vs. KenKen
ArtistUnicode:MIYAVI vs. KenKen
Creator:Okoratu
Version:Elvis' Insane
Source:刻刻
Tags:Kokkoku Kokukoku Moment by Moment opening Samurai Sessions volume 2 vol. crazy now Jounzan EvilElvis Seikatsu Seikatu
BeatmapID:1603602
BeatmapSetID:759061

[Difficulty]
HPDrainRate:4
CircleSize:4
OverallDifficulty:7
ApproachRate:9
SliderMultiplier:1.9
SliderTickRate:1

[Events]
//Background and Video events
Video,-6,"flashback.avi"
0,0,"ay.png",0,0
//Break Periods
//Storyboard Layer 0 (Background)
//Storyboard Layer 1 (Fail)
//Storyboard Layer 2 (Pass)
//Storyboard Layer 3 (Foreground)
//Storyboard Sound Samples

[TimingPoints]
-864,428.571428571429,4,2,1,36,1,0
796,-100,4,2,1,16,0,0
850,-100,4,2,1,36,0,0
4225,-100,4,2,1,15,0,0
4278,-100,4,2,1,36,0,0
6850,-100,4,2,1,40,0,0
7278,-76.9230769230769,4,2,1,25,0,0
7707,-100,4,2,1,42,0,0
7921,-100,4,2,1,62,0,0
9207,-100,4,2,1,52,0,0
9314,-100,4,2,1,62,0,0
11993,-100,4,2,1,51,0,0
12207,-100,4,2,1,62,0,0
12850,-100,4,2,1,56,0,0
13707,-76.9230769230769,4,2,1,56,0,0
13921,-76.9230769230769,4,2,1,60,0,0
14028,-76.9230769230769,4,2,1,45,0,0
14082,-76.9230769230769,4,2,1,25,0,0
14564,-100,4,3,1,55,0,1
20564,-100,4,3,1,40,0,1
20671,-100,4,3,1,55,0,1
26564,-200,4,3,1,55,0,1
27421,-100,4,3,1,55,0,1
28278,-76.9230769230769,4,2,1,50,0,0
29778,-200,4,2,1,50,0,0
29993,-76.9230769230769,4,2,1,50,0,0
33636,-76.9230769230769,4,2,1,60,0,0
35564,-200,4,2,1,60,0,0
35993,-76.9230769230769,4,2,1,60,0,0
37278,-200,4,2,1,60,0,0
37707,-76.9230769230769,4,2,1,60,0,0
38564,-76.9230769230769,4,2,1,60,0,1
39421,-100,4,2,1,60,0,1
39636,-111.111111111111,4,2,1,60,0,1
39850,-125,4,2,1,60,0,1
40064,-142.857142857143,4,2,1,60,0,1
40278,-142.857142857143,4,2,1,75,0,1
40493,-142.857142857143,4,2,1,70,0,1
40707,-142.857142857143,4,2,1,65,0,1
40921,-142.857142857143,4,2,1,60,0,1
41136,-76.9230769230769,4,2,1,80,0,1
41993,-200,4,2,1,90,0,0
42046,-200,4,2,2,30,0,0
42421,-200,4,2,1,25,0,0
42850,-200,4,2,2,20,0,0
43707,-200,4,2,1,15,0,0
44564,-200,4,2,2,10,0,0
44993,-200,4,2,1,5,0,0
45421,-200,4,2,1,10,0,0
45850,-200,4,2,1,25,0,0
46278,-200,4,2,2,20,0,0
47136,-200,4,2,1,15,0,0
47886,-200,4,2,2,10,0,0
48421,-200,4,2,1,5,0,0
48850,-200,4,2,1,10,0,0
49278,-200,4,2,1,25,0,0
49707,-200,4,2,2,20,0,0
50564,-200,4,2,1,15,0,0
51207,-200,4,2,2,10,0,0
51582,-200,4,2,1,5,0,0
51850,-200,4,2,1,15,0,0
52064,-200,4,2,1,20,0,0
55707,-66.6666666666667,4,2,1,70,0,0
56028,-66.6666666666667,4,2,1,50,0,0
56350,-90.9090909090909,4,2,1,50,0,0
68993,-90.9090909090909,4,2,1,60,0,0
69421,-76.9230769230769,4,3,1,67,0,1
77993,-76.9230769230769,4,3,1,52,0,1
78207,-76.9230769230769,4,3,1,67,0,1
81207,-76.9230769230769,4,3,1,50,0,1
82707,-66.6666666666667,4,3,1,50,0,1
83136,-66.6666666666667,4,2,1,50,0,0
83511,-66.6666666666667,4,2,1,30,0,0
87421,-66.6666666666667,4,2,1,21,0,0

[Colours]
Combo1 : 255,119,119
Combo2 : 136,203,255
Combo3 : 172,102,215
Combo4 : 125,143,244
Combo5 : 240,121,228
Combo6 : 212,212,212
Combo7 : 143,143,143
Combo8 : 232,32,32

[HitObjects]
100,45,636,6,0,P|100:70|103:124,1,71.25,2|0,0:2|0:0,0:0:0:0:
107,157,850,1,8,1:2:0:0:
403,352,2028,21,8,1:2:0:0:
403,352,2350,1,2,1:2:0:0:
403,32,3421,85,8,1:2:0:0:
403,32,3743,1,0,1:0:0:0:
403,32,4064,2,0,P|346:29|327:33,1,71.25,2|0,1:2|0:0,0:0:0:0:
292,36,4278,1,0,1:0:0:0:
109,352,5457,21,8,1:2:0:0:
109,352,5779,1,2,1:2:0:0:
253,197,6850,85,0,3:0:0:0:
253,197,6957,1,2,3:0:0:0:
253,197,7064,1,0,3:0:0:0:
253,197,7171,1,2,3:2:0:0:
253,197,7278,2,0,B|326:159|321:241|417:215,1,154.374992933274,8|0,1:2|0:0,0:0:0:0:
512,115,7707,38,0,P|450:122|363:114,1,142.5,4|0,1:2|3:2,0:0:0:0:
323,95,8136,1,10,1:1:0:0:
194,44,8457,1,0,0:0:0:0:
150,45,8564,2,0,P|119:52|44:55,1,95,10|0,1:2|3:3,0:0:0:0:
56,55,8886,1,10,1:2:0:0:
56,55,8993,1,0,0:0:0:0:
45,174,9207,86,0,P|47:209|46:291,1,95,2|8,1:3|1:2,0:0:0:0:
127,351,9636,1,8,1:2:0:0:
212,285,9850,1,8,1:0:0:0:
302,348,10064,1,2,0:0:0:0:
313,320,10171,1,8,0:0:0:0:
361,221,10386,1,2,0:0:0:0:
372,249,10493,1,8,0:0:0:0:
461,319,10707,1,8,3:1:0:0:
509,187,10921,22,0,P|509:155|501:81,1,95,0|2,3:2|1:2,0:0:0:0:
398,93,11350,1,0,0:0:0:0:
400,197,11564,1,10,0:1:0:0:
295,196,11778,1,0,0:0:0:0:
295,196,11886,1,0,3:0:0:0:
295,196,11993,1,10,1:2:0:0:
289,91,12207,1,0,3:0:0:0:
184,85,12421,1,8,0:1:0:0:
178,189,12636,1,2,1:2:0:0:
130,353,12850,53,8,3:2:0:0:
131,329,12957,1,2,3:0:0:0:
128,305,13064,1,0,3:0:0:0:
121,282,13171,1,2,3:0:0:0:
114,259,13278,1,8,3:2:0:0:
109,235,13386,1,2,3:0:0:0:
109,211,13493,1,0,3:0:0:0:
110,187,13600,1,2,3:0:0:0:
117,162,13707,102,0,L|69:165,1,30.8749985866547,8|0,3:2|3:2,0:0:0:0:
123,155,13814,2,0,L|75:158,1,30.8749985866547,0|0,3:2|3:2,0:0:0:0:
131,127,13921,6,0,L|179:130,1,30.8749985866547,0|0,3:2|3:2,0:0:0:0:
125,120,14028,2,0,L|173:123,1,30.8749985866547,0|2,3:2|3:0,0:0:0:0:
77,83,14564,54,0,P|76:124|83:227,1,142.5,6|0,1:2|0:0,0:0:0:0:
91,256,14993,2,0,P|62:256|32:260,1,47.5,10|0,1:0|0:0,0:0:0:0:
161,244,15207,1,8,1:2:0:0:
282,190,15421,2,0,B|346:176|356:236|433:229,1,142.5,2|8,1:0|1:2,0:0:0:0:
449,251,15850,2,0,P|408:258|396:268,1,47.5,10|0,1:1|0:0,0:0:0:0:
510,212,16064,69,2,1:0:0:0:
510,212,16493,2,2,P|508:177|512:108,1,95,2|8,0:1|1:0,0:0:0:0:
436,124,16921,1,2,0:2:0:0:
370,97,17136,2,0,L|302:106,1,47.5,8|0,1:2|0:0,0:0:0:0:
132,52,17457,1,8,1:2:0:0:
132,52,17564,2,0,P|131:103|140:162,1,95,10|10,1:0|1:2,0:0:0:0:
104,368,17993,6,0,P|106:304|100:217,1,142.5,10|0,1:2|0:0,0:0:0:0:
71,193,18421,2,0,L|16:206,1,47.5,10|0,1:0|0:0,0:0:0:0:
123,149,18636,1,8,1:2:0:0:
195,267,18850,2,0,L|337:294,1,142.5,2|0,1:0|1:0,0:0:0:0:
368,283,19278,2,0,L|415:289,1,47.5,10|0,1:0|0:0,0:0:0:0:
483,256,19493,1,2,1:0:0:0:
232,121,19921,5,2,0:1:0:0:
318,56,20136,1,8,1:0:0:0:
267,147,20350,2,0,P|266:179|269:213,1,47.5,2|0,0:2|0:0,0:0:0:0:
242,48,20564,70,0,P|244:32|239:-8,1,47.5,2|0,0:1|0:0,0:0:0:0:
236,58,20778,2,0,P|238:42|233:2,1,47.5,2|8,0:2|1:2,0:0:0:0:
72,23,20993,102,0,P|70:39|75:79,1,47.5,10|0,1:1|0:0,0:0:0:0:
78,13,21207,2,0,P|76:29|81:69,1,47.5,10|0,1:2|0:0,0:0:0:0:
184,164,21421,70,0,P|235:163|341:166,1,142.5,10|0,1:2|0:0,0:0:0:0:
344,134,21850,2,0,P|345:101|344:71,1,47.5,10|0,1:0|0:0,0:0:0:0:
392,191,22064,1,8,1:2:0:0:
484,24,22278,2,0,P|486:70|491:177,1,142.5,2|0,1:0|1:0,0:0:0:0:
484,207,22707,2,0,L|487:263,1,47.5,10|0,1:0|0:0,0:0:0:0:
472,326,22921,1,2,1:0:0:0:
472,326,23350,70,2,P|427:326|367:331,1,95,2|8,0:1|1:0,0:0:0:0:
257,218,23778,1,2,0:2:0:0:
330,215,23993,2,0,P|351:215|378:213,1,47.5,8|0,1:2|0:0,0:0:0:0:
499,129,24314,1,8,1:2:0:0:
499,129,24421,2,0,P|472:129|444:132,1,47.5,10|0,1:0|0:0,0:0:0:0:
493,117,24636,2,0,P|466:117|438:120,1,47.5,10|0,1:2|0:0,0:0:0:0:
393,57,24850,6,0,B|323:44|332:104|252:97,1,142.5,10|0,1:2|0:0,0:0:0:0:
237,122,25278,2,0,P|209:125|188:138,1,47.5,10|0,1:0|0:0,0:0:0:0:
298,166,25493,1,8,1:2:0:0:
59,136,25707,2,0,P|96:149|141:194,1,95,2|0,1:0|0:0,0:0:0:0:
160,221,26028,1,0,1:0:0:0:
170,270,26136,2,0,P|172:295|169:325,1,47.5,10|0,1:0|0:0,0:0:0:0:
124,372,26350,1,2,1:0:0:0:
15,178,26564,54,2,P|12:144|16:32,1,142.5,6|0,0:2|2:0,2:0:0:0:
15,35,27421,6,0,P|41:36|72:38,1,47.5,8|0,1:2|0:0,0:0:0:0:
138,26,27636,1,0,0:0:0:0:
212,52,27743,1,2,1:3:0:0:
283,36,27850,2,0,P|325:36|385:43,1,95,0|0,0:0|1:3,0:0:0:0:
510,199,28278,38,0,P|470:205|378:200,1,123.499994346619,8|2,1:0|0:2,0:0:0:0:
323,235,28600,1,2,0:0:0:0:
252,202,28707,1,8,1:0:0:0:
181,228,28814,2,0,L|118:235,1,61.7499971733095,2|2,3:2|0:0,0:0:0:0:
52,200,29028,1,0,3:0:0:0:
7,141,29136,22,0,L|163:130,1,154.374992933274,8|0,1:0|0:0,0:0:0:0:
11,129,29457,2,0,L|167:118,1,154.374992933274,10|0,1:2|0:0,0:0:0:0:
168,110,29778,86,0,L|126:114,1,35.625,8|0,1:2|0:0,0:0:0:0:
241,96,29993,22,0,P|246:161|245:246,1,123.499994346619,8|2,1:0|0:0,0:0:0:0:
266,294,30314,1,2,0:0:0:0:
336,266,30421,1,8,1:0:0:0:
407,294,30528,2,0,P|438:291|481:290,1,61.7499971733095,2|0,3:2|0:0,0:0:0:0:
505,226,30743,1,0,3:0:0:0:
451,171,30850,86,0,P|448:133|447:54,1,92.6249957599642,8|0,1:0|0:0,0:0:0:0:
436,94,31064,2,0,P|437:138|441:165,1,61.7499971733095,0|10,3:1|1:2,0:0:0:0:
407,294,31278,2,0,P|406:250|402:223,1,61.7499971733095,8|0,1:0|3:0,0:0:0:0:
346,163,31493,1,10,1:2:0:0:
296,232,31600,1,2,1:3:0:0:
249,147,31707,22,0,P|246:99|247:11,1,123.499994346619,8|2,1:0|0:0,0:0:0:0:
173,50,32028,1,0,0:0:0:0:
107,16,32136,1,8,1:0:0:0:
37,49,32243,2,0,L|40:126,1,61.7499971733095,2|0,3:2|0:0,0:0:0:0:
71,180,32457,1,0,3:0:0:0:
32,256,32564,86,0,P|95:251|189:256,1,154.374992933274,8|0,1:0|0:0,0:0:0:0:
34,272,32886,2,0,P|97:267|170:274,1,123.499994346619,10|0,1:2|3:0,0:0:0:0:
258,233,33207,1,10,1:2:0:0:
360,268,33314,1,0,3:0:0:0:
472,150,33421,86,0,P|467:119|467:80,1,61.7499971733095,8|0,1:0|0:0,0:0:0:0:
487,242,33636,1,2,0:0:0:0:
488,166,33743,2,0,B|429:149|429:205|344:196,2,123.499994346619,2|2|2,0:1|0:1|0:0,0:0:0:0:
373,112,34278,1,10,1:0:0:0:
304,143,34386,2,0,P|257:136|205:146,1,92.6249957599642,2|0,0:0|0:0,0:0:0:0:
199,161,34600,2,0,P|153:153|107:161,1,92.6249957599642,10|0,1:0|0:0,0:0:0:0:
118,145,34814,1,2,0:2:0:0:
129,229,34921,1,10,1:0:0:0:
125,315,35028,1,2,1:3:0:0:
60,259,35136,6,0,P|30:258|-5:270,1,61.7499971733095,8|0,1:0|0:0,0:0:0:0:
196,264,35350,2,0,P|226:263|261:275,1,61.7499971733095,2|0,3:2|0:0,0:0:0:0:
259,286,35564,22,0,P|229:276|185:280,1,71.25,8|0,1:0|0:0,0:0:0:0:
326,321,35993,6,0,L|390:319,1,61.7499971733095,8|0,1:0|0:0,0:0:0:0:
320,242,36207,1,2,3:2:0:0:
320,242,36314,2,0,P|316:203|321:112,1,123.499994346619,8|0,1:2|0:0,0:0:0:0:
288,41,36636,2,0,L|221:42,1,61.7499971733095,8|0,1:2|0:0,0:0:0:0:
170,101,36850,70,0,P|210:119|237:118,1,61.7499971733095,8|0,1:0|0:0,0:0:0:0:
405,110,37064,2,0,P|435:106|462:91,1,61.7499971733095,2|0,3:2|0:0,0:0:0:0:
475,102,37278,22,0,P|445:121|401:128,1,71.25,8|0,1:0|0:0,0:0:0:0:
317,165,37707,6,0,L|322:237,1,61.7499971733095,8|0,1:0|0:0,0:0:0:0:
225,196,37921,1,2,3:2:0:0:
225,196,38028,2,0,B|169:183|163:227|88:217,1,123.499994346619,8|0,1:2|0:0,0:0:0:0:
12,174,38350,2,0,L|7:246,1,61.7499971733095,8|0,1:2|0:0,0:0:0:0:
212,352,38564,86,0,L|215:286,1,61.7499971733095,10|0,1:0|0:0,0:0:0:0:
228,350,38778,2,2,L|214:289,1,61.7499971733095,10|0,1:2|0:0,0:3:0:0:
248,341,38993,2,0,L|212:287,1,61.7499971733095,10|0,1:0|0:0,0:0:0:0:
264,325,39207,2,2,L|203:281,1,61.7499971733095,10|0,1:2|0:0,0:3:0:0:
286,205,39421,22,0,L|217:218,1,47.5,10|0,1:1|0:0,0:0:0:0:
243,115,39636,70,2,L|198:139,1,42.7499986953736,10|8,1:2|1:2,0:3:0:0:
154,43,39850,22,0,L|141:80,1,38,10|0,1:0|0:0,0:0:0:0:
53,40,40064,102,2,L|61:79,1,33.2499989852906,10|0,1:2|0:0,0:3:0:0:
213,164,40278,85,8,3:1:0:0:
229,176,40386,1,2,3:3:0:0:
248,180,40493,1,8,3:1:0:0:
267,176,40600,1,0,3:2:0:0:
284,165,40707,1,8,3:1:0:0:
295,148,40814,1,2,3:3:0:0:
295,128,40921,1,8,3:1:0:0:
287,109,41028,1,0,3:2:0:0:
268,96,41136,102,0,L|276:148,1,30.8749985866547,2|0,3:2|3:0,0:0:0:0:
264,128,41243,2,0,L|272:180,1,30.8749985866547,0|0,3:0|3:0,0:0:0:0:
258,159,41350,2,0,L|266:211,1,30.8749985866547,0|0,3:0|3:0,0:0:0:0:
254,186,41457,2,0,L|262:238,1,30.8749985866547,0|0,3:0|0:0,0:0:0:0:
252,212,41564,6,0,L|260:264,1,30.8749985866547,0|0,3:2|3:0,0:0:0:0:
245,218,41671,2,0,L|249:248,1,30.8749985866547,0|0,3:0|3:0,0:0:0:0:
241,224,41778,2,0,L|245:254,1,30.8749985866547,0|0,3:0|3:0,0:0:0:0:
237,230,41886,2,0,L|241:260,1,30.8749985866547,0|0,3:0|0:0,0:0:0:0:
192,240,41993,86,2,P|238:307|240:73,1,760,8|0,1:2|0:0,0:0:0:0:
305,252,45850,102,2,P|259:319|173:53,1,665,2|0,0:2|0:0,0:0:0:0:
487,192,49278,6,2,B|501:270|361:293|363:158|363:158|368:1|220:29|229:98,1,475,2|0,0:0|0:0,0:0:0:0:
231,245,51850,101,2,0:0:0:0:
284,298,52064,2,0,P|314:295|381:295,1,95,2|0,0:0|0:0,0:0:0:0:
378,294,52707,1,2,0:0:0:0:
378,294,52921,1,0,0:0:0:0:
378,294,53136,1,0,0:0:0:0:
284,298,53778,6,0,P|314:295|381:295,1,95,2|0,0:0|0:0,0:0:0:0:
378,294,54421,1,0,0:0:0:0:
378,294,54635,1,0,0:0:0:0:
378,294,54850,2,0,P|344:293|284:298,1,95,2|0,0:0|0:0,0:0:0:0:
77,50,55707,38,0,P|83:154|87:344,1,285.000010871888,4|8,1:0|1:2,0:0:0:0:
184,221,56350,1,0,0:0:0:0:
198,148,56457,1,0,0:0:0:0:
217,220,56564,2,0,P|214:279|219:335,1,104.500003189087,8|0,1:2|0:0,0:0:0:0:
344,197,56993,2,0,L|419:191,1,52.2500015945435,10|0,1:0|0:0,0:0:0:0:
506,172,57207,22,0,P|439:173|325:71,1,209.000006378174,2|0,0:0|0:0,0:0:0:0:
305,21,57743,1,0,0:0:0:0:
297,96,57850,2,0,P|302:154|300:210,1,104.500003189087,8|0,1:0|0:0,0:0:0:0:
139,180,58278,2,0,L|70:194,1,52.2500015945435,10|0,1:2|0:0,0:0:0:0:
35,139,58493,1,0,0:0:0:0:
89,82,58600,1,0,0:0:0:0:
45,17,58707,2,0,L|167:35,1,104.500003189087,10|0,1:0|0:2,0:0:0:0:
239,114,59136,6,0,P|301:103|455:140,1,209.000006378174,10|8,1:2|1:0,0:0:0:0:
306,218,59778,1,0,0:0:0:0:
318,299,59886,1,0,0:0:0:0:
266,242,59993,2,0,P|226:231|164:246,1,104.500003189087,10|0,1:2|0:0,0:0:0:0:
99,285,60314,1,0,0:2:0:0:
32,246,60421,2,0,L|19:183,1,52.2500015945435,10|0,1:0|0:0,0:0:0:0:
48,122,60636,86,0,L|20:351,1,209.000006378174,2|2,3:2|0:0,0:0:0:0:
93,367,61171,1,0,0:0:0:0:
155,320,61278,2,0,P|211:312|269:334,1,104.500003189087,8|0,1:0|0:0,0:0:0:0:
390,244,61707,2,0,L|450:233,1,52.2500015945435,10|0,1:2|0:0,0:0:0:0:
487,172,61921,1,0,0:0:0:0:
418,133,62028,1,0,0:0:0:0:
476,89,62136,2,0,L|349:80,1,104.500003189087,10|0,1:0|0:0,0:0:0:0:
371,81,62457,1,0,0:0:0:0:
377,88,62564,102,0,P|371:154|372:315,1,209.000006378174,10|10,1:2|1:0,0:0:0:0:
230,190,63207,1,0,0:0:0:0:
183,255,63314,1,0,0:0:0:0:
127,202,63421,2,0,P|77:194|13:213,1,104.500003189087,2|0,1:2|0:0,0:0:0:0:
63,119,63743,1,2,3:2:0:0:
0,19,63850,2,0,P|5:51|5:92,1,52.2500015945435,10|0,3:1|0:0,0:0:0:0:
134,102,64064,22,0,B|243:66|212:179|339:157,1,209.000006378174,2|0,0:1|0:0,0:0:0:0:
399,173,64600,1,0,0:0:0:0:
324,187,64707,2,0,P|293:196|251:261,1,104.500003189087,8|0,1:0|0:0,0:0:0:0:
493,367,65136,2,0,P|496:309|461:207,1,156.750004783631,10|0,1:2|0:0,0:0:0:0:
375,253,65564,2,0,L|345:322,1,52.2500015945435,10|0,1:0|0:0,0:0:0:0:
250,338,65778,6,0,P|181:312|83:335,1,156.750004783631,2|0,0:0|0:0,0:0:0:0:
97,313,66207,2,0,P|101:297|95:253,1,52.2500015945435,2|0,0:1|0:0,0:0:0:0:
105,311,66421,2,0,P|109:295|103:251,1,52.2500015945435,8|0,1:0|0:0,0:0:0:0:
110,127,66636,2,0,P|106:143|112:187,1,52.2500015945435,2|0,0:1|0:0,0:0:0:0:
105,120,66850,2,0,P|101:136|239:212,1,209.000006378174,0|8,1:2|1:0,0:0:0:0:
327,37,67493,86,0,L|150:53,1,156.750004783631,2|0,0:0|0:0,0:0:0:0:
176,71,67921,2,0,L|231:67,1,52.2500015945435,2|0,0:2|0:0,0:0:0:0:
177,81,68136,2,0,L|232:77,1,52.2500015945435,10|0,1:0|0:0,0:0:0:0:
342,139,68350,2,0,L|287:135,1,52.2500015945435,2|0,0:0|0:0,0:0:0:0:
341,149,68565,2,0,L|286:145,1,52.2500015945435,2|0,3:1|0:0,0:0:0:0:
218,176,68778,1,2,3:2:0:0:
265,238,68886,1,0,3:0:0:0:
232,308,68993,2,0,B|140:238|65:338,1,182.875005580902,8|0,1:0|0:0,0:0:0:0:
47,339,69421,70,2,L|142:352,1,92.6249957599642,6|0,1:0|0:0,0:0:0:0:
171,368,69636,1,0,0:0:0:0:
273,326,69743,1,0,0:0:0:0:
398,374,69850,2,0,P|406:322|389:230,1,123.499994346619,8|2,1:0|2:2,0:0:0:0:
412,31,70278,2,0,P|411:77|419:122,1,92.6249957599642,2|0,1:0|0:0,0:0:0:0:
400,114,70493,1,0,0:0:0:0:
321,167,70600,1,0,0:0:0:0:
242,117,70707,2,0,L|176:112,1,61.7499971733095,8|0,1:0|0:0,0:0:0:0:
236,202,70921,6,2,P|136:196|61:280,1,216.124990106583,2|0,0:2|0:0,0:0:0:0:
46,260,71350,1,2,0:3:0:0:
11,339,71457,1,0,0:0:0:0:
96,367,71564,2,0,L|167:355,1,61.7499971733095,8|0,1:0|0:0,0:0:0:0:
252,366,71778,2,0,L|243:296,1,61.7499971733095,0|0,0:0|0:0,0:0:0:0:
299,214,71993,2,0,L|289:109,1,92.6249957599642,10|0,1:2|0:0,0:0:0:0:
305,86,72207,1,0,0:0:0:0:
367,40,72314,1,0,0:0:0:0:
425,92,72421,1,10,1:0:0:0:
425,92,72636,1,0,0:0:0:0:
298,295,72850,102,0,P|230:293|134:181,1,216.124990106583,6|0,1:2|0:0,0:0:0:0:
122,201,73278,2,0,P|119:162|123:123,1,61.7499971733095,8|0,1:0|0:0,0:0:0:0:
138,63,73493,1,2,0:2:0:0:
56,251,73707,2,0,P|61:305|61:364,1,92.6249957599642,2|0,1:0|0:0,0:0:0:0:
85,319,73921,1,0,0:0:0:0:
158,362,74028,1,8,0:2:0:0:
233,316,74136,2,0,L|302:319,1,61.7499971733095,8|0,1:0|0:0,0:0:0:0:
319,211,74350,6,2,P|368:185|511:274,1,216.124990106583,2|0,0:2|0:0,0:0:0:0:
478,236,74778,1,2,0:3:0:0:
414,288,74886,1,0,0:0:0:0:
410,377,74993,2,0,P|443:378|469:367,1,61.7499971733095,8|0,1:0|0:0,0:0:0:0:
320,283,75207,2,0,P|328:325|339:347,1,61.7499971733095,0|0,0:0|0:0,0:0:0:0:
414,199,75421,2,0,P|410:152|413:89,1,92.6249957599642,10|0,1:2|0:0,0:0:0:0:
388,123,75636,1,0,0:0:0:0:
374,44,75743,1,0,0:0:0:0:
296,62,75850,1,10,1:0:0:0:
296,62,76064,102,0,L|216:70,1,61.7499971733095,2|0,0:1|0:1,0:0:0:0:
24,173,76278,2,0,B|137:211|118:110|243:147,1,216.124990106583,10|0,1:2|0:0,0:0:0:0:
258,164,76707,2,0,P|213:164|190:174,1,61.7499971733095,10|0,1:0|0:0,0:0:0:0:
327,128,76921,1,0,0:0:0:0:
193,246,77136,2,0,P|122:270|95:298,1,92.6249957599642,2|0,1:0|0:0,0:0:0:0:
95,306,77350,1,0,0:0:0:0:
139,365,77457,1,0,0:0:0:0:
213,346,77564,2,0,P|241:343|277:347,1,61.7499971733095,10|0,1:0|0:0,0:0:0:0:
309,238,77778,6,0,P|306:190|311:9,1,216.124990106583,2|0,0:2|0:0,0:0:0:0:
323,48,78207,1,2,3:3:0:0:
398,19,78314,1,2,3:3:0:0:
463,65,78421,2,0,P|468:100|467:137,1,61.7499971733095,8|0,1:1|0:0,0:0:0:0:
470,262,78636,2,0,P|465:227|466:190,1,61.7499971733095,2|0,0:2|0:0,0:0:0:0:
445,219,78850,2,0,P|450:279|321:380,1,216.124990106583,2|0,1:0|0:0,0:0:0:0:
311,358,79278,2,0,L|222:353,1,61.7499971733095,8|0,1:0|0:0,0:0:0:0:
165,200,79493,102,0,P|92:210|30:304,1,185.249991519928,2|0,0:1|0:0,0:0:0:0:
219,258,79921,2,0,P|250:253|296:262,1,61.7499971733095,2|0,0:1|0:0,0:0:0:0:
419,262,80136,2,0,P|388:258|358:263,1,61.7499971733095,8|0,1:0|0:0,0:0:0:0:
421,235,80350,6,0,P|390:230|344:239,1,61.7499971733095,2|0,0:1|0:0,0:0:0:0:
221,239,80565,2,0,P|251:235|281:240,1,61.7499971733095,10|0,1:2|0:0,0:0:0:0:
317,171,80778,1,0,0:0:0:0:
281,100,80886,1,0,0:0:0:0:
319,36,80993,2,0,L|386:49,1,61.7499971733095,8|0,1:0|0:0,0:0:0:0:
215,153,81207,102,0,L|104:129,1,92.6249957599642,2|0,0:1|0:0,0:0:0:0:
88,143,81421,1,2,0:2:0:0:
22,183,81528,1,0,0:0:0:0:
25,257,81636,1,2,0:1:0:0:
92,289,81743,1,0,0:0:0:0:
34,249,81850,6,0,P|22:287|21:328,1,61.7499971733095,8|0,0:1|0:0,0:0:0:0:
174,301,82064,2,0,P|170:270|160:241,1,61.7499971733095,2|0,0:1|0:0,0:0:0:0:
73,372,82278,102,0,L|134:364,1,61.7499971733095,2|0,0:2|0:0,0:0:0:0:
350,302,82493,2,0,L|289:294,1,61.7499971733095,0|0,0:0|0:0,0:0:0:0:
169,155,82707,102,0,P|237:128|412:249,1,285.000010871888,8|2,1:1|0:0,0:0:0:0:
