osu file format v14

[General]
AudioFilename: audio.mp3
AudioLeadIn: 0
PreviewTime: 31600
Countdown: 0
SampleSet: None
StackLeniency: 0.5
Mode: 0
LetterboxInBreaks: 0
WidescreenStoryboard: 1

[Editor]
Bookmarks: 850,7707,14564,28278,35136,41993,55707,69421,83136
DistanceSpacing: 1
BeatDivisor: 4
GridSize: 32
TimelineZoom: 1.5

[Metadata]
Title:Flashback
TitleUnicode:Flashback
Artist:MIYAVI vs KenKen
ArtistUnicode:MIYAVI vs KenKen
Creator:Shiguma
Version:Expert
Source:刻刻
Tags:Kokkoku Kokukoku Moment by Moment opening Samurai Sessions volume 2 vol. crazy now yaspo Spork Lover Swell
BeatmapID:1522613
BeatmapSetID:721011

[Difficulty]
HPDrainRate:6.5
CircleSize:3.5
OverallDifficulty:8
ApproachRate:9.1
SliderMultiplier:2.2
SliderTickRate:1

[Events]
//Background and Video events
Video,-6,"flashback.avi"
0,0,"kokkoku.png",0,0
//Break Periods
2,42193,55092
//Storyboard Layer 0 (Background)
//Storyboard Layer 1 (Fail)
//Storyboard Layer 2 (Pass)
//Storyboard Layer 3 (Foreground)
//Storyboard Sound Samples

[TimingPoints]
-864,428.571428571429,4,3,1,55,1,0
7707,-83.3333333333333,4,3,1,62,0,0
12850,-83.3333333333333,4,3,1,64,0,0
13278,-83.3333333333333,4,3,1,66,0,0
13707,-83.3333333333333,4,3,1,68,0,0
13921,-83.3333333333333,4,3,1,70,0,0
14564,-76.9230769230769,4,3,1,75,0,1
16493,-76.9230769230769,4,3,1,60,0,1
16921,-76.9230769230769,4,3,1,75,0,1
19921,-76.9230769230769,4,3,1,60,0,1
20350,-76.9230769230769,4,3,1,75,0,1
23350,-76.9230769230769,4,3,1,60,0,1
23778,-76.9230769230769,4,3,1,75,0,1
28278,-83.3333333333333,4,3,1,70,0,0
33636,-83.3333333333333,4,3,1,75,0,0
35136,-76.9230769230769,4,3,1,65,0,0
35993,-71.4285714285714,4,3,1,65,0,0
36850,-66.6666666666667,4,3,1,65,0,0
37707,-62.5,4,3,1,65,0,0
38564,-57.1428571428571,4,3,1,70,0,1
40278,-57.1428571428571,4,3,1,75,0,1
40493,-57.1428571428571,4,3,1,70,0,1
40707,-57.1428571428571,4,3,1,65,0,1
40921,-57.1428571428571,4,3,1,60,0,1
41136,-57.1428571428571,4,3,1,80,0,1
41993,-200,4,3,1,60,0,0
55707,-100,4,3,1,60,0,0
63743,-100,4,3,1,60,0,0
64064,-100,4,3,1,60,0,0
69421,-74.0740740740741,4,3,1,70,0,1
83136,-200,4,3,1,50,0,0
87421,-200,4,3,1,60,0,0

[Colours]
Combo1 : 248,201,39
Combo2 : 179,0,0
Combo3 : 219,129,6
Combo4 : 255,26,26

[HitObjects]
20,16,636,5,2,2:3:0:0:
183,100,850,2,0,P|236:115|294:95,1,110,4|0,2:3|2:3,2:3:0:0:
445,26,1278,1,0,2:3:0:0:
339,168,1707,6,0,P|287:184|235:169,1,110,2|0,2:3|2:3,2:3:0:0:
153,111,2028,5,4,2:3:0:0:
298,384,2350,1,4,2:3:0:0:
121,303,2564,2,0,P|89:259|86:201,1,110,2|0,2:3|2:3,2:3:0:0:
268,210,2993,2,0,P|300:254|303:312,1,110,0|0,2:3|2:3,2:3:0:0:
111,81,3421,5,4,2:3:0:0:
43,354,3743,1,4,2:3:0:0:
234,85,4064,1,4,2:3:0:0:
178,227,4278,6,0,P|202:274|252:294,1,110,2|0,2:3|2:3,2:3:0:0:
421,246,4707,2,0,P|396:198|346:178,1,110,0|0,2:3|2:3,2:3:0:0:
178,227,5136,2,0,P|121:229|62:176,1,110,2|0,2:3|2:3,2:3:0:0:
2,103,5457,5,4,2:3:0:0:
257,177,5778,1,4,2:3:0:0:
67,310,5993,6,0,L|81:173,1,110,2|0,2:3|2:3,2:3:0:0:
246,67,6421,2,0,L|257:176,1,110,0|0,2:3|2:3,2:3:0:0:
388,319,6850,5,8,2:3:0:0:
433,288,6957,1,0,2:3:0:0:
448,235,7064,1,8,2:3:0:0:
434,181,7171,1,0,2:3:0:0:
357,212,7278,2,0,P|298:204|239:153,1,110,4|0,2:3|2:3,2:3:0:0:
472,113,7707,5,2,0:0:0:0:
275,61,7921,1,0,0:0:0:0:
275,61,8028,1,0,0:0:0:0:
295,111,8136,2,0,P|232:119|165:88,1,131.99999597168,8|0,0:0|2:0,0:0:0:0:
0,0,8564,1,0,1:0:0:0:
46,216,8778,1,0,0:0:0:0:
46,216,8886,1,0,0:0:0:0:
82,173,8993,1,8,0:0:0:0:
137,384,9207,1,0,1:0:0:0:
311,243,9421,6,0,P|322:274|318:306,1,65.9999979858399,2|0,0:0|0:0,0:0:0:0:
290,380,9636,1,0,0:0:0:0:
104,227,9850,1,8,0:0:0:0:
213,381,10064,1,0,0:0:0:0:
346,188,10278,2,0,P|354:252|318:306,1,131.99999597168,0|0,1:0|2:0,0:0:0:0:
272,158,10600,1,0,0:0:0:0:
199,130,10707,1,8,0:0:0:0:
419,216,10921,1,4,0:0:0:0:
209,212,11136,5,2,0:0:0:0:
68,65,11350,1,0,0:0:0:0:
68,65,11457,1,0,0:0:0:0:
42,116,11564,1,8,0:0:0:0:
272,158,11778,1,0,0:0:0:0:
78,247,11993,1,0,1:0:0:0:
216,63,12207,1,0,0:0:0:0:
216,63,12314,1,0,0:0:0:0:
242,114,12421,1,8,0:0:0:0:
431,77,12636,1,0,1:0:0:0:
296,248,12850,5,4,0:0:0:0:
258,293,12957,1,0,0:0:0:0:
200,307,13064,1,8,0:0:0:0:
142,293,13171,1,0,0:0:0:0:
103,239,13278,1,4,0:0:0:0:
173,214,13386,1,0,0:0:0:0:
247,188,13493,1,8,0:0:0:0:
328,162,13600,1,0,0:0:0:0:
394,216,13707,6,0,L|413:278,1,32.99999899292,4|0,0:0|0:0,0:0:0:0:
324,246,13814,2,0,L|326:310,1,32.99999899292
246,242,13921,2,0,L|231:305,1,32.99999899292,8|0,0:0|0:0,0:0:0:0:
173,214,14028,2,0,L|142:271,1,32.99999899292
30,24,14564,6,0,B|15:95|15:95|36:169,1,142.99999345398,0|0,1:0|2:0,0:0:0:0:
219,6,14993,1,2,0:0:0:0:
143,252,15207,1,0,0:0:0:0:
331,86,15421,2,0,B|389:43|389:43|488:37,1,142.99999345398,0|0,1:0|2:0,0:0:0:0:
249,80,15743,1,0,0:0:0:0:
197,142,15850,1,8,0:0:0:0:
428,183,16064,2,0,B|452:249|452:249|426:323,1,142.99999345398,0|0,1:0|2:0,0:0:0:0:
150,307,16493,6,0,B|116:260|128:202|128:202|99:240,1,142.99999345398,4|0,0:2|1:0,0:0:0:0:
211,48,16921,6,0,P|251:46|290:63,1,71.4999967269899,8|0,0:0|2:0,0:0:0:0:
368,132,17136,2,0,P|328:130|289:147,1,71.4999967269899,4|0,0:0|2:0,0:0:0:0:
182,202,17350,2,0,P|222:200|261:217,1,71.4999967269899,0|4,0:0|0:0,0:0:0:0:
348,253,17564,5,4,0:0:0:0:
119,111,17778,1,4,0:0:0:0:
77,336,17993,6,0,B|26:287|26:287|17:204,1,142.99999345398,0|0,1:0|2:0,0:0:0:0:
233,322,18421,1,2,0:0:0:0:
378,121,18636,1,0,0:0:0:0:
124,213,18850,2,0,B|93:148|93:148|103:66,1,142.99999345398,0|0,1:0|2:0,0:0:0:0:
194,178,19171,1,0,0:0:0:0:
263,214,19278,1,8,0:0:0:0:
25,67,19493,2,0,B|82:25|82:25|182:16,1,142.99999345398,0|0,1:0|2:0,0:0:0:0:
418,14,19921,6,0,B|441:74|401:117|401:117|446:108,1,142.99999345398,4|0,0:2|1:0,0:0:0:0:
244,64,20350,6,0,P|224:99|216:138,1,71.4999967269899,8|0,0:0|2:0,0:0:0:0:
118,178,20564,2,0,P|109:143|110:108,1,71.4999967269899,4|0,0:0|2:0,0:0:0:0:
16,209,20778,2,0,P|36:243|66:270,1,71.4999967269899,0|4,0:0|0:0,0:0:0:0:
166,330,20993,5,4,0:0:0:0:
0,98,21207,1,4,0:0:0:0:
291,57,21421,6,0,B|277:127|277:127|226:183,1,142.99999345398,0|0,1:0|2:0,0:0:0:0:
442,38,21850,1,2,0:0:0:0:
410,267,22064,1,0,0:0:0:0:
172,91,22278,2,0,B|136:154|136:154|149:242,1,142.99999345398,0|0,1:0|2:0,0:0:0:0:
98,59,22600,1,0,0:0:0:0:
22,85,22707,1,8,0:0:0:0:
278,113,22921,2,0,B|320:167|320:167|327:268,1,142.99999345398,0|0,1:0|2:0,0:0:0:0:
509,337,23350,6,0,B|471:352|436:332|436:332|402:310|362:331,1,142.99999345398,4|0,0:2|1:0,0:0:0:0:
115,370,23778,6,0,P|87:357|57:315,1,71.4999967269899,8|0,2:3|2:3,2:3:0:0:
287,260,23993,2,0,L|271:170,1,71.4999967269899,4|0,2:3|2:3,2:3:0:0:
137,291,24207,2,0,L|121:201,1,71.4999967269899,0|4,2:3|2:3,2:3:0:0:
363,245,24421,2,0,L|347:155,1,71.4999967269899,4|0,2:3|2:3,2:3:0:0:
212,276,24636,2,0,L|196:186,1,71.4999967269899,4|0,2:3|2:3,2:3:0:0:
442,236,24850,6,0,B|463:168|463:168|443:90,1,142.99999345398,0|0,1:0|2:0,0:0:0:0:
222,129,25278,1,2,0:0:0:0:
187,354,25493,1,0,0:0:0:0:
42,187,25707,2,0,B|8:123|8:123|20:39,1,142.99999345398,0|0,1:0|2:0,0:0:0:0:
120,216,26028,1,0,0:0:0:0:
202,198,26136,1,8,0:0:0:0:
382,48,26350,2,0,B|413:112|413:112|398:191,1,142.99999345398,0|0,1:0|2:0,0:0:0:0:
452,347,26778,6,0,L|270:328,1,142.99999345398,8|0,0:0|2:0,0:0:0:0:
89,309,27207,1,0,0:0:0:0:
13,107,27421,5,4,0:1:0:0:
468,93,27743,1,4,0:1:0:0:
168,373,28064,1,4,0:1:0:0:
43,211,28278,5,0,1:2:0:0:
291,176,28493,6,0,P|284:213|264:244,1,65.9999979858399,2|0,0:0|0:0,0:0:0:0:
278,89,28707,1,8,1:2:0:0:
194,109,28814,2,0,P|156:135|135:182,1,65.9999979858399,2|0,0:0|0:0,0:0:0:0:
173,248,29028,1,0,0:0:0:0:
238,323,29136,6,0,P|266:341|312:347,1,65.9999979858399,10|0,1:2|0:0,0:0:0:0:
394,347,29350,1,0,0:0:0:0:
472,313,29457,1,2,0:0:0:0:
483,212,29564,1,8,1:0:0:0:
400,257,29671,1,0,0:0:0:0:
403,150,29778,2,0,P|367:140|322:145,1,65.9999979858399,2|0,0:0|0:0,0:0:0:0:
294,238,29993,5,0,1:0:0:0:
39,20,30207,6,0,P|26:56|22:92,1,65.9999979858399,2|0,0:0|0:0,0:0:0:0:
159,59,30421,1,8,1:2:0:0:
103,142,30528,2,0,P|90:178|86:214,1,65.9999979858399,2|0,0:0|0:0,0:0:0:0:
223,181,30742,1,0,0:0:0:0:
309,232,30850,6,0,P|309:271|292:315,1,65.9999979858399,10|0,1:2|0:0,0:0:0:0:
234,360,31064,1,0,0:0:0:0:
148,361,31171,1,2,0:0:0:0:
55,327,31278,2,0,P|39:292|39:249,1,65.9999979858399,8|0,1:0|0:0,0:0:0:0:
43,172,31493,1,2,0:0:0:0:
112,111,31600,1,2,0:0:0:0:
134,207,31707,5,0,1:0:0:0:
344,81,31921,6,0,P|365:110|373:149,1,65.9999979858399,2|0,0:0|0:0,0:0:0:0:
270,156,32136,1,8,1:2:0:0:
171,139,32243,2,0,P|139:128|112:110,1,65.9999979858399,2|0,0:0|0:0,0:0:0:0:
207,232,32457,1,0,0:0:0:0:
303,252,32564,6,0,P|336:258|375:243,1,65.9999979858399,10|0,1:2|0:0,0:0:0:0:
467,212,32778,1,0,0:0:0:0:
485,127,32886,1,2,0:0:0:0:
392,162,32993,2,0,P|360:171|328:165,1,65.9999979858399,8|2,1:0|0:0,0:0:0:0:
238,142,33207,1,2,0:0:0:0:
162,182,33314,1,2,0:0:0:0:
238,240,33421,5,0,1:0:0:0:
155,282,33528,5,2,0:0:0:0:
66,252,33636,1,2,0:0:0:0:
26,170,33743,2,0,L|12:77,1,65.9999979858399,0|8,0:0|1:2,0:0:0:0:
162,182,33957,2,0,L|259:232,1,65.9999979858399,2|0,0:0|0:0,0:0:0:0:
16,104,34171,5,2,0:0:0:0:
102,56,34278,1,8,1:2:0:0:
188,105,34386,2,0,L|286:115,1,65.9999979858399,2|0,0:0|0:0,0:0:0:0:
100,226,34600,2,0,L|30:281,1,65.9999979858399,2|8,0:0|1:0,0:0:0:0:
254,111,34814,5,10,0:0:0:0:
211,25,34921,1,10,0:0:0:0:
115,16,35028,1,8,0:0:0:0:
28,66,35136,6,0,P|-7:127|48:160,1,142.99999345398,4|0,0:0|2:0,0:0:0:0:
180,83,35564,2,0,B|158:47|125:53|125:53|110:127,1,142.99999345398,8|0,0:0|2:0,0:0:0:0:
268,178,35993,2,0,B|256:104|256:104|215:171,1,153.999995300293,4|0,0:0|2:0,0:0:0:0:
384,158,36421,2,0,B|340:151|340:151|382:101|382:101|337:93,1,153.999995300293,8|0,0:0|2:0,0:0:0:0:
512,141,36850,2,0,B|478:146|478:146|451:126|451:126|474:160|474:160|458:220,1,165.000006294251,4|0,0:0|2:0,0:0:0:0:
157,265,37278,2,0,B|150:315|150:315|101:267|101:267|94:317,1,165.000006294251,8|0,0:0|2:0,0:0:0:0:
290,316,37707,2,0,P|232:296|283:331,1,176,4|0,0:0|2:0,0:0:0:0:
440,307,38136,2,0,B|413:351|413:351|400:319|400:319|376:344|376:344|366:290,1,176,8|0,0:0|2:0,0:0:0:0:
71,29,38564,6,0,P|18:40|1:84,1,96.2500009179115,4|0,0:0|0:0,0:0:0:0:
38,150,38778,2,0,P|-1:114|5:66,1,96.2500009179115
149,67,38993,2,0,L|120:158,1,96.2500009179115,4|0,0:0|0:0,0:0:0:0:
232,95,39207,2,0,P|195:65|148:67,1,96.2500009179115
243,202,39421,2,0,L|321:119,1,96.2500009179115,4|0,0:0|0:0,0:0:0:0:
322,227,39636,2,0,L|306:108,1,96.2500009179115
491,183,39850,2,0,L|399:156,1,96.2500009179115,4|0,0:0|0:0,0:0:0:0:
410,235,40064,2,0,L|520:164,1,96.2500009179115
510,267,40278,5,4,0:0:0:0:
460,250,40386,1,0,0:0:0:0:
410,235,40493,1,4,0:0:0:0:
359,218,40600,1,0,0:0:0:0:
373,273,40707,5,4,0:0:0:0:
356,328,40814,1,0,0:0:0:0:
303,351,40921,1,4,0:0:0:0:
248,333,41028,1,0,0:0:0:0:
226,260,41136,6,0,L|258:210,1,48.1250004589558,8|0,0:0|0:0,0:0:0:0:
162,220,41243,2,0,L|179:160,1,48.1250004589558,8|0,0:0|0:0,0:0:0:0:
88,220,41350,2,0,L|71:160,1,48.1250004589558,8|0,0:0|0:0,0:0:0:0:
25,260,41457,2,0,L|-7:210,1,48.1250004589558,8|0,0:0|0:0,0:0:0:0:
82,312,41564,6,0,L|126:292,7,48.1250004589558,8|0|8|0|8|0|8|0,0:0|0:0|0:0|0:0|0:0|0:0|0:0|0:0,0:0:0:0:
193,331,41993,5,4,0:1:0:0:
494,21,55707,6,0,P|492:82|447:142,1,110,8|0,0:0|2:0,0:0:0:0:
323,249,56136,1,0,0:0:0:0:
345,57,56350,1,0,0:0:0:0:
158,188,56564,2,0,P|213:202|282:185,1,110,8|0,0:0|2:0,0:0:0:0:
468,123,56993,1,0,0:0:0:0:
274,29,57207,6,0,P|234:67|216:118,1,110,8|4,0:0|0:0,0:0:0:0:
197,314,57636,1,0,0:0:0:0:
137,105,57850,1,0,0:0:0:0:
268,274,58064,1,0,0:0:0:0:
449,261,58278,6,0,B|438:206|438:206|370:147,1,110,2|0,0:0|2:0,0:0:0:0:
321,149,58600,1,0,0:0:0:0:
244,164,58707,2,0,B|203:199|203:199|192:254,1,110,2|0,0:0|2:0,0:0:0:0:
412,64,59136,6,0,P|355:53|304:75,1,110,8|0,0:0|2:0,0:0:0:0:
97,154,59564,1,0,0:0:0:0:
224,15,59778,1,0,0:0:0:0:
270,246,59993,2,0,P|327:244|389:189,1,110,8|0,0:0|2:0,0:0:0:0:
110,190,60421,1,0,0:0:0:0:
322,324,60636,6,0,P|269:343|215:327,1,110,8|4,0:0|0:0,0:0:0:0:
31,263,61064,1,0,0:0:0:0:
184,99,61278,1,0,0:0:0:0:
148,296,61493,1,0,0:0:0:0:
264,75,61707,6,0,L|369:42,1,110,2|0,0:0|2:0,0:0:0:0:
401,114,62028,1,0,0:0:0:0:
353,178,62136,2,0,L|216:220,1,110,2|0,0:0|2:0,0:0:0:0:
31,135,62564,6,0,P|9:87|22:25,1,110,8|0,0:0|2:0,0:0:0:0:
108,230,62993,1,0,0:0:0:0:
254,97,63207,1,0,0:0:0:0:
216,307,63421,2,0,P|276:312|327:285,1,110,8|0,0:0|2:0,0:0:0:0:
379,242,63743,1,8,0:0:0:0:
410,171,63850,1,4,0:0:0:0:
273,23,64064,6,0,P|253:80|275:143,1,110,8|4,0:0|0:0,0:0:0:0:
421,26,64493,1,0,0:0:0:0:
264,127,64707,1,0,0:0:0:0:
109,226,64921,1,0,0:0:0:0:
346,192,65136,6,0,B|399:224|366:280|366:280|324:349,1,165,2|0,0:0|2:0,0:0:0:0:
219,325,65564,2,0,L|164:325,1,55,0|0,0:0|2:0,0:0:0:0:
57,282,65778,6,0,B|57:216|136:216|136:216|229:216,1,165,2|0,0:0|2:0,0:0:0:0:
357,122,66207,2,0,L|342:196,1,55,0|0,0:0|2:0,0:0:0:0:
145,61,66421,2,0,L|130:135,1,55,0|0,1:0|2:0,0:0:0:0:
253,90,66636,2,0,L|238:164,1,55,0|0,0:0|2:0,0:0:0:0:
38,35,66850,2,0,L|9:179,1,110,0|0,1:0|0:0,0:0:0:0:
80,368,67278,1,0,1:0:0:0:
269,359,67493,6,0,B|335:351|327:279|327:279|315:184,1,165,2|0,0:0|2:0,0:0:0:0:
153,122,67921,2,0,L|134:211,1,55,0|0,0:0|2:0,0:0:0:0:
353,149,68136,2,0,L|334:238,1,55,0|0,1:0|2:0,0:0:0:0:
253,134,68350,2,0,L|234:223,1,55,0|0,0:0|2:0,0:0:0:0:
453,161,68564,2,0,L|414:339,1,165,0|0,1:0|0:0,0:0:0:0:
473,250,68993,1,0,1:0:0:0:
257,289,69207,1,0,0:0:0:0:
489,361,69421,5,0,1:0:0:0:
499,138,69636,1,0,0:0:0:0:
447,116,69743,1,0,0:0:0:0:
484,224,69850,1,4,0:0:0:0:
341,42,70064,1,0,0:0:0:0:
392,290,70278,2,0,P|341:332|250:298,1,148.500000566483,0|0,1:0|2:0,0:0:0:0:
302,164,70600,1,0,0:0:0:0:
320,252,70707,1,4,0:0:0:0:
119,348,70921,5,0,0:0:0:0:
123,93,71136,1,0,1:0:0:0:
239,251,71350,1,0,0:0:0:0:
276,206,71457,1,0,0:0:0:0:
152,251,71564,1,4,0:0:0:0:
358,93,71778,1,0,0:0:0:0:
475,278,71993,6,0,P|401:308|306:254,1,148.500000566483,2|0,1:3|2:0,0:0:0:0:
276,206,72314,1,0,0:0:0:0:
179,168,72421,2,0,P|100:181|48:277,1,148.500000566483,6|0,0:0|2:0,0:0:0:0:
346,120,72850,5,0,1:0:0:0:
147,26,73064,1,0,0:0:0:0:
104,70,73171,1,0,0:0:0:0:
220,68,73278,1,4,0:0:0:0:
36,186,73493,1,0,0:0:0:0:
274,310,73707,2,0,P|339:271|350:188,1,148.500000566483,0|0,1:0|2:0,0:0:0:0:
196,174,74028,1,0,0:0:0:0:
271,223,74136,1,4,0:0:0:0:
427,327,74350,5,0,0:0:0:0:
196,174,74564,1,0,1:0:0:0:
29,362,74778,1,0,0:0:0:0:
0,309,74886,1,0,0:0:0:0:
116,366,74993,1,4,0:0:0:0:
181,114,75207,1,0,0:0:0:0:
366,351,75421,6,0,P|408:289|382:207,1,148.500000566483,2|0,1:3|2:0,0:0:0:0:
315,152,75743,1,0,0:0:0:0:
218,190,75850,2,0,P|145:185|100:129,1,148.500000566483,4|0,0:0|2:0,0:0:0:0:
418,118,76278,5,0,1:0:0:0:
265,290,76493,1,0,0:0:0:0:
214,264,76600,1,0,0:0:0:0:
343,261,76707,1,4,0:0:0:0:
206,104,76921,1,0,0:0:0:0:
488,66,77136,2,0,P|423:30|345:72,1,148.500000566483,0|0,1:0|2:0,0:0:0:0:
418,207,77457,1,0,0:0:0:0:
418,118,77564,1,4,0:0:0:0:
179,55,77778,5,0,0:0:0:0:
294,264,77993,1,0,1:0:0:0:
235,54,78207,1,0,0:0:0:0:
206,104,78314,1,0,0:0:0:0:
319,59,78421,1,4,0:0:0:0:
176,226,78636,1,0,0:0:0:0:
425,204,78850,2,0,P|359:166|280:200,1,148.500000566483,0|0,1:0|2:0,0:0:0:0:
343,344,79171,1,0,0:0:0:0:
352,256,79278,1,4,0:0:0:0:
23,240,79493,6,0,B|-4:160|44:98|44:98|160:108,1,222.750000849724,2|0,0:0|2:0,0:0:0:0:
278,117,79921,2,0,L|198:110,1,74.2500002832413,2|0,0:0|2:0,0:0:0:0:
249,290,80136,2,0,L|169:283,1,74.2500002832413,0|0,1:0|2:0,0:0:0:0:
293,30,80350,2,0,L|213:23,1,74.2500002832413,2|0,0:0|2:0,0:0:0:0:
264,204,80564,2,0,L|58:185,1,148.500000566483,0|0,1:0|2:0,0:0:0:0:
444,219,80993,1,4,0:0:0:0:
321,347,81207,6,0,B|241:374|179:326|179:326|189:210,1,222.750000849724,2|0,0:0|2:0,0:0:0:0:
200,76,81636,2,0,L|191:182,1,74.2500002832413,2|0,0:0|2:0,0:0:0:0:
393,91,81850,2,0,L|384:197,1,74.2500002832413,0|0,1:0|2:0,0:0:0:0:
103,67,82064,2,0,L|94:173,1,74.2500002832413,2|0,0:0|2:0,0:0:0:0:
297,84,82278,2,0,L|277:314,1,222.750000849724,0|0,1:0|2:0,0:0:0:0:
387,165,82707,1,4,0:0:0:0:
420,353,82921,1,0,0:0:0:0:
370,216,83136,6,0,P|374:188|392:159,1,55,4|0,2:0|2:3,2:3:0:0:
440,102,83564,6,0,P|409:89|366:86,1,55,2|0,2:3|2:3,2:3:0:0:
333,86,83993,2,0,P|299:83|259:68,1,55,2|0,2:3|2:3,2:3:0:0:
228,54,84421,1,0,2:3:0:0:
173,61,84636,2,0,P|151:81|136:110,1,55,2|0,2:3|2:3,2:3:0:0:
127,156,85064,1,0,2:3:0:0:
89,195,85278,1,2,2:3:0:0:
169,296,85707,6,0,L|240:314,1,55,2|0,2:3|2:3,2:3:0:0:
275,324,86136,2,0,L|222:310,1,55,0|0,2:3|2:3,2:3:0:0:
219,225,86564,6,0,L|290:243,1,55,2|0,2:3|2:3,2:3:0:0:
325,253,86993,2,0,L|272:239,1,55,0|0,2:3|2:3,2:3:0:0:
278,156,87421,6,0,L|291:159,2,13.75,4|0|0,0:1|0:0|0:0,0:0:0:0:
