osu file format v14

[General]
AudioFilename: audio.mp3
AudioLeadIn: 0
PreviewTime: 31600
Countdown: 0
SampleSet: None
StackLeniency: 0.5
Mode: 0
LetterboxInBreaks: 0
WidescreenStoryboard: 1

[Editor]
Bookmarks: 850,7707,14564,28278,35136,41993,55707,69421,83136
DistanceSpacing: 1.2
BeatDivisor: 4
GridSize: 32
TimelineZoom: 1.5

[Metadata]
Title:Flashback
TitleUnicode:Flashback
Artist:MIYAVI vs KenKen
ArtistUnicode:MIYAVI vs KenKen
Creator:Shiguma
Version:Advanced
Source:刻刻
Tags:Kokkoku Kokukoku Moment by Moment opening Samurai Sessions volume 2 vol. crazy now yaspo Spork Lover Swell
BeatmapID:1537441
BeatmapSetID:721011

[Difficulty]
HPDrainRate:4.5
CircleSize:4
OverallDifficulty:5.5
ApproachRate:7
SliderMultiplier:1.4
SliderTickRate:1

[Events]
//Background and Video events
Video,-6,"flashback.avi"
0,0,"kokkoku.png",0,0
//Break Periods
2,42085,54807
//Storyboard Layer 0 (Background)
//Storyboard Layer 1 (Fail)
//Storyboard Layer 2 (Pass)
//Storyboard Layer 3 (Foreground)
//Storyboard Sound Samples

[TimingPoints]
-864,428.571428571429,4,3,1,55,1,0
636,-111.111111111111,4,3,1,55,0,0
7707,-100,4,3,1,62,0,0
12850,-100,4,3,1,64,0,0
13278,-100,4,3,1,66,0,0
13707,-100,4,3,1,68,0,0
13921,-100,4,3,1,70,0,0
14564,-83.3333333333333,4,3,1,75,0,1
16493,-83.3333333333333,4,3,1,60,0,1
16921,-83.3333333333333,4,3,1,75,0,1
19921,-83.3333333333333,4,3,1,60,0,1
20350,-83.3333333333333,4,3,1,75,0,1
23350,-83.3333333333333,4,3,1,60,0,1
23778,-83.3333333333333,4,3,1,75,0,1
28278,-83.3333333333333,4,3,1,70,0,0
33636,-83.3333333333333,4,3,1,75,0,0
35136,-83.3333333333333,4,3,1,65,0,0
38564,-76.9230769230769,4,3,1,70,0,1
40278,-76.9230769230769,4,3,1,75,0,1
40493,-76.9230769230769,4,3,1,70,0,1
40707,-76.9230769230769,4,3,1,65,0,1
40921,-76.9230769230769,4,3,1,60,0,1
41136,-71.4285714285714,4,3,1,80,0,1
41993,-111.111111111111,4,3,1,60,0,0
55707,-100,4,3,1,60,0,0
69421,-76.9230769230769,4,3,1,70,0,1
83136,-100,4,3,1,50,0,0
87421,-100,4,3,1,60,0,0

[Colours]
Combo1 : 248,201,39
Combo2 : 179,0,0
Combo3 : 219,129,6
Combo4 : 255,26,26

[HitObjects]
427,85,636,6,0,P|421:115|402:142,1,62.9999980773926,0|2,0:0|2:3,2:2:0:0:
48,357,2028,5,0,0:0:0:0:
12,249,2350,1,0,2:3:0:0:
12,249,3421,5,2,2:3:0:0:
72,152,3743,1,0,0:0:0:0:
183,131,4064,2,0,P|216:119|245:91,1,62.9999980773926,0|2,0:0|2:3,2:2:0:0:
484,18,5457,5,0,0:0:0:0:
460,128,5778,1,0,2:3:0:0:
151,346,6850,6,0,P|129:346|95:334,3,31.4999990386963,8|0|8|0,2:3|2:3|2:3|2:3,0:0:0:0:
84,330,7278,1,4,2:3:0:0:
251,313,7707,6,0,P|271:282|273:233,1,70,2|0,0:0|2:0,0:0:0:0:
224,182,8136,2,0,P|220:142|238:99,1,70,8|0,0:0|2:0,0:0:0:0:
267,39,8564,2,0,L|343:31,1,70,0|0,1:0|2:0,0:0:0:0:
420,24,8993,1,8,0:0:0:0:
385,100,9207,1,0,1:0:0:0:
445,158,9421,6,0,P|478:214|438:267,2,140,2|8|0,0:0|0:0|1:0,0:0:0:0:
346,236,10600,2,0,P|306:272|226:264,1,105,0|0,0:0|1:0,0:0:0:0:
174,260,11136,6,0,P|139:292|120:336,2,70,2|0|8,0:0|2:0|0:0,0:0:0:0:
231,198,11778,1,0,2:0:0:0:
311,174,11993,2,0,P|340:149|354:100,2,70,0|0|8,1:0|0:0|0:0,0:0:0:0:
282,253,12636,1,0,2:0:0:0:
314,330,12850,6,0,P|348:331|382:342,1,70,4|8,0:0|0:0,0:0:0:0:
426,271,13278,2,0,P|392:260|357:258,1,70,4|8,0:0|0:0,0:0:0:0:
312,187,13707,2,0,P|353:175|411:181,1,70,4|8,0:0|0:0,0:0:0:0:
463,184,14136,1,0,0:0:0:0:
263,211,14564,6,0,B|309:292|232:292|273:381,2,167.999994873047,0|2|0,1:0|0:0|1:0,0:0:0:0:
157,39,15850,1,8,0:0:0:0:
76,99,16064,1,0,1:0:0:0:
275,131,16493,2,0,P|276:187|248:228,1,83.9999974365235,4|4,0:2|0:0,0:0:0:0:
180,267,16921,2,0,P|136:271|102:300,2,83.9999974365235,8|4|0,0:0|0:0|0:0,0:0:0:0:
269,314,17564,2,0,P|311:326|368:304,1,83.9999974365235,4|4,0:0|0:0,0:0:0:0:
442,277,17993,6,0,B|481:199|481:199|477:117,2,167.999994873047,0|2|0,1:0|0:0|1:0,0:0:0:0:
248,221,19278,1,8,0:0:0:0:
316,295,19493,1,0,1:0:0:0:
369,101,19921,2,0,P|328:84|282:94,1,83.9999974365235,4|0,0:2|2:0,0:0:0:0:
194,123,20350,2,0,P|153:134|102:122,2,83.9999974365235,8|4|0,0:0|0:0|0:0,0:0:0:0:
270,188,20993,2,0,P|288:234|271:287,1,83.9999974365235,4|4,0:0|0:0,0:0:0:0:
222,347,21421,6,0,L|18:329,2,167.999994873047,0|2|0,1:0|0:0|1:0,0:0:0:0:
423,355,22707,1,8,0:0:0:0:
349,285,22921,1,0,1:0:0:0:
155,340,23350,2,0,P|140:302|143:255,1,83.9999974365235,4|0,0:2|2:0,0:0:0:0:
183,166,23778,1,8,2:3:0:0:
129,80,23993,2,0,P|85:80|31:103,1,83.9999974365235,4|0,2:3|2:3,2:2:0:0:
0,182,24421,2,0,P|44:182|98:205,1,83.9999974365235,4|4,2:3|2:3,0:0:0:0:
167,247,24850,6,0,P|249:251|310:190,2,167.999994873047,0|2|0,1:0|0:0|1:0,0:0:0:0:
324,120,26136,1,8,0:0:0:0:
384,200,26350,1,0,1:0:0:0:
401,4,26778,2,0,P|357:7|311:36,1,83.9999974365235,8|0,0:0|2:0,0:0:0:0:
239,83,27207,1,0,0:0:0:0:
284,172,27421,2,0,B|303:209|303:209|284:244|284:244|284:298,2,125.999996154785,4|4|4,0:1|0:1|0:1,0:0:0:0:
97,92,28493,5,2,0:0:0:0:
39,231,28814,1,2,0:0:0:0:
188,206,29136,2,0,P|216:132|185:135,2,125.999996154785,10|2|2,1:2|0:0|0:0,0:0:0:0:
356,92,30207,5,2,0:0:0:0:
431,222,30528,1,2,0:0:0:0:
279,222,30850,2,0,P|260:141|294:145,2,125.999996154785,10|2|2,1:2|0:0|0:0,0:0:0:0:
131,359,31921,5,2,0:0:0:0:
36,240,32243,1,2,0:0:0:0:
183,207,32564,2,0,P|179:164|249:171,2,125.999996154785,10|2|2,1:2|0:0|0:0,0:0:0:0:
183,207,33636,6,0,L|159:270,1,41.9999987182618,2|0,0:0|0:0,0:0:0:0:
262,210,33957,2,0,L|222:312,1,83.9999974365235,2|2,0:0|0:0,0:0:0:0:
264,327,34278,2,0,L|278:287,1,41.9999987182618,8|2,1:2|0:0,0:0:0:0:
372,248,34600,2,0,L|332:350,1,83.9999974365235,2|10,0:0|0:0,0:0:0:0:
379,360,34921,2,0,L|393:320,1,41.9999987182618,10|8,0:0|0:0,0:0:0:0:
440,303,35136,6,0,P|468:269|461:211,2,83.9999974365235,4|0|8,0:0|2:0|0:0,0:0:0:0:
334,131,35993,2,0,P|293:129|247:151,2,83.9999974365235,4|0|8,0:0|2:0|0:0,0:0:0:0:
138,179,36850,2,0,P|102:156|78:109,2,83.9999974365235,4|0|8,0:0|2:0|0:0,0:0:0:0:
337,229,37707,2,0,P|335:279|301:316,2,83.9999974365235,4|0|8,0:0|2:0|0:0,0:0:0:0:
247,29,38564,5,4,0:0:0:0:
145,69,38778,1,0,0:0:0:0:
121,176,38993,2,0,L|227:134,1,90.9999958343508,4|0,0:0|0:0,0:0:0:0:
308,105,39421,1,4,0:0:0:0:
294,213,39635,1,0,0:0:0:0:
193,256,39850,2,0,L|88:301,1,90.9999958343508,4|0,0:0|0:0,0:0:0:0:
5,323,40278,5,4,0:0:0:0:
103,371,40493,1,4,0:0:0:0:
212,371,40707,1,4,0:0:0:0:
310,323,40921,1,4,0:0:0:0:
412,381,41136,2,0,P|439:378|481:356,3,48.9999985046387,8|8|8|8,0:0|0:0|0:0|0:0,0:0:0:0:
427,333,41564,2,0,P|428:306|441:277,3,48.9999985046387,8|8|8|8,0:0|0:0|0:0|0:0,0:0:0:0:
23,36,55707,5,8,0:0:0:0:
109,180,56136,2,0,P|138:209|196:211,2,70,0|0|8,0:0|0:0|0:0,0:0:0:0:
49,337,56993,1,0,0:0:0:0:
6,264,57207,2,0,P|-1:229|19:177,2,70,8|4|0,0:0|0:0|0:0,0:0:0:0:
90,263,57850,1,0,0:0:0:0:
233,350,58278,2,0,P|269:369|314:372,1,70,2|0,0:0|2:0,0:0:0:0:
355,311,58707,2,0,P|319:292|274:289,1,70,2|0,0:0|2:0,0:0:0:0:
206,276,59136,5,8,0:0:0:0:
253,117,59564,2,0,P|292:116|342:133,2,70,0|0|8,0:0|0:0|0:0,0:0:0:0:
97,179,60421,1,0,0:0:0:0:
172,215,60636,2,0,P|212:226|272:219,2,70,8|4|0,0:0|0:0|0:0,0:0:0:0:
165,131,61278,1,0,0:0:0:0:
313,51,61707,2,0,P|340:81|351:133,1,70,2|0,0:0|2:0,0:0:0:0:
305,180,62136,2,0,P|278:150|267:98,1,70,2|0,0:0|2:0,0:0:0:0:
233,46,62564,5,8,0:0:0:0:
69,84,62993,2,0,P|52:52|50:11,2,70,0|0|8,0:0|0:0|0:0,0:0:0:0:
157,227,63850,1,0,0:0:0:0:
204,157,64064,1,8,0:0:0:0:
310,287,64493,2,0,P|346:292|396:276,2,70,0|0|0,0:0|0:0|0:0,0:0:0:0:
228,266,65136,2,0,P|192:261|142:277,1,70,2|0,0:0|0:0,0:0:0:0:
82,300,65564,1,0,0:0:0:0:
91,216,65778,5,2,0:0:0:0:
208,96,66207,2,0,L|277:106,1,70,0|0,0:0|1:0,0:0:0:0:
227,173,66636,2,0,L|296:183,1,70,0|0,0:0|1:0,0:0:0:0:
462,203,67278,1,8,0:0:0:0:
382,229,67493,5,2,0:0:0:0:
217,276,67921,2,0,L|234:357,1,70,0|0,0:0|1:0,0:0:0:0:
151,316,68350,2,0,L|168:397,1,70,0|0,0:0|1:0,0:0:0:0:
60,252,68993,1,0,1:0:0:0:
207,91,69421,6,0,P|256:98|298:141,1,90.9999958343508,0|0,1:0|0:0,0:0:0:0:
331,223,69850,1,4,0:0:0:0:
222,212,70064,1,0,0:0:0:0:
153,296,70278,2,0,P|113:267|99:221,1,90.9999958343508,0|0,1:0|2:0,0:0:0:0:
83,120,70707,1,4,0:0:0:0:
183,161,70921,1,0,0:0:0:0:
263,87,71136,6,0,P|303:59|364:64,2,90.9999958343508,0|0|4,1:0|0:0|0:0,0:0:0:0:
281,194,71778,1,0,0:0:0:0:
386,163,71993,2,0,L|373:266,1,90.9999958343508,2|0,1:3|2:0,0:0:0:0:
461,187,72421,2,0,L|448:290,1,90.9999958343508,2|0,0:0|2:0,0:0:0:0:
379,361,72850,6,0,P|330:368|274:353,1,90.9999958343508,0|0,1:0|0:0,0:0:0:0:
186,323,73278,1,4,0:0:0:0:
270,253,73493,1,0,0:0:0:0:
166,218,73707,2,0,P|128:195|105:137,1,90.9999958343508,0|0,1:0|2:0,0:0:0:0:
80,48,74136,1,4,0:0:0:0:
185,75,74350,1,0,0:0:0:0:
275,14,74564,6,0,P|292:59|283:121,2,90.9999958343508,0|0|4,1:0|0:0|0:0,0:0:0:0:
365,76,75207,1,0,0:0:0:0:
343,182,75421,2,0,L|321:300,1,90.9999958343508,2|0,1:3|2:0,0:0:0:0:
262,182,75850,2,0,L|240:300,1,90.9999958343508,2|0,0:0|2:0,0:0:0:0:
217,376,76278,6,0,P|167:370|127:334,1,90.9999958343508,0|0,1:0|0:0,0:0:0:0:
70,257,76707,1,4,0:0:0:0:
178,245,76921,1,0,0:0:0:0:
270,304,77136,2,0,P|306:271|320:226,1,90.9999958343508,0|0,1:0|2:0,0:0:0:0:
314,123,77564,1,4,0:0:0:0:
223,183,77778,1,0,0:0:0:0:
119,146,77993,6,0,P|97:105|101:53,2,90.9999958343508,0|0|4,1:0|0:0|0:0,0:0:0:0:
141,253,78636,1,0,0:0:0:0:
115,358,78850,2,0,P|183:371|267:355,1,136.499993751526,0|0,1:0|0:0,0:0:0:0:
291,345,79278,1,4,0:0:0:0:
369,268,79493,6,0,P|372:219|350:181,1,90.9999958343508,2|0,0:0|0:0,0:0:0:0:
289,94,79921,1,2,0:0:0:0:
269,201,80136,1,0,1:0:0:0:
203,113,80350,1,2,0:0:0:0:
186,220,80564,2,0,P|116:276|39:244,1,181.999991668702,0|4,1:0|0:0,0:0:0:0:
0,141,81207,6,0,P|10:92|51:52,1,90.9999958343508,2|0,0:0|0:0,0:0:0:0:
131,8,81636,1,2,0:0:0:0:
115,116,81850,1,0,1:0:0:0:
206,56,82064,1,2,0:0:0:0:
200,164,82278,2,0,P|280:217|357:168,1,181.999991668702,0|4,1:0|0:0,0:0:0:0:
481,285,83136,5,4,2:0:0:0:
325,349,83564,2,0,P|251:346|192:295,1,140,2|2,2:3|2:3,2:2:0:0:
158,144,84421,2,0,P|127:176|112:222,1,70,0|2,2:3|2:3,2:2:0:0:
95,365,85064,2,0,P|136:367|178:351,1,70,0|2,2:3|2:3,0:0:0:0:
310,278,85707,6,0,L|262:126,1,140,2|0,2:3|2:3,2:2:0:0:
392,257,86564,2,0,L|344:105,1,140,2|0,2:3|2:3,2:2:0:0:
186,165,87421,5,4,0:1:0:0:
