osu file format v14

[General]
AudioFilename: audio.mp3
AudioLeadIn: 0
PreviewTime: 55944
Countdown: 0
SampleSet: Soft
StackLeniency: 0.7
Mode: 0
LetterboxInBreaks: 0
WidescreenStoryboard: 1

[Editor]
Bookmarks: 37022,71777,89168
DistanceSpacing: 1.3
BeatDivisor: 4
GridSize: 8
TimelineZoom: 3.499998

[Metadata]
Title:Other Side (TV Size)
TitleUnicode:Other Side (TV Size)
Artist:MIYAVI
ArtistUnicode:MIYAVI
Creator:Pepekcz
Version:ID:RYXLIEE'S HARD
Source:ID:INVADED
Tags:-Lian- Lian2002 Ryxliee Anime Japanese ED ending pop jpop J-pop イド:インヴェイデッド NO SLEEP TILL TOKYO vocal male
BeatmapID:3415047
BeatmapSetID:1615952

[Difficulty]
HPDrainRate:4.5
CircleSize:3.6
OverallDifficulty:6
ApproachRate:7.8
SliderMultiplier:1.3
SliderTickRate:1

[Events]
//Background and Video events
0,0,"IDBG2002.jpg",0,0
//Break Periods
//Storyboard Layer 0 (Background)
//Storyboard Layer 1 (Fail)
//Storyboard Layer 2 (Pass)
//Storyboard Layer 3 (Foreground)
//Storyboard Layer 4 (Overlay)
//Storyboard Sound Samples

[TimingPoints]
2249,434.782608695652,4,2,1,60,1,0
2249,-90.9090909090909,4,2,1,60,0,0
16162,-100,4,2,4,50,0,0
16379,-100,4,2,1,50,0,0
17466,-100,4,2,4,50,0,0
17901,-100,4,2,1,50,0,0
20944,-100,4,2,4,50,0,0
21379,-100,4,2,1,50,0,0
23118,-100,4,2,4,50,0,0
23553,-100,4,2,1,50,0,0
24422,-100,4,2,4,50,0,0
24857,-100,4,2,1,50,0,0
26596,-100,4,2,4,50,0,0
27031,-100,4,2,1,50,0,0
30075,-83.3333333333333,4,2,4,60,0,0
30292,-83.3333333333333,4,2,1,60,0,0
36379,-83.3333333333333,4,2,2,60,0,0
37031,-83.3333333333333,4,2,4,60,0,0
37248,-83.3333333333333,4,2,1,60,0,0
40509,-83.3333333333333,4,2,4,60,0,0
40727,-83.3333333333333,4,2,1,60,0,0
43988,-111.111111111111,4,2,3,40,0,0
50944,-90.9090909090909,4,2,1,50,0,0
51814,-90.9090909090909,4,2,3,50,0,0
52140,-90.9090909090909,4,2,1,50,0,0
53553,-90.9090909090909,4,2,3,50,0,0
53988,-90.9090909090909,4,2,1,50,0,0
54422,-90.9090909090909,4,2,1,60,0,0
57864,434.782608695652,4,2,4,80,1,1
57864,-76.9230769230769,4,2,4,80,0,1
58298,-76.9230769230769,4,2,1,80,0,1
59168,-76.9230769230769,4,2,4,80,0,1
59385,-76.9230769230769,4,2,1,80,0,1
61342,-76.9230769230769,4,2,4,80,0,1
61777,-76.9230769230769,4,2,1,80,0,1
62646,-76.9230769230769,4,2,4,80,0,1
63081,-76.9230769230769,4,2,1,80,0,1
64820,-76.9230769230769,4,2,4,80,0,1
65255,-76.9230769230769,4,2,1,80,0,1
66124,-76.9230769230769,4,2,4,80,0,1
66342,-76.9230769230769,4,2,1,80,0,1
67646,-76.9230769230769,4,2,4,80,0,1
67864,-76.9230769230769,4,2,1,80,0,1
68298,-76.9230769230769,4,2,4,80,0,1
68733,-76.9230769230769,4,2,1,80,0,1
69603,-76.9230769230769,4,2,4,80,0,1
70037,-76.9230769230769,4,2,1,80,0,1
71777,-76.9230769230769,4,2,4,80,0,1
72211,-76.9230769230769,4,2,1,80,0,1
73081,-76.9230769230769,4,2,4,80,0,1
73298,-76.9230769230769,4,2,1,80,0,1
75255,-76.9230769230769,4,2,4,80,0,1
75690,-76.9230769230769,4,2,1,80,0,1
76559,-76.9230769230769,4,2,4,80,0,1
76994,-76.9230769230769,4,2,1,80,0,1
78733,-76.9230769230769,4,2,4,80,0,1
79168,-76.9230769230769,4,2,1,80,0,1
80037,-76.9230769230769,4,2,4,80,0,1
80200,-76.9230769230769,4,2,1,80,0,1
81559,-76.9230769230769,4,2,4,80,0,1
81777,-76.9230769230769,4,2,1,80,0,1
82211,-76.9230769230769,4,2,4,80,0,1
82646,-76.9230769230769,4,2,1,80,0,1
83516,-76.9230769230769,4,2,4,80,0,1
83950,-76.9230769230769,4,2,1,80,0,1
85690,-83.3333333333333,4,2,4,80,0,0
86124,-83.3333333333333,4,2,1,80,0,0
89168,-83.3333333333333,4,2,1,80,0,0

[Colours]
Combo1 : 140,198,255
Combo2 : 255,255,155
Combo3 : 219,183,183
Combo4 : 255,159,159

[HitObjects]
442,111,2249,5,12,3:2:0:0:
373,48,2466,2,0,P|338:39|303:33,2,71.5000021820069,0|8|0,0:2|0:2|0:0,0:0:0:0:
442,111,3118,1,0,0:2:0:0:
374,173,3335,2,0,P|366:241|423:277,1,143.000004364014,0|0,0:2|0:2,0:0:0:0:
360,347,3988,6,0,P|325:355|290:366,1,71.5000021820069,8|0,0:2|0:2,0:0:0:0:
210,321,4422,2,0,P|175:310|140:302,1,71.5000021820069,8|0,0:2|0:2,0:0:0:0:
58,341,4857,1,8,0:2:0:0:
58,341,5075,1,0,0:2:0:0:
4,271,5292,1,8,0:2:0:0:
4,271,5509,1,0,0:2:0:0:
60,196,5727,5,8,0:2:0:0:
149,220,5944,2,0,P|184:217|210:194,2,71.5000021820069,0|8|0,0:2|0:2|0:0,0:0:0:0:
60,196,6596,1,8,0:2:0:0:
77,104,6814,2,0,P|135:77|221:65,1,143.000004364014,0|0,0:2|0:2,0:0:0:0:
300,97,7466,6,0,P|307:131|293:163,1,71.5000021820069,8|0,0:2|0:2,0:0:0:0:
223,225,7901,2,0,P|208:257|216:291,1,71.5000021820069,8|0,0:2|0:2,0:0:0:0:
289,357,8335,1,8,0:2:0:0:
289,357,8553,1,0,0:2:0:0:
364,301,8770,1,8,0:2:0:0:
364,301,8987,1,0,0:2:0:0:
297,207,9205,5,0,3:2:0:0:
377,161,9422,2,0,P|411:168|446:178,2,71.5000021820069,0|8|0,0:2|0:2|0:0,0:0:0:0:
297,207,10074,1,8,0:2:0:0:
217,159,10291,2,0,P|205:106|191:54,1,107.25000327301,0|0,3:2|0:0,0:0:0:0:
183,31,10727,1,0,3:2:0:0:
110,89,10944,6,0,P|74:94|40:103,1,71.5000021820069,0|0,3:2|0:2,0:0:0:0:
56,195,11379,2,0,P|90:185|125:180,1,71.5000021820069,8|0,0:2|0:2,0:0:0:0:
202,241,11813,1,8,0:2:0:0:
202,241,12031,1,0,3:2:0:0:
288,202,12248,1,8,0:2:0:0:
288,202,12465,1,0,3:2:0:0:
349,272,12683,5,0,3:2:0:0:
293,346,12900,2,0,P|263:364|229:357,2,71.5000021820069,0|8|0,0:2|0:2|0:0,0:0:0:0:
349,272,13552,1,8,0:2:0:0:
436,304,13770,2,0,P|482:282|488:231,1,107.25000327301,0|0,3:2|0:0,0:0:0:0:
479,208,14205,1,0,3:2:0:0:
409,146,14422,5,0,3:2:0:0:
325,186,14640,2,0,P|297:165|290:130,1,71.5000021820069,0|0,0:2|2:0,0:0:0:0:
296,37,15075,2,0,B|259:21|208:58|233:82|206:132|131:110,1,178.750005455017,2|0,0:0|0:0,0:0:0:0:
131,129,15727,2,0,P|79:112|23:102,1,107.25000327301,2|0,0:2|0:0,0:0:0:0:
7,113,16162,6,0,P|21:142|31:172,1,65,6|2,3:2|0:2,0:0:0:0:
97,226,16596,2,0,P|82:255|72:285,1,65,2|2,3:2|0:2,0:0:0:0:
5,337,17031,2,0,P|41:368|89:370,1,97.5,10|0,1:2|0:0,0:0:0:0:
111,364,17466,1,0,3:2:0:0:
209,226,17901,6,0,P|239:234|259:259,1,65,2|10,0:2|3:2,0:0:0:0:
284,339,18335,2,0,P|303:364|334:372,1,65,2|2,3:2|0:2,0:0:0:0:
428,326,18770,2,0,B|445:296|439:259|439:259|446:243|446:243|441:226|441:226|452:212|452:212|443:170|460:140,1,195,10|2,1:2|0:2,0:0:0:0:
508,71,19640,6,0,P|479:55|447:58,1,65,2|2,3:2|0:2,0:0:0:0:
370,92,20075,2,0,P|338:94|309:79,1,65,2|2,3:2|0:2,0:0:0:0:
233,43,20509,2,0,P|225:91|219:139,1,97.5,10|0,1:2|0:0,0:0:0:0:
220,166,20944,1,2,3:2:0:0:
220,166,21162,1,2,0:2:0:0:
270,233,21379,6,0,P|301:238|333:246,1,65,2|10,0:2|3:2,0:0:0:0:
315,328,21814,2,0,P|283:320|251:314,1,65,2|2,3:2|0:2,0:0:0:0:
165,257,22248,2,0,B|133:301|133:301|49:316|49:316|5:285,1,195,8|0,1:2|0:0,0:0:0:0:
3,178,23118,6,0,P|14:131|31:85,1,97.5,6|0,3:2|0:2,0:0:0:0:
51,97,23553,2,0,P|77:115|108:115,1,65,2|2,3:2|0:2,0:0:0:0:
189,88,23988,1,10,0:2:0:0:
345,24,24422,2,0,P|392:18|431:46,1,97.5,2|0,0:2|0:0,0:0:0:0:
450,59,24857,6,0,P|438:89|433:121,1,65,2|8,0:2|0:2,0:0:0:0:
472,202,25292,1,2,3:2:0:0:
472,202,25509,1,2,0:2:0:0:
421,293,25727,2,0,B|349:304|349:304|346:312|346:312|287:324|287:324|315:317|330:293,1,195,10|2,1:2|3:2,0:0:0:0:
261,244,26596,6,0,P|197:236|132:229,2,130,2|0|8,3:2|3:2|1:2,0:0:0:0:
358,104,27901,2,0,B|334:88|315:64|315:64|265:86|218:101,1,162.5,2|0,3:2|0:0,0:0:0:0:
197,109,28553,1,8,3:2:0:0:
111,49,28770,2,0,P|80:42|49:32,1,65,0|0,3:2|0:0,0:0:0:0:
10,108,29205,2,0,P|52:116|92:129,1,86.6666666666667,8|0,1:2|0:0,0:0:0:0:
105,139,29567,1,2,0:3:0:0:
115,150,29640,2,0,P|119:181|102:208,1,65,2|0,0:3|3:2,0:0:0:0:
12,317,30075,6,0,P|40:292|78:295,1,77.999997619629,6|2,3:2|0:2,0:0:0:0:
160,364,30509,1,2,3:2:0:0:
160,364,30727,1,2,2:2:0:0:
244,306,30945,2,0,P|249:267|256:229,1,77.999997619629,10|0,1:2|0:0,0:0:0:0:
332,161,31379,1,2,3:2:0:0:
332,161,31488,1,2,0:2:0:0:
332,161,31596,1,2,0:2:0:0:
277,75,31814,5,2,0:2:0:0:
349,4,32031,1,10,3:2:0:0:
442,41,32248,2,0,P|448:79|454:117,1,77.999997619629,2|0,3:2|0:0,0:0:0:0:
512,214,32683,1,10,1:2:0:0:
512,214,32792,1,2,0:2:0:0:
512,214,32901,1,2,0:2:0:0:
444,289,33118,1,2,0:2:0:0:
358,235,33335,1,2,3:2:0:0:
296,316,33553,6,0,P|263:336|226:326,1,77.999997619629,2|0,3:2|0:0,0:0:0:0:
149,268,33988,1,2,3:2:0:0:
149,268,34205,1,2,0:2:0:0:
74,336,34422,1,10,1:2:0:0:
8,257,34640,1,0,0:0:0:0:
83,189,34857,2,0,P|75:130|65:73,1,116.999996429443,2|0,3:2|0:0,0:0:0:0:
93,72,35292,6,0,P|125:92|163:88,1,77.999997619629,2|10,0:2|3:2,0:0:0:0:
238,20,35727,1,2,3:2:0:0:
238,20,35944,1,2,0:2:0:0:
312,89,36162,2,0,P|305:127|300:166,1,77.999997619629,10|8,1:2|0:2,0:0:0:0:
239,246,36596,1,10,0:2:0:0:
241,257,36705,1,8,0:2:0:0:
243,268,36814,1,10,0:2:0:0:
245,279,36922,1,8,0:2:0:0:
247,290,37031,6,0,P|284:299|322:310,1,77.999997619629,6|2,3:2|0:2,0:0:0:0:
405,369,37466,2,0,P|457:352|462:297,1,116.999996429443,2|0,3:2|0:0,0:0:0:0:
446,276,37901,1,10,1:2:0:0:
499,189,38118,1,0,0:2:0:0:
436,109,38335,1,0,3:2:0:0:
253,198,38770,6,0,P|215:207|177:218,1,77.999997619629,2|10,0:2|3:2,0:0:0:0:
117,301,39205,1,2,3:2:0:0:
117,301,39422,1,2,0:2:0:0:
29,249,39640,2,0,P|8:216|15:179,1,77.999997619629,10|0,1:2|0:0,0:0:0:0:
65,90,40075,1,2,0:2:0:0:
155,135,40292,1,2,3:2:0:0:
240,81,40509,6,0,P|245:42|251:3,1,77.999997619629,2|2,3:2|0:2,0:0:0:0:
353,9,40944,2,0,P|343:66|335:124,1,116.999996429443,2|0,3:2|0:0,0:0:0:0:
332,152,41379,1,10,1:2:0:0:
397,229,41596,1,0,0:2:0:0:
324,299,41814,2,0,B|292:312|249:281|270:260|247:218|184:237,1,155.999995239258,2|0,3:2|0:0,0:0:0:0:
117,298,42466,6,0,P|126:335|134:373,2,77.999997619629,8|2|0,3:2|3:2|0:0,0:0:0:0:
46,224,43118,2,0,P|51:173|60:122,1,103.999996826172,10|0,1:2|0:0,0:0:0:0:
72,108,43480,1,8,0:2:0:0:
84,94,43553,2,0,P|117:75|154:83,1,77.999997619629,10|2,0:2|0:2,0:0:0:0:
209,153,43988,6,0,B|259:187|311:148|311:148|341:82|409:95,1,233.999992858887,6|8,3:2|0:2,0:0:0:0:
484,228,45292,2,0,P|427:225|393:180,2,116.999996429443,2|2|0,0:2|0:2|0:2,0:0:0:0:
410,95,46596,2,0,L|352:103,1,58.4999982147217,10|2,0:2|0:2,0:0:0:0:
276,116,47031,2,0,L|218:124,1,58.4999982147217,2|2,0:2|0:2,0:0:0:0:
155,81,47466,6,0,P|136:134|165:183,1,116.999996429443,2|2,0:2|0:2,0:0:0:0:
230,233,48118,1,2,0:2:0:0:
230,233,48335,2,0,L|224:291,1,58.4999982147217,10|2,0:2|0:2,0:0:0:0:
299,298,48770,2,0,L|304:239,1,58.4999982147217,2|2,0:2|0:2,0:0:0:0:
347,176,49205,6,0,L|463:165,1,116.999996429443,2|0,0:2|0:2,0:0:0:0:
507,104,49857,1,2,0:2:0:0:
507,104,50075,2,0,P|518:77|512:49,1,58.4999982147217,10|2,0:2|0:2,0:0:0:0:
437,36,50509,2,0,P|425:62|431:90,1,58.4999982147217,2|2,0:2|0:2,0:0:0:0:
475,196,50944,6,0,B|485:221|501:244|501:244|489:267|483:293,2,107.25000327301,10|8|8,0:2|0:2|0:2,0:0:0:0:
386,163,51814,2,0,P|351:167|317:177,1,71.5000021820069,8|0,0:2|0:2,0:0:0:0:
303,198,52140,2,0,P|268:188|233:183,1,71.5000021820069,8|0,0:2|0:2,0:0:0:0:
213,169,52466,1,8,0:2:0:0:
133,121,52683,6,0,B|122:95|107:73|107:73|118:49|124:23,2,107.25000327301,10|8|8,0:2|0:2|0:2,0:0:0:0:
212,168,53553,2,0,P|224:201|213:235,1,71.5000021820069,10|2,0:2|0:2,0:0:0:0:
191,246,53879,2,0,P|178:278|190:312,1,71.5000021820069,8|0,0:2|0:2,0:0:0:0:
207,331,54205,1,10,0:2:0:0:
311,285,54422,6,0,P|291:271|267:270,2,47.6666681213379,10|8|8,1:2|1:2|1:2,0:0:0:0:
368,257,54857,6,0,P|369:233|358:212,2,47.6666681213379,8|8|8,1:2|1:2|1:2,0:0:0:0:
424,282,55292,6,0,P|445:271|457:251,2,47.6666681213379,8|8|8,1:2|1:2|1:2,0:0:0:0:
434,344,55727,6,0,P|453:357|477:358,2,47.6666681213379,8|8|8,1:2|1:2|1:2,0:0:0:0:
378,371,56162,5,2,1:0:0:0:
187,40,57864,6,0,B|151:30|130:57|130:57|121:94|87:105,1,126.749994197846,4|0,3:2|0:0,0:0:0:0:
66,104,58298,2,0,P|105:148|90:190,1,84.4999961318971,0|0,3:2|0:0,0:0:0:0:
76,276,58733,2,0,P|89:241|180:218,1,126.749994197846,8|0,1:2|0:0,0:0:0:0:
189,236,59168,1,0,3:2:0:0:
189,236,59385,1,2,0:2:0:0:
246,135,59603,6,0,P|236:93|226:52,1,84.4999961318971,2|8,0:2|3:2,0:0:0:0:
333,27,60037,2,0,P|342:68|352:109,1,84.4999961318971,2|0,3:2|0:0,0:0:0:0:
320,217,60472,1,10,1:2:0:0:
320,217,60689,1,2,0:2:0:0:
409,281,60907,2,0,P|450:271|491:263,1,84.4999961318971,2|2,2:2|3:2,0:0:0:0:
412,374,61342,6,0,P|370:366|328:360,1,84.4999961318971,0|0,3:2|0:0,0:0:0:0:
254,279,61777,2,0,B|224:273|193:299|211:317|183:348|132:337,1,126.749994197846,0|0,3:2|0:0,0:0:0:0:
130,355,62211,1,8,1:2:0:0:
42,288,62429,1,0,3:2:0:0:
46,276,62537,1,0,3:2:0:0:
51,264,62646,2,0,P|81:236|122:238,1,84.4999961318971,0|0,3:2|0:0,0:0:0:0:
214,177,63081,6,0,P|174:164|156:127,1,84.4999961318971,10|2,0:2|3:2,0:0:0:0:
139,23,63516,1,2,3:2:0:0:
139,23,63733,1,2,0:2:0:0:
30,41,63950,1,10,1:2:0:0:
50,149,64168,1,0,0:2:0:0:
156,127,64385,2,0,P|197:134|238:146,1,84.4999961318971,2|0,0:0|0:0,0:0:0:0:
138,239,64820,6,0,B|123:265|103:273|103:273|136:342,1,126.749994197846,6|0,3:2|0:2,0:0:0:0:
156,361,65255,2,0,P|196:350|238:342,1,84.4999961318971,2|0,3:2|0:0,0:0:0:0:
324,273,65690,2,0,P|365:280|406:291,1,84.4999961318971,8|0,1:2|3:2,0:0:0:0:
498,361,66124,1,2,3:2:0:0:
498,361,66342,1,0,0:0:0:0:
406,290,66559,6,0,P|380:258|388:217,1,84.4999961318971,2|10,0:2|3:2,0:0:0:0:
465,139,66994,2,0,P|449:176|410:191,1,84.4999961318971,2|2,3:2|0:2,0:0:0:0:
317,130,67429,1,10,1:2:0:0:
229,196,67646,1,2,3:2:0:0:
155,113,67864,2,0,P|161:71|170:29,1,84.4999961318971,2|2,0:2|0:2,0:0:0:0:
44,76,68298,6,0,P|65:136|82:197,1,126.749994197846,2|0,3:2|0:2,0:0:0:0:
102,221,68733,1,2,3:2:0:0:
102,221,68950,1,2,0:2:0:0:
48,317,69168,1,10,1:2:0:0:
148,361,69385,1,2,0:2:0:0:
202,265,69603,2,0,P|261:251|310:289,1,126.749994197846,2|0,3:2|0:0,0:0:0:0:
310,315,70037,5,0,1:2:0:0:
408,364,70255,1,0,3:2:0:0:
488,289,70472,1,10,1:2:0:0:
482,273,70581,1,8,3:2:0:0:
476,257,70690,1,2,1:2:0:0:
404,173,70907,1,8,1:2:0:0:
303,217,71124,1,8,1:2:0:0:
228,135,71342,2,0,P|232:114|236:93,3,42.2499980659486,0|0|0|0,1:0|1:0|1:0|1:0,0:0:0:0:
258,56,71777,6,0,B|311:62|311:62|322:76|322:76|376:82,1,126.749994197846,4|0,3:2|0:0,0:0:0:0:
397,66,72211,2,0,P|437:77|456:113,1,84.4999961318971,0|0,3:2|0:0,0:0:0:0:
401,209,72646,2,0,B|360:188|360:188|289:225,1,126.749994197846,8|0,1:2|0:0,0:0:0:0:
267,223,73081,1,0,3:2:0:0:
267,223,73298,1,2,0:2:0:0:
173,281,73516,6,0,P|182:322|190:363,1,84.4999961318971,2|0,0:2|3:2,0:0:0:0:
82,383,73950,2,0,P|74:341|64:300,1,84.4999961318971,2|0,3:2|0:0,0:0:0:0:
4,214,74385,1,10,1:2:0:0:
4,214,74603,1,2,0:2:0:0:
71,128,74820,2,0,P|111:116|148:135,1,84.4999961318971,2|0,0:2|0:0,0:0:0:0:
245,231,75255,6,0,P|205:242|168:223,1,84.4999961318971,0|0,3:2|0:0,0:0:0:0:
244,144,75690,2,0,P|304:161|333:215,1,126.749994197846,0|0,3:2|0:0,0:0:0:0:
351,235,76124,1,8,1:2:0:0:
285,323,76342,1,0,3:2:0:0:
376,383,76559,2,0,P|417:373|458:365,1,84.4999961318971,0|0,3:2|0:0,0:0:0:0:
511,269,76994,6,0,P|494:231|456:216,1,84.4999961318971,2|10,0:2|3:2,0:0:0:0:
351,235,77429,1,2,3:2:0:0:
351,235,77646,1,2,0:2:0:0:
326,127,77864,1,10,1:2:0:0:
434,109,78081,1,0,0:2:0:0:
456,216,78298,2,0,P|444:256|435:297,1,84.4999961318971,2|0,0:2|0:0,0:0:0:0:
323,374,78733,6,0,B|293:380|262:354|280:336|252:305|201:316,1,126.749994197846,6|0,3:2|0:2,0:0:0:0:
201,294,79168,2,0,P|191:336|184:377,1,84.4999961318971,2|0,3:2|0:0,0:0:0:0:
80,340,79603,2,0,P|72:298|63:257,1,84.4999961318971,8|0,1:2|3:2,0:0:0:0:
133,173,80037,1,2,3:2:0:0:
133,173,80255,1,0,0:0:0:0:
233,216,80472,6,0,P|273:224|307:200,1,84.4999961318971,2|10,0:2|3:2,0:0:0:0:
357,102,80907,2,0,P|329:132|333:173,1,84.4999961318971,2|2,3:2|0:2,0:0:0:0:
419,241,81342,1,10,1:2:0:0:
508,177,81559,1,2,3:2:0:0:
442,88,81777,2,0,P|448:46|457:5,1,84.4999961318971,2|0,0:2|3:0,0:0:0:0:
343,76,82211,6,0,P|280:63|218:52,1,126.749994197846,0|0,3:2|0:2,0:0:0:0:
205,36,82646,1,2,3:2:0:0:
205,36,82864,1,2,0:2:0:0:
99,64,83081,1,10,1:2:0:0:
136,166,83298,1,2,0:2:0:0:
242,138,83516,2,0,B|268:146|278:173|278:173|259:214|249:241,1,126.749994197846,2|0,3:2|0:0,0:0:0:0:
226,254,83950,5,0,1:2:0:0:
275,352,84168,1,8,3:2:0:0:
374,305,84385,1,8,1:2:0:0:
390,311,84494,1,8,1:2:0:0:
406,317,84603,1,8,1:2:0:0:
503,266,84820,1,8,1:2:0:0:
455,167,85037,1,8,1:2:0:0:
356,218,85255,2,0,P|336:213|315:209,3,42.2499980659486,8|8|8|8,1:2|1:2|1:2|1:2,0:0:0:0:
281,189,85690,6,0,P|270:131|259:74,1,116.999996429443,4|0,3:2|0:0,0:0:0:0:
241,90,86124,2,0,P|210:112|172:107,1,77.999997619629,0|0,3:2|0:0,0:0:0:0:
90,56,86559,1,8,1:2:0:0:
90,56,86777,1,0,0:2:0:0:
31,138,86994,2,0,P|38:176|43:214,1,77.999997619629,0|0,3:2|0:2,0:0:0:0:
120,280,87429,5,0,1:2:0:0:
208,230,87646,1,0,3:2:0:0:
292,285,87863,1,0,3:2:0:0:
289,301,87972,1,0,1:2:0:0:
286,316,88081,1,0,1:2:0:0:
365,378,88298,1,8,1:2:0:0:
457,335,88516,1,0,1:2:0:0:
447,234,88733,2,0,P|428:229|408:226,1,38.9999988098145,0|0,1:1|0:0,0:0:0:0:
385,240,88950,2,0,P|349:225|334:190,1,77.999997619629,0|0,0:0|0:2,0:0:0:0:
