osu file format v14

[General]
AudioFilename: audio.mp3
AudioLeadIn: 0
PreviewTime: 55944
Countdown: 0
SampleSet: Soft
StackLeniency: 0.7
Mode: 0
LetterboxInBreaks: 0
WidescreenStoryboard: 1

[Editor]
DistanceSpacing: 1
BeatDivisor: 4
GridSize: 32
TimelineZoom: 3.499998

[Metadata]
Title:Other Side (TV Size)
TitleUnicode:Other Side (TV Size)
Artist:MIYAVI
ArtistUnicode:MIYAVI
Creator:Pepekcz
Version:ID:NORMAL
Source:ID:INVADED
Tags:-Lian- Lian2002 Ryxliee Anime Japanese ED ending pop jpop J-pop イド:インヴェイデッド NO SLEEP TILL TOKYO vocal male
BeatmapID:3395672
BeatmapSetID:1615952

[Difficulty]
HPDrainRate:4
CircleSize:3.2
OverallDifficulty:4
ApproachRate:5
SliderMultiplier:1
SliderTickRate:1

[Events]
//Background and Video events
0,0,"IDBG2002.jpg",0,0
//Break Periods
//Storyboard Layer 0 (Background)
//Storyboard Layer 1 (Fail)
//Storyboard Layer 2 (Pass)
//Storyboard Layer 3 (Foreground)
//Storyboard Layer 4 (Overlay)
//Storyboard Sound Samples

[TimingPoints]
2249,434.782608695652,4,2,1,60,1,0
2249,-100,4,2,1,60,0,0
16162,-111.111111111111,4,2,4,50,0,0
16379,-111.111111111111,4,2,1,50,0,0
17466,-111.111111111111,4,2,4,50,0,0
17901,-111.111111111111,4,2,1,50,0,0
20944,-111.111111111111,4,2,4,50,0,0
21379,-111.111111111111,4,2,1,50,0,0
23118,-111.111111111111,4,2,4,50,0,0
23553,-111.111111111111,4,2,1,50,0,0
24422,-111.111111111111,4,2,4,50,0,0
24857,-111.111111111111,4,2,1,50,0,0
26596,-111.111111111111,4,2,4,50,0,0
27031,-111.111111111111,4,2,1,50,0,0
30075,-99.9999999999999,4,2,4,60,0,0
30292,-99.9999999999999,4,2,1,60,0,0
36379,-99.9999999999999,4,2,2,60,0,0
37031,-99.9999999999999,4,2,4,60,0,0
37248,-99.9999999999999,4,2,1,60,0,0
40509,-99.9999999999999,4,2,4,60,0,0
40727,-99.9999999999999,4,2,1,60,0,0
43988,-111.111111111111,4,2,3,40,0,0
50944,-99.9999999999999,4,2,1,50,0,0
51814,-99.9999999999999,4,2,3,50,0,0
52140,-99.9999999999999,4,2,1,50,0,0
53553,-99.9999999999999,4,2,3,50,0,0
53988,-99.9999999999999,4,2,1,50,0,0
54422,-99.9999999999999,4,2,1,60,0,0
57864,434.782608695652,4,2,4,80,1,1
57864,-90.9090909090909,4,2,4,80,0,1
58298,-90.9090909090909,4,2,1,80,0,1
59168,-90.9090909090909,4,2,4,80,0,1
59385,-90.9090909090909,4,2,1,80,0,1
61342,-90.9090909090909,4,2,4,80,0,1
61777,-90.9090909090909,4,2,1,80,0,1
62646,-90.9090909090909,4,2,4,80,0,1
63081,-90.9090909090909,4,2,1,80,0,1
64820,-90.9090909090909,4,2,4,80,0,1
65255,-90.9090909090909,4,2,1,80,0,1
66124,-90.9090909090909,4,2,4,80,0,1
66342,-90.9090909090909,4,2,1,80,0,1
67646,-90.9090909090909,4,2,4,80,0,1
67864,-90.9090909090909,4,2,1,80,0,1
68298,-90.9090909090909,4,2,4,80,0,1
68733,-90.9090909090909,4,2,1,80,0,1
69603,-90.9090909090909,4,2,4,80,0,1
70037,-90.9090909090909,4,2,1,80,0,1
71777,-90.9090909090909,4,2,4,80,0,1
72211,-90.9090909090909,4,2,1,80,0,1
73081,-90.9090909090909,4,2,4,80,0,1
73298,-90.9090909090909,4,2,1,80,0,1
75255,-90.9090909090909,4,2,4,80,0,1
75690,-90.9090909090909,4,2,1,80,0,1
76559,-90.9090909090909,4,2,4,80,0,1
76994,-90.9090909090909,4,2,1,80,0,1
78733,-90.9090909090909,4,2,4,80,0,1
79168,-90.9090909090909,4,2,1,80,0,1
80037,-90.9090909090909,4,2,4,80,0,1
80200,-90.9090909090909,4,2,1,80,0,1
81559,-90.9090909090909,4,2,4,80,0,1
81777,-90.9090909090909,4,2,1,80,0,1
82211,-90.9090909090909,4,2,4,80,0,1
82646,-90.9090909090909,4,2,1,80,0,1
83516,-90.9090909090909,4,2,4,80,0,1
83950,-90.9090909090909,4,2,1,80,0,1
85690,-90.9090909090909,4,2,4,80,0,0
86124,-90.9090909090909,4,2,1,80,0,0
89168,-90.9090909090909,4,2,1,80,0,0

[Colours]
Combo1 : 140,198,255
Combo2 : 255,255,155
Combo3 : 219,183,183
Combo4 : 255,159,159

[HitObjects]
24,364,2249,6,0,L|129:341,1,100,12|8,3:2|0:2,0:0:0:0:
212,296,3118,1,0,0:2:0:0:
212,296,3335,2,0,L|309:316,1,100,0|0,0:2|0:2,0:0:0:0:
360,328,3988,1,8,0:2:0:0:
420,248,4422,1,8,0:2:0:0:
352,176,4857,1,8,0:2:0:0:
424,108,5292,2,0,L|413:59,1,50,8|0,0:2|0:2,0:0:0:0:
384,16,5727,6,0,B|332:12|344:56|284:52,1,100,8|8,0:2|0:2,0:0:0:0:
200,32,6596,1,8,0:2:0:0:
200,32,6814,2,0,P|156:12|100:32,1,100,0|0,0:2|0:2,0:0:0:0:
72,60,7466,1,8,0:2:0:0:
16,144,7901,1,8,0:2:0:0:
68,228,8335,1,8,0:2:0:0:
164,200,8770,2,0,L|212:210,1,50,8|0,0:2|0:2,0:0:0:0:
256,232,9205,6,0,L|353:212,1,100,0|8,3:2|0:2,0:0:0:0:
452,196,10075,1,8,0:2:0:0:
452,196,10292,2,0,P|480:240|468:288,1,100,0|0,3:2|3:2,0:0:0:0:
436,320,10944,1,0,3:2:0:0:
348,368,11379,1,8,0:2:0:0:
264,316,11814,2,0,L|216:326,1,50,8|0,0:2|3:2,0:0:0:0:
168,348,12248,2,0,L|120:358,1,50,8|0,0:2|3:2,0:0:0:0:
68,356,12683,6,0,L|48:259,1,100,0|8,3:2|0:2,0:0:0:0:
8,172,13553,1,8,0:2:0:0:
8,172,13770,2,0,L|28:75,1,100,0|0,3:2|3:2,0:0:0:0:
44,28,14422,1,0,3:2:0:0:
44,28,14640,1,0,0:2:0:0:
124,84,15075,2,0,B|160:96|196:68|180:48|220:20|272:44,1,150,2|2,0:0|0:2,0:0:0:0:
323,99,16162,6,0,L|424:77,1,89.9999972534181,6|2,3:2|3:2,0:0:0:0:
436,166,17031,2,0,L|347:184,1,89.9999972534181,10|0,1:2|3:2,0:0:0:0:
263,204,17901,1,2,0:2:0:0:
263,204,18118,2,0,L|271:258,2,44.999998626709,10|2|2,3:2|3:2|0:2,0:0:0:0:
225,179,18770,2,0,B|177:179|193:211|145:211,1,89.9999972534181,10|2,1:2|0:2,0:0:0:0:
54,205,19640,6,0,L|72:293,1,89.9999972534181,2|2,3:2|3:2,0:0:0:0:
131,360,20509,1,10,1:2:0:0:
196,298,20944,1,2,3:2:0:0:
272,348,21379,2,0,L|326:336,1,44.999998626709,2|10,0:2|3:2,0:0:0:0:
360,348,21814,2,0,L|404:338,1,44.999998626709,2|2,3:2|0:2,0:0:0:0:
448,328,22248,2,0,P|460:276|436:240,1,89.9999972534181,8|2,1:2|0:2,0:0:0:0:
380,184,23118,6,0,L|291:202,2,89.9999972534181,6|2|10,3:2|3:2|0:2,0:0:0:0:
456,136,24422,1,2,0:2:0:0:
392,72,24857,2,0,L|303:90,1,89.9999972534181,2|2,0:2|3:2,0:0:0:0:
264,80,25509,1,2,0:2:0:0:
264,80,25727,2,0,L|175:98,1,89.9999972534181,10|2,1:2|0:2,0:0:0:0:
88,112,26596,6,0,L|70:23,2,89.9999972534181,2|0|8,3:2|3:2|1:2,0:0:0:0:
40,188,27901,2,0,L|58:276,1,89.9999972534181,2|2,3:2|0:2,0:0:0:0:
68,320,28553,1,8,3:2:0:0:
68,320,28770,2,0,P|108:296|152:300,1,89.9999972534181,0|8,3:2|1:2,0:0:0:0:
232,340,29640,1,2,0:3:0:0:
328,368,30075,6,0,L|425:346,1,100,6|2,3:2|3:2,0:0:0:0:
480,340,30727,1,2,2:2:0:0:
480,340,30944,1,10,1:2:0:0:
504,244,31379,2,0,L|493:195,1,50,2|2,3:2|0:2,0:0:0:0:
464,156,31814,2,0,B|412:152|424:196|364:192,1,100,2|2,0:2|3:2,0:0:0:0:
275,175,32683,2,0,L|216:190,1,50,10|2,1:2|0:2,0:0:0:0:
179,205,33118,1,2,0:2:0:0:
96,148,33553,6,0,P|76:96|100:52,1,100,2|2,3:2|3:2,0:0:0:0:
140,36,34205,1,2,0:2:0:0:
140,36,34422,2,0,L|237:14,1,100,10|2,1:2|3:2,0:0:0:0:
337,26,35292,2,0,L|347:74,1,50,2|10,0:2|3:2,0:0:0:0:
382,110,35727,2,0,L|392:158,1,50,2|2,3:2|0:2,0:0:0:0:
406,206,36162,1,10,1:2:0:0:
359,294,36596,2,0,L|310:304,1,50,10|10,0:2|0:2,0:0:0:0:
266,328,37031,6,0,L|169:350,1,100,6|2,3:2|3:2,0:0:0:0:
68,353,37901,2,0,P|39:311|47:264,1,100,10|0,1:2|3:2,0:0:0:0:
76,169,38770,2,0,L|135:153,1,50,2|10,0:2|3:2,0:0:0:0:
172,168,39205,2,0,L|220:154,1,50,2|2,3:2|0:2,0:0:0:0:
269,145,39640,1,10,1:2:0:0:
340,75,40075,2,0,L|389:65,1,50,2|2,0:2|3:2,0:0:0:0:
438,60,40509,6,0,P|462:88|462:160,1,100,2|2,3:2|3:2,0:0:0:0:
410,233,41379,1,10,1:2:0:0:
410,233,41596,2,0,L|313:255,1,100,0|0,0:2|0:0,0:0:0:0:
228,310,42466,2,0,L|131:288,1,100,8|0,3:2|0:0,0:0:0:0:
80,274,43118,1,10,1:2:0:0:
4,208,43553,2,0,L|14:159,1,50,10|2,0:2|0:2,0:0:0:0:
36,120,43988,6,0,B|80:144|128:108|104:88|144:56|204:76,1,179.999994506836,6|8,3:2|0:2,0:0:0:0:
265,131,45292,2,0,P|246:215|233:309,1,179.999994506836,2|0,0:2|0:2,0:0:0:0:
306,360,46596,1,10,0:2:0:0:
395,368,47031,1,2,0:2:0:0:
450,297,47466,6,0,L|468:208,1,89.9999972534181,2|2,0:2|0:2,0:0:0:0:
496,123,48335,2,0,L|477:34,1,89.9999972534181,10|2,0:2|0:2,0:0:0:0:
388,20,49205,2,0,L|247:53,1,134.999995880127,2|2,0:2|0:2,0:0:0:0:
212,64,50075,1,10,0:2:0:0:
128,36,50509,1,2,0:2:0:0:
52,100,50944,6,0,L|36:26,2,75,10|8|8,0:2|0:2|0:2,0:0:0:0:
44,148,51814,2,0,L|64:245,1,100,8|2,0:2|0:2,0:0:0:0:
136,316,52683,6,0,P|108:340|56:340,2,75,10|8|8,0:2|0:2|0:2,0:0:0:0:
168,276,53553,2,0,P|208:248|268:260,1,100,10|2,0:2|0:0,0:0:0:0:
300,276,54205,1,10,0:2:0:0:
256,192,54422,12,2,56162,1:0:0:0:
484,32,57864,6,0,L|459:149,1,110.000003356934,4|0,3:2|3:2,0:0:0:0:
436,248,58733,2,0,P|392:220|328:236,1,110.000003356934,8|0,1:2|3:2,0:0:0:0:
288,256,59385,1,2,0:2:0:0:
288,256,59603,2,0,L|233:267,1,55.0000016784668,2|8,0:2|3:2,0:0:0:0:
192,300,60037,2,0,L|137:311,1,55.0000016784668,2|0,3:2|0:0,0:0:0:0:
84,324,60472,1,10,1:2:0:0:
20,236,60907,1,2,2:2:0:0:
80,144,61342,6,0,B|136:152|124:104|184:112,1,110.000003356934,0|0,3:2|3:2,0:0:0:0:
292,140,62211,1,8,1:2:0:0:
292,140,62429,2,0,L|303:85,1,55.0000016784668,0|0,3:2|3:2,0:0:0:0:
404,36,63081,2,0,L|415:90,1,55.0000016784668,10|2,0:2|3:2,0:0:0:0:
452,130,63516,2,0,L|463:184,1,55.0000016784668,2|2,3:2|0:2,0:0:0:0:
475,237,63950,1,10,1:2:0:0:
402,319,64385,2,0,L|347:307,1,55.0000016784668,2|0,0:0|0:0,0:0:0:0:
296,288,64820,6,0,L|179:313,1,110.000003356934,6|2,3:2|3:2,0:0:0:0:
80,328,65690,2,0,P|56:288|72:228,1,110.000003356934,8|2,1:2|3:2,0:0:0:0:
116,200,66342,1,0,0:0:0:0:
116,200,66559,2,0,L|170:188,1,55.0000016784668,2|10,0:2|3:2,0:0:0:0:
224,172,66994,2,0,L|278:183,1,55.0000016784668,2|2,3:2|0:2,0:0:0:0:
332,200,67429,1,10,1:2:0:0:
440,228,67864,2,0,P|464:188|448:128,1,110.000003356934,2|2,0:2|3:2,0:0:0:0:
388,40,68733,6,0,L|333:51,1,55.0000016784668,2|2,3:2|0:2,0:0:0:0:
279,41,69168,2,0,L|224:52,1,55.0000016784668,10|2,1:2|0:2,0:0:0:0:
172,35,69603,2,0,L|64:57,1,110.000003356934,2|0,3:2|1:2,0:0:0:0:
64,168,70472,2,0,L|117:157,2,55.0000016784668,10|2|8,1:2|1:2|1:2,0:0:0:0:
12,180,71124,1,8,1:2:0:0:
12,180,71342,1,0,1:0:0:0:
20,288,71777,6,0,P|56:320|120:316,1,110.000003356934,4|0,3:2|3:2,0:0:0:0:
200,248,72646,2,0,P|241:213|295:217,1,110.000003356934,8|0,1:2|3:2,0:0:0:0:
344,244,73298,1,2,0:2:0:0:
344,244,73516,2,0,L|397:254,1,55.0000016784668,2|0,0:2|3:2,0:0:0:0:
444,224,73950,2,0,L|454:170,1,55.0000016784668,2|0,3:2|0:0,0:0:0:0:
468,116,74385,1,10,1:2:0:0:
392,36,74820,1,2,0:2:0:0:
296,88,75255,6,0,B|240:80|252:128|192:120,1,110.000003356934,0|0,3:2|3:2,0:0:0:0:
85,115,76124,1,8,1:2:0:0:
85,115,76342,2,0,L|74:168,1,55.0000016784668,0|0,3:2|3:2,0:0:0:0:
13,259,76994,2,0,L|24:313,1,55.0000016784668,2|10,0:2|3:2,0:0:0:0:
31,367,77429,2,0,L|85:356,1,55.0000016784668,2|2,3:2|0:2,0:0:0:0:
139,346,77864,1,10,1:2:0:0:
210,262,78298,2,0,L|199:208,1,55.0000016784668,2|0,0:2|0:0,0:0:0:0:
160,169,78733,6,0,L|185:52,1,110.000003356934,6|2,3:2|3:2,0:0:0:0:
288,29,79603,2,0,L|405:54,1,110.000003356934,8|2,1:2|3:2,0:0:0:0:
452,69,80255,1,0,0:0:0:0:
452,69,80472,2,0,L|440:123,1,55.0000016784668,2|10,0:2|3:2,0:0:0:0:
468,169,80907,2,0,L|456:223,1,55.0000016784668,2|2,3:2|0:2,0:0:0:0:
444,277,81342,1,10,1:2:0:0:
356,343,81777,2,0,P|308:363|256:339,1,110.000003356934,2|0,0:2|3:2,0:0:0:0:
166,279,82646,6,0,L|111:290,1,55.0000016784668,2|2,3:2|0:2,0:0:0:0:
57,300,83081,2,0,L|46:245,1,55.0000016784668,10|2,1:2|0:2,0:0:0:0:
20,197,83516,2,0,P|-4:146|8:93,1,110.000003356934,2|0,3:2|1:2,0:0:0:0:
108,60,84385,2,0,L|97:7,2,55.0000016784668,8|8|8,1:2|1:2|1:2,0:0:0:0:
124,116,85037,1,8,1:2:0:0:
124,116,85255,1,8,1:2:0:0:
216,52,85690,6,0,B|272:44|260:92|316:84,1,110.000003356934,4|0,3:2|3:2,0:0:0:0:
420,44,86559,1,8,1:2:0:0:
420,44,86777,2,0,L|442:151,1,110.000003356934,0|0,0:2|0:2,0:0:0:0:
456,204,87429,1,0,1:2:0:0:
444,312,87863,2,0,L|497:301,2,55.0000016784668,0|0|8,3:2|1:2|1:2,0:0:0:0:
392,308,88516,1,0,1:2:0:0:
392,308,88733,2,0,L|284:330,1,110.000003356934,0|0,1:1|0:2,0:0:0:0:
