osu file format v14

[General]
AudioFilename: audio.mp3
AudioLeadIn: 0
PreviewTime: -1
Countdown: 0
SampleSet: None
StackLeniency: 0.7
Mode: 0
LetterboxInBreaks: 0
WidescreenStoryboard: 0

[Editor]
Bookmarks: 50090
DistanceSpacing: 1.6
BeatDivisor: 4
GridSize: 8
TimelineZoom: 2.3

[Metadata]
Title:Everybody Gets High (Eyka Remix)
TitleUnicode:Everybody Gets High (Eyka Remix)
Artist:MISSIO
ArtistUnicode:MISSIO
Creator:DominicsHase
Version:Take A Sip.
Source:
Tags:
BeatmapID:1658565
BeatmapSetID:790410

[Difficulty]
HPDrainRate:5.1
CircleSize:4.1
OverallDifficulty:6.1
ApproachRate:9.1
SliderMultiplier:1.7
SliderTickRate:1

[Events]
//Background and Video events
0,0,"missio background.jpg",0,0
//Break Periods
//Storyboard Layer 0 (Background)
//Storyboard Layer 1 (Fail)
//Storyboard Layer 2 (Pass)
//Storyboard Layer 3 (Foreground)
//Storyboard Sound Samples

[TimingPoints]
16417.1752202822,510.204081632653,4,2,0,100,1,0
32743,-66.6666666666667,4,2,0,100,0,0
33126,-399.999999999997,4,2,0,100,0,0
37198,-50,4,2,0,100,0,0
37718,-399.999999999997,4,2,0,100,0,0
38355,-46.5116279069767,4,2,0,100,0,0
40396,-25,4,2,0,100,0,0
41034,-399.999999999997,4,2,0,100,0,0
44988,-66.6666666666667,4,2,0,100,0,0
45626,-43.4782608695652,4,2,0,100,0,0
46519,-285.714285714284,4,2,0,100,0,0
47029,-66.6666666666667,4,2,0,100,0,0
47284,-399.999999999997,4,2,0,100,0,0
47667,-66.6666666666667,4,2,0,100,0,0
50090,-1000,4,2,0,100,0,0
50600,-125,4,2,0,100,0,0
50983,-66.6666666666667,4,2,0,100,0,0
51621,-45.4545454545455,4,2,0,100,0,0
52131,-285.714285714284,4,2,0,100,0,0
52641,-29.4117647058824,4,2,0,100,0,0
54172,-133.333333333333,4,2,0,100,0,0
56468,-38.4615384615385,4,2,0,100,0,0
56723,-29.4117647058824,4,2,0,100,0,0
58253,-222.222222222221,4,2,0,100,0,0
58764,-38.4615384615385,4,2,0,100,0,0
59274,-30.3030303030303,4,2,0,100,0,0
59784,-25,4,2,0,100,0,0
60039,-153.846153846153,4,2,0,100,0,0
60741,-66.6666666666667,4,2,0,100,0,0
61060,-43.4782608695652,4,2,0,100,0,0
63993,-399.999999999997,4,2,0,100,0,0
68457,-100,4,2,0,100,0,0
69478,-181.818181818181,4,2,0,100,0,0
81213,-66.6666666666667,4,2,0,100,0,0
81723,-26.3157894736842,4,2,0,100,0,0
82488,-38.4615384615385,4,2,0,100,0,0
82743,-25,4,2,0,100,0,0

[HitObjects]
352,64,16417,5,0,0:0:0:0:
416,176,16672,1,0,0:0:0:0:
256,64,16927,1,0,0:0:0:0:
400,288,17182,2,0,P|368:304|288:288,1,85
112,48,17947,5,0,0:0:0:0:
192,240,18202,1,0,0:0:0:0:
288,32,18457,1,0,0:0:0:0:
160,256,18713,1,0,0:0:0:0:
64,48,18968,1,0,0:0:0:0:
320,112,19223,2,0,P|352:112|400:160,1,85
304,192,19733,6,0,L|256:144,1,42.5
352,144,19988,1,0,0:0:0:0:
144,336,20243,1,0,0:0:0:0:
320,288,20498,5,0,0:0:0:0:
400,192,20753,1,0,0:0:0:0:
224,240,21009,1,0,0:0:0:0:
96,192,21264,1,0,0:0:0:0:
400,112,21519,2,0,P|416:64|400:32,1,85
352,64,21901,2,0,L|416:96,1,42.5
480,144,22284,1,0,0:0:0:0:
176,64,22539,5,0,0:0:0:0:
400,224,22794,1,0,0:0:0:0:
112,112,23049,1,0,0:0:0:0:
464,96,23304,1,0,0:0:0:0:
64,240,23560,1,0,0:0:0:0:
384,64,24070,5,0,0:0:0:0:
352,272,24325,2,0,L|304:304,1,42.5
352,224,24580,5,0,0:0:0:0:
272,144,24835,1,0,0:0:0:0:
224,320,25090,1,0,0:0:0:0:
336,272,25345,1,0,0:0:0:0:
136,120,25600,1,0,0:0:0:0:
136,264,25855,1,0,0:0:0:0:
304,160,26111,2,0,P|336:128|352:80,1,85
176,128,26621,2,0,P|224:160|256:176,2,85
128,32,27386,5,0,0:0:0:0:
272,48,27641,2,0,P|336:64|400:128,1,127.5
432,208,28151,2,0,L|432:144,1,42.5
432,112,28406,1,0,0:0:0:0:
176,208,28662,1,0,0:0:0:0:
288,256,28917,1,0,0:0:0:0:
160,96,29172,1,0,0:0:0:0:
80,192,29427,1,0,0:0:0:0:
320,112,29682,2,0,P|272:80|208:80,1,85
256,320,30192,5,0,0:0:0:0:
320,256,30447,1,0,0:0:0:0:
192,112,30702,2,0,P|144:112|192:176,1,170
272,160,31468,1,0,0:0:0:0:
192,96,31723,2,0,P|112:96|192:208,1,297.5
240,176,32743,2,0,L|304:96,1,63.7500024318696
304,80,32998,1,0,0:0:0:0:
64,144,33253,1,0,0:0:0:0:
416,256,33509,1,0,0:0:0:0:
176,48,33764,6,0,L|160:112,1,63.75
160,144,34656,1,0,0:0:0:0:
208,112,34784,1,0,0:0:0:0:
88,224,35039,1,0,0:0:0:0:
344,192,35294,1,0,0:0:0:0:
88,304,35549,1,0,0:0:0:0:
320,112,35804,2,0,L|304:160,1,42.5
96,160,36442,1,0,0:0:0:0:
144,128,36570,1,0,0:0:0:0:
192,112,36697,1,0,0:0:0:0:
240,128,36825,2,0,L|256:144,1,21.25
304,96,37207,2,0,P|240:96|176:192,1,170
240,224,37590,1,0,0:0:0:0:
80,96,37845,6,0,L|80:128,1,31.875
336,224,38355,2,0,B|224:272|224:272|336:224,1,182.750002788544
256,192,38738,1,0,0:0:0:0:
304,176,38866,1,0,0:0:0:0:
336,304,39121,5,0,0:0:0:0:
112,192,39376,1,0,0:0:0:0:
416,144,39631,1,0,0:0:0:0:
176,336,39886,1,0,0:0:0:0:
288,112,40396,6,0,P|320:112|336:160,3,85
224,96,40651,1,0,0:0:0:0:
64,256,40906,1,0,0:0:0:0:
352,288,41162,2,0,L|368:272,1,21.25
352,224,41544,1,0,0:0:0:0:
88,224,41672,2,0,L|104:240,1,21.25
320,96,42182,1,0,0:0:0:0:
96,80,42437,2,0,L|80:112,1,31.875
128,128,42947,1,0,0:0:0:0:
368,96,43075,2,0,L|352:80,1,21.25
256,304,43457,5,0,0:0:0:0:
464,160,43713,1,0,0:0:0:0:
112,64,43968,1,0,0:0:0:0:
320,160,44223,2,0,L|336:144,1,21.25
320,96,44605,1,0,0:0:0:0:
256,64,44733,1,0,0:0:0:0:
192,144,44861,1,0,0:0:0:0:
96,48,44988,2,0,P|64:128|80:176,1,127.500004863739
112,144,45371,1,0,0:0:0:0:
96,80,45498,1,0,0:0:0:0:
48,144,45626,2,0,P|128:256|224:288,1,195.500003728867
224,272,46009,1,0,0:0:0:0:
304,240,46136,1,0,0:0:0:0:
368,160,46264,1,0,0:0:0:0:
384,48,46391,1,0,0:0:0:0:
240,80,46519,6,0,P|224:96|224:120,1,44.6249986381531
432,256,47029,6,0,P|432:224|408:168,2,63.7500024318696
432,320,47412,2,0,L|416:320,1,10.625
384,224,47667,2,0,P|416:240|400:304,1,63.7500024318696
320,288,47922,1,0,0:0:0:0:
144,128,48049,1,0,0:0:0:0:
256,192,49580,5,0,0:0:0:0:
368,64,50090,6,0,L|368:72,1,8.5
368,96,50473,1,0,0:0:0:0:
128,80,50600,2,0,L|208:80,1,68
408,128,50983,1,0,0:0:0:0:
88,176,51111,2,0,L|248:176,1,127.500004863739
440,144,51493,1,0,0:0:0:0:
72,280,51621,2,0,L|296:280,1,187.000005706787
472,160,52003,1,0,0:0:0:0:
128,40,52131,6,0,L|96:72,1,44.6249986381531
80,192,52641,1,0,0:0:0:0:
216,80,52769,1,0,0:0:0:0:
96,288,52896,2,0,P|144:288|264:224,1,144.500002756119
64,216,53151,2,0,L|40:120,3,72.2500013780594
128,120,53406,2,0,L|48:128,1,72.2500013780594
192,192,53534,2,0,L|112:192,1,72.2500013780594
200,64,53662,6,0,L|408:64,1,144.500002756119
392,64,53917,1,0,0:0:0:0:
384,144,54044,1,0,0:0:0:0:
360,240,54172,2,0,P|336:272|312:248,1,63.7500024318696
136,56,54554,5,0,0:0:0:0:
272,64,54682,1,0,0:0:0:0:
192,336,54937,6,0,L|192:280,1,31.8750012159348
192,48,55192,1,0,0:0:0:0:
416,224,55447,6,0,L|376:224,1,31.8750012159348
80,224,55702,1,0,0:0:0:0:
352,64,55957,6,0,P|376:48|408:72,1,63.7500024318696
400,208,56340,1,0,0:0:0:0:
344,232,56468,2,0,P|304:192|304:128,1,110.499994941712
432,144,56723,2,0,P|416:208|248:240,1,144.500002756119
320,112,56978,2,0,L|384:168,3,72.2500013780594
104,152,57233,2,0,L|40:200,3,72.2500013780594
272,72,57488,1,0,0:0:0:0:
104,152,57743,1,0,0:0:0:0:
464,152,57998,1,0,0:0:0:0:
176,320,58253,6,0,L|152:304,1,19.1249994163513
208,288,58509,1,0,0:0:0:0:
240,240,58636,1,0,0:0:0:0:
88,192,58764,2,0,L|224:48,1,110.499994941712
144,208,59019,1,0,0:0:0:0:
200,216,59146,1,0,0:0:0:0:
288,40,59274,6,0,L|192:256,1,140.250001337528
344,48,59529,1,0,0:0:0:0:
400,64,59656,1,0,0:0:0:0:
472,280,59784,2,0,L|216:272,1,170
352,136,60039,2,0,P|376:128|400:160,1,55.2499974708558
112,80,60613,6,0,L|96:96,1,13.812499367714
328,80,60868,2,0,L|368:96,1,31.8750012159348
120,280,61187,2,0,L|80:208,1,48.8750009322167
376,152,61825,1,0,0:0:0:0:
176,288,62080,2,0,P|144:216|216:80,1,195.500003728867
416,96,62590,6,0,L|392:240,1,97.7500018644333
416,40,62845,1,0,0:0:0:0:
144,216,63100,6,0,L|280:184,1,97.7500018644333
88,216,63355,1,0,0:0:0:0:
352,56,63611,5,0,0:0:0:0:
432,200,63738,1,0,0:0:0:0:
168,120,63866,2,0,P|232:128|280:168,1,97.7500018644333
168,208,64121,2,0,L|160:192,2,10.625
240,120,65906,5,0,0:0:0:0:
344,248,66162,1,0,0:0:0:0:
152,136,66417,2,0,P|152:120|160:120,2,21.25
368,224,67182,1,0,0:0:0:0:
256,56,67437,2,0,P|232:48|216:64,1,42.5
256,240,68202,1,0,0:0:0:0:
328,56,68457,2,0,P|256:48|160:96,1,170
256,240,69223,1,0,0:0:0:0:
280,64,69478,2,0,P|216:56|184:64,1,93.5000028533936
136,88,70116,1,0,0:0:0:0:
96,136,70243,1,0,0:0:0:0:
360,112,70498,6,0,L|400:72,2,46.7500014266968
184,256,71264,1,0,0:0:0:0:
408,56,71519,2,0,L|440:120,1,70.1250021400452
456,168,72029,2,0,L|456:136,1,23.3750007133484
456,96,72284,1,0,0:0:0:0:
120,80,72539,1,0,0:0:0:0:
416,176,72794,1,0,0:0:0:0:
104,168,73049,1,0,0:0:0:0:
408,56,73304,1,0,0:0:0:0:
256,328,73560,2,0,L|256:232,1,93.5000028533936
256,64,74580,5,0,0:0:0:0:
256,176,74835,1,0,0:0:0:0:
328,112,75090,5,0,0:0:0:0:
176,112,75345,1,0,0:0:0:0:
376,280,75600,5,0,0:0:0:0:
376,40,75855,1,0,0:0:0:0:
128,40,76111,1,0,0:0:0:0:
128,280,76366,1,0,0:0:0:0:
368,40,76621,2,0,L|336:40,1,23.3750007133484
240,216,76876,2,0,L|240:184,1,23.3750007133484
416,96,77131,2,0,L|384:96,1,23.3750007133484
304,264,77386,2,0,L|304:232,1,23.3750007133484
440,160,77641,2,0,L|368:160,1,70.1250021400452
312,168,78151,1,0,0:0:0:0:
248,168,78279,1,0,0:0:0:0:
184,168,78406,1,0,0:0:0:0:
344,64,78662,5,0,0:0:0:0:
200,280,78917,1,0,0:0:0:0:
144,48,79172,1,0,0:0:0:0:
408,184,79427,1,0,0:0:0:0:
88,224,79682,2,0,L|48:184,2,46.7500014266968
304,152,80447,1,0,0:0:0:0:
80,64,80702,2,0,L|72:112,1,46.7500014266968
304,152,81085,1,0,0:0:0:0:
80,64,81213,2,0,L|56:200,1,127.500004863739
304,152,81595,1,0,0:0:0:0:
80,64,81723,2,0,L|40:240,3,161.499995687485
136,56,82233,6,0,L|328:56,1,161.499995687485
448,128,82488,2,0,L|288:128,1,110.499994941712
120,240,82743,6,0,L|256:328,3,85
136,64,82998,2,0,L|136:160,3,85
352,104,83253,2,0,L|256:104,3,85
264,288,83509,2,0,L|368:288,3,85
304,232,83764,2,0,P|304:80|144:96,1,340
168,216,84146,1,0,0:0:0:0:
304,232,84274,2,0,P|304:80|144:96,1,340
168,216,84656,1,0,0:0:0:0:
248,128,84784,1,0,0:0:0:0:
88,128,85039,5,0,0:0:0:0:
368,280,85294,1,0,0:0:0:0:
376,40,85549,1,0,0:0:0:0:
368,280,85804,2,0,L|368:176,3,85
168,40,86060,2,0,L|168:176,3,85
288,88,86315,6,0,L|416:72,1,85
296,144,86442,2,0,L|184:176,1,85
312,200,86570,2,0,L|416:168,1,85
328,256,86697,2,0,L|216:296,1,85
352,312,86825,5,0,0:0:0:0:
408,88,87080,1,0,0:0:0:0:
200,136,87207,2,0,L|392:96,1,170
408,88,87590,1,0,0:0:0:0:
200,136,87845,5,0,0:0:0:0:
408,88,88100,5,0,0:0:0:0:
304,112,88228,1,0,0:0:0:0:
200,136,88355,1,0,0:0:0:0:
360,272,88611,5,0,0:0:0:0:
192,72,88866,2,0,L|64:136,1,85
216,120,88993,2,0,L|168:32,1,85
160,144,89121,2,0,L|288:80,1,85
136,88,89248,2,0,L|184:208,1,85
200,216,89376,6,0,L|264:152,1,85
260,155,89503,2,0,L|232:272,1,85
240,238,89631,2,0,L|312:160,1,85
304,176,89759,2,0,L|304:280,1,85
368,216,89886,1,0,0:0:0:0:
256,192,90396,5,4,0:0:0:0:
