osu file format v14

[General]
AudioFilename: audio.mp3
AudioLeadIn: 0
PreviewTime: 275757
Countdown: 0
SampleSet: None
StackLeniency: 0.7
Mode: 0
LetterboxInBreaks: 0
WidescreenStoryboard: 0

[Editor]
Bookmarks: 34069,36812,41586
DistanceSpacing: 1.5
BeatDivisor: 4
GridSize: 16
TimelineZoom: 1

[Metadata]
Title:Necro Fantasia
TitleUnicode:Necro Fantasia
Artist:MISATO
ArtistUnicode:MISATO
Creator:CloudBlaze
Version:Cherry Blossoms
Source:東方Project
Tags:
BeatmapID:1488795
BeatmapSetID:703710

[Difficulty]
HPDrainRate:6
CircleSize:6
OverallDifficulty:8
ApproachRate:9.2
SliderMultiplier:1.8
SliderTickRate:1

[Events]
//Background and Video events
0,0,"154153.jpg",0,0
//Break Periods
//Storyboard Layer 0 (Background)
//Storyboard Layer 1 (Fail)
//Storyboard Layer 2 (Pass)
//Storyboard Layer 3 (Foreground)
//Storyboard Sound Samples

[TimingPoints]
1472,342.857142857143,4,1,0,100,1,0
23414,-133.333333333333,4,2,0,50,0,0
34386,-100,4,2,0,70,0,0
43986,-100,4,2,0,30,0,0
45357,-83.3333333333333,4,1,1,100,0,0
45700,-100,4,2,0,70,0,0
50843,-83.3333333333333,4,1,1,100,0,0
51186,-100,4,2,0,70,0,0
56329,-83.3333333333333,4,1,1,100,0,0
56672,-100,4,2,0,70,0,0
61814,-83.3333333333333,4,1,1,100,0,0
62157,-83.3333333333333,4,2,0,70,0,0

[HitObjects]
76,174,23414,6,0,B|110:176|110:176|157:166,1,67.5000025749208
176,105,23757,2,0,B|142:103|142:103|95:113,1,67.5000025749208
112,237,24100,2,0,L|116:312,1,67.5000025749208
177,229,24443,2,0,L|215:165,1,67.5000025749208
327,85,24786,6,0,B|288:85|288:85|306:124,1,67.5000025749208
342,167,25129,2,0,B|353:192|353:192|314:192,1,67.5000025749208
245,170,25472,2,0,L|162:168,1,67.5000025749208
229,234,25814,2,0,L|324:251,1,67.5000025749208
469,114,26157,6,0,B|431:104|431:104|385:107,1,67.5000025749208
408,175,26500,2,0,B|379:176|379:176|341:166,1,67.5000025749208
332,89,26843,2,0,L|263:126,1,67.5000025749208
268,193,27186,2,0,B|224:177|224:177|176:185,1,67.5000025749208
103,92,27529,6,0,L|88:157,1,67.5000025749208
85,235,27872,2,0,B|120:224|120:224|148:186,1,67.5000025749208
167,136,28214,2,0,L|242:130,1,67.5000025749208
309,329,28557,6,0,L|326:243,1,67.5000025749208
329,189,28900,2,0,B|278:186|278:186|246:197,1,67.5000025749208
190,224,29243,2,0,B|228:257|228:257|261:267,1,67.5000025749208
284,317,29586,2,0,B|316:277|316:277|326:245,1,67.5000025749208
299,136,29929,2,0,B|266:175|266:175|256:207,1,67.5000025749208
193,333,30272,6,0,B|156:335|156:335|112:329,1,67.5000025749208
82,265,30614,2,0,B|119:267|119:267|163:261,1,67.5000025749208
192,202,30957,2,0,P|223:223|231:269,1,67.5000025749208
263,316,31300,2,0,B|300:323|300:323|352:316,1,67.5000025749208
401,268,31643,5,0,0:0:0:0:
424,183,31814,1,0,0:0:0:0:
387,102,31986,1,0,0:0:0:0:
308,63,32157,1,0,0:0:0:0:
272,143,32329,6,0,B|262:192|262:192|242:222,1,67.5000025749208
192,141,32672,2,0,B|202:92|202:92|222:62,1,67.5000025749208
272,140,33014,5,0,0:0:0:0:
305,221,33186,1,0,0:0:0:0:
265,298,33357,1,0,0:0:0:0:
181,324,33529,1,0,0:0:0:0:
116,264,33700,6,0,B|76:251|29:257,1,67.5000025749208
137,184,34043,2,0,B|175:175|226:183,1,67.5000025749208
240,131,34386,6,0,B|229:178|229:178|238:256,1,90,4|0,0:0|0:0,0:0:0:0:
273,300,34729,1,2,0:0:0:0:
304,216,34900,1,0,0:0:0:0:
214,202,35072,2,0,B|160:200|105:216,1,90
81,319,35414,2,0,B|129:327|190:305,1,90,2|0,0:0|0:0,0:0:0:0:
280,269,35757,1,0,0:0:0:0:
268,152,35929,1,0,0:0:0:0:
172,238,36100,1,2,0:0:0:0:
156,120,36272,1,0,0:0:0:0:
239,213,36443,6,0,B|242:260|242:260|221:314,1,90
143,206,36786,2,0,B|140:159|140:159|161:105,1,90,2|0,0:0|0:0,0:0:0:0:
255,36,37129,1,0,0:0:0:0:
276,151,37300,1,0,0:0:0:0:
191,69,37472,1,2,0:0:0:0:
306,91,37643,1,0,0:0:0:0:
250,217,37814,6,0,L|354:224,1,90
407,183,38157,2,0,B|420:221|420:221|402:285,1,90,2|0,0:0|0:0,0:0:0:0:
350,347,38500,1,0,0:0:0:0:
328,225,38672,1,0,0:0:0:0:
239,322,38843,1,2,0:0:0:0:
230,190,39014,1,0,0:0:0:0:
290,279,39186,1,0,0:0:0:0:
171,277,39357,1,0,0:0:0:0:
294,168,39529,1,2,0:0:0:0:
276,348,39700,1,0,0:0:0:0:
162,211,39872,6,0,B|119:206|119:206|58:215,1,90
219,275,40214,2,0,B|238:244|238:244|248:153,1,90,2|0,0:0|0:0,0:0:0:0:
210,78,40557,1,0,0:0:0:0:
167,187,40729,1,0,0:0:0:0:
268,128,40900,1,2,0:0:0:0:
278,244,41072,1,0,0:0:0:0:
212,340,41243,6,0,B|187:299|187:299|187:219,1,90
314,303,41586,2,0,B|339:262|339:262|339:182,1,90,2|0,0:0|0:0,0:0:0:0:
281,90,41929,1,0,0:0:0:0:
228,206,42100,1,0,0:0:0:0:
180,95,42272,1,2,0:0:0:0:
276,157,42443,1,0,0:0:0:0:
183,258,42614,1,0,0:0:0:0:
109,159,42786,5,0,0:0:0:0:
228,206,42957,1,2,0:0:0:0:
115,235,43129,1,0,0:0:0:0:
198,114,43300,1,0,0:0:0:0:
250,281,43472,1,0,0:0:0:0:
128,328,43643,1,2,0:0:0:0:
167,183,43814,1,0,0:0:0:0:
250,281,43986,5,0,0:0:0:0:
267,202,44158,1,0,0:0:0:0:
347,194,44329,1,0,0:0:0:0:
379,267,44500,1,0,0:0:0:0:
321,323,44672,1,0,0:0:0:0:
97,244,45014,5,0,0:0:0:0:
97,244,45357,2,0,B|154:196|241:221|241:221|172:293,1,215.999993408203,8|2,0:0|0:0,0:0:0:0:
72,323,45872,5,0,0:0:0:0:
43,191,46043,1,0,0:0:0:0:
145,278,46214,1,0,0:0:0:0:
177,146,46386,1,2,0:0:0:0:
84,243,46557,1,0,0:0:0:0:
219,243,46729,5,0,0:0:0:0:
352,259,46900,1,0,0:0:0:0:
252,166,47072,1,2,0:0:0:0:
277,295,47243,1,0,0:0:0:0:
332,178,47414,2,0,L|441:183,1,90
304,89,47757,2,0,L|184:96,1,90,2|0,0:0|0:0,0:0:0:0:
128,61,48100,6,0,P|142:147|87:228,1,180,0|2,0:0|0:0,0:0:0:0:
44,329,48614,6,0,B|108:307|108:307|242:334,1,180
297,328,49129,1,2,0:0:0:0:
331,260,49300,6,0,B|364:213|364:213|485:177,2,180
171,228,50157,5,0,0:0:0:0:
160,221,50500,1,0,0:0:0:0:
149,214,50843,6,8,B|120:168|56:168|56:168|81:123|176:116,1,215.999993408203,8|2,0:0|0:0,0:0:0:0:
251,70,51357,5,0,0:0:0:0:
281,192,51529,1,0,0:0:0:0:
357,78,51700,1,0,0:0:0:0:
394,209,51872,1,2,0:0:0:0:
319,133,52043,1,0,0:0:0:0:
231,253,52214,5,0,0:0:0:0:
217,124,52386,1,0,0:0:0:0:
143,252,52557,1,2,0:0:0:0:
279,184,52729,1,0,0:0:0:0:
257,323,52900,2,0,L|358:318,1,90
413,245,53243,2,0,L|300:250,1,90,2|0,0:0|0:0,0:0:0:0:
193,227,53586,6,0,B|149:190|81:197|81:197|139:142,1,180,0|2,0:0|0:0,0:0:0:0:
198,74,54100,6,0,B|246:44|280:81|280:81|344:75|344:75|359:110,1,180
410,149,54614,2,0,B|380:173|380:173|289:180,1,90,2|0,0:0|0:0,0:0:0:0:
237,162,54957,1,0,0:0:0:0:
161,269,55129,1,0,0:0:0:0:
142,143,55300,1,2,0:0:0:0:
69,243,55472,1,2,0:0:0:0:
187,200,55643,5,0,0:0:0:0:
139,333,55814,1,0,0:0:0:0:
107,190,55986,1,2,0:0:0:0:
202,320,56157,1,0,0:0:0:0:
274,169,56329,6,0,B|324:180|406:149|406:149|461:232,1,215.999993408203,8|2,0:0|0:0,0:0:0:0:
363,235,56843,5,0,0:0:0:0:
300,344,57014,1,0,0:0:0:0:
254,223,57186,1,0,0:0:0:0:
189,331,57357,1,2,0:0:0:0:
309,270,57529,1,0,0:0:0:0:
195,177,57700,5,0,0:0:0:0:
327,139,57872,1,0,0:0:0:0:
192,95,58043,1,2,0:0:0:0:
197,247,58214,1,0,0:0:0:0:
266,165,58386,2,0,B|295:191|295:191|376:192,1,90
374,97,58729,2,0,B|345:71|345:71|264:70,1,90,2|0,0:0|0:0,0:0:0:0:
117,68,59072,6,0,B|82:131|82:131|192:135,1,180,0|2,0:0|0:0,0:0:0:0:
195,222,59586,6,0,B|247:218|283:258|283:258|327:238|327:238|348:177,1,180
349,131,60100,1,2,0:0:0:0:
305,72,60272,2,0,B|253:42|213:72|207:72|175:108|110:51,2,180
403,163,61129,6,0,L|406:257,1,90
383,320,61472,2,0,B|342:299|342:299|265:302,1,90,2|0,0:0|0:0,0:0:0:0:
199,230,61814,6,0,B|157:200|111:226|111:226|63:186|63:186|118:139,1,215.999993408203,8|0,0:0|0:0,0:0:0:0:
