osu file format v14

[General]
AudioFilename: audio.mp3
AudioLeadIn: 0
PreviewTime: 275861
Countdown: 0
SampleSet: Normal
StackLeniency: 0.7
Mode: 1
LetterboxInBreaks: 0
WidescreenStoryboard: 0

[Editor]
Bookmarks: 23518,34490,45461,56433,67404,78376,89347,100318,111290,122261,133233,144204,155176,166147,177118,188090,199061,210033,221004,231976,242947,253918,264890,275861,286833,297804,308776,319747
DistanceSpacing: 1.5
BeatDivisor: 4
GridSize: 32
TimelineZoom: 3.099999

[Metadata]
Title:Necro Fantasia
TitleUnicode:Necro Fantasia
Artist:MISATO
ArtistUnicode:美里
Creator:Chromoxx
Version:Collab Oni
Source:東方妖々夢 ~ Perfect Cherry Blossom.
Tags:ネクロファンタジア Touhou Toho Arrange Album Youyoumu Ghostly Dream 八雲 紫 Yukari Yakumo Necrofantasia Masayoshi Minoshima Haruka Phantasm Stage Boss Theme For Your Pieces EXSERENSES C74 Reitaisai8 - Magic Girl - JBHyperion Nwolf hikikochan Lasse Alstroemeria Records ALR 東方Project
BeatmapID:1097542
BeatmapSetID:516494

[Difficulty]
HPDrainRate:5
CircleSize:4
OverallDifficulty:5
ApproachRate:9
SliderMultiplier:1.4
SliderTickRate:1

[Events]
//Background and Video events
0,0,"Necro Fantasia.jpg",0,0
//Break Periods
//Storyboard Layer 0 (Background)
//Storyboard Layer 1 (Fail)
//Storyboard Layer 2 (Pass)
//Storyboard Layer 3 (Foreground)
//Storyboard Sound Samples

[TimingPoints]
1576,342.857142857143,4,1,0,50,1,0
45461,-100,4,1,0,80,0,0
122261,-100,4,1,0,100,0,1
166147,-100,4,1,0,100,0,0
231976,-125,4,1,0,100,0,0
253918,-111.111111111111,4,1,0,100,0,0
275861,-100,4,1,0,100,0,1
319747,-100,4,1,0,100,0,0
341690,-100,4,1,0,50,0,0

[HitObjects]
192,160,1576,5,0,0:0:0:0:
320,256,4318,1,0,0:0:0:0:
256,256,5690,1,8,0:0:0:0:
320,256,7061,1,0,0:0:0:0:
320,256,9804,1,0,0:0:0:0:
288,256,11176,1,0,0:0:0:0:
320,256,12547,1,0,0:0:0:0:
320,256,15290,1,0,0:0:0:0:
320,224,16661,1,8,0:0:0:0:
128,128,18033,1,0,0:0:0:0:
320,224,20776,5,0,0:0:0:0:
256,192,22147,1,8,0:0:0:0:
224,160,23518,5,0,0:0:0:0:
288,160,23861,1,8,0:0:0:0:
288,160,24204,1,8,0:0:0:0:
288,160,24547,1,8,0:0:0:0:
224,160,24890,1,0,0:0:0:0:
288,160,25233,1,8,0:0:0:0:
288,160,25576,1,8,0:0:0:0:
288,160,25918,1,8,0:0:0:0:
288,160,26090,1,8,0:0:0:0:
224,160,26261,1,0,0:0:0:0:
288,160,26604,1,8,0:0:0:0:
288,160,26947,1,8,0:0:0:0:
288,160,27290,1,8,0:0:0:0:
224,160,27633,1,0,0:0:0:0:
288,160,27804,1,8,0:0:0:0:
288,160,27976,1,8,0:0:0:0:
288,160,28318,1,8,0:0:0:0:
224,160,29004,1,0,0:0:0:0:
288,160,29176,1,8,0:0:0:0:
288,160,29347,1,8,0:0:0:0:
288,160,29690,1,8,0:0:0:0:
288,160,30033,1,8,0:0:0:0:
288,160,30204,1,8,0:0:0:0:
224,160,30376,1,0,0:0:0:0:
288,160,30718,1,8,0:0:0:0:
288,160,31061,1,8,0:0:0:0:
288,160,31404,1,8,0:0:0:0:
288,160,31576,1,8,0:0:0:0:
224,160,31747,1,0,0:0:0:0:
224,160,31918,1,0,0:0:0:0:
288,160,32090,1,8,0:0:0:0:
288,160,32433,1,8,0:0:0:0:
288,160,32776,1,8,0:0:0:0:
224,160,32947,1,0,0:0:0:0:
224,160,33118,1,0,0:0:0:0:
288,160,33461,1,8,0:0:0:0:
288,160,33804,1,8,0:0:0:0:
288,160,34147,1,8,0:0:0:0:
288,160,34318,1,8,0:0:0:0:
256,160,34490,1,0,0:0:0:0:
192,256,34833,1,8,0:0:0:0:
192,256,35347,1,0,0:0:0:0:
192,256,35518,1,8,0:0:0:0:
192,256,35861,1,0,0:0:0:0:
224,224,36204,1,0,0:0:0:0:
192,256,36718,1,8,0:0:0:0:
192,256,36890,1,8,0:0:0:0:
192,224,37233,1,0,0:0:0:0:
192,224,37576,1,8,0:0:0:0:
192,224,38090,1,0,0:0:0:0:
96,160,38261,1,8,0:0:0:0:
320,256,38604,1,0,0:0:0:0:
320,256,38947,1,0,0:0:0:0:
256,224,39461,1,8,0:0:0:0:
256,224,39633,1,8,0:0:0:0:
224,224,39976,1,0,0:0:0:0:
224,224,40318,1,8,0:0:0:0:
224,224,40661,1,0,0:0:0:0:
224,224,40833,1,0,0:0:0:0:
224,224,41004,1,8,0:0:0:0:
224,224,41347,1,0,0:0:0:0:
224,224,41690,1,0,0:0:0:0:
224,224,42033,1,8,0:0:0:0:
224,224,42204,1,0,0:0:0:0:
224,224,42376,1,8,0:0:0:0:
224,192,42718,1,0,0:0:0:0:
256,192,43061,1,8,0:0:0:0:
256,192,43404,1,0,0:0:0:0:
256,192,43576,1,0,0:0:0:0:
224,192,43747,1,8,0:0:0:0:
224,192,44090,1,0,0:0:0:0:
224,192,44776,1,8,0:0:0:0:
224,224,45461,5,4,0:0:0:0:
288,160,45633,1,8,0:0:0:0:
288,160,45804,1,8,0:0:0:0:
288,160,45976,1,8,0:0:0:0:
288,160,46061,1,8,0:0:0:0:
288,160,46147,1,8,0:0:0:0:
224,160,46318,1,0,0:0:0:0:
288,160,46490,1,8,0:0:0:0:
224,160,46661,1,0,0:0:0:0:
224,160,46833,1,0,0:0:0:0:
288,160,47004,1,8,0:0:0:0:
288,160,47176,1,8,0:0:0:0:
224,160,47347,1,0,0:0:0:0:
224,160,47433,1,0,0:0:0:0:
288,160,47518,1,8,0:0:0:0:
224,160,47690,1,0,0:0:0:0:
288,160,47861,1,8,0:0:0:0:
224,160,48204,1,0,0:0:0:0:
224,160,48376,1,0,0:0:0:0:
288,160,48547,1,8,0:0:0:0:
288,160,48718,1,8,0:0:0:0:
288,160,48804,1,8,0:0:0:0:
224,160,48890,1,0,0:0:0:0:
288,160,49061,1,8,0:0:0:0:
288,160,49233,1,8,0:0:0:0:
224,160,49404,1,0,0:0:0:0:
224,160,49490,1,0,0:0:0:0:
288,160,49576,1,8,0:0:0:0:
224,160,49747,1,0,0:0:0:0:
288,160,49918,1,8,0:0:0:0:
288,160,50261,1,8,0:0:0:0:
224,160,50433,1,0,0:0:0:0:
288,160,50604,1,8,0:0:0:0:
288,160,50776,1,8,0:0:0:0:
224,160,50947,1,0,0:0:0:0:
224,160,51118,1,0,0:0:0:0:
288,160,51290,1,8,0:0:0:0:
288,160,51461,1,8,0:0:0:0:
288,160,51547,1,8,0:0:0:0:
288,160,51633,1,8,0:0:0:0:
224,160,51804,1,0,0:0:0:0:
288,160,51976,1,8,0:0:0:0:
288,160,52147,1,8,0:0:0:0:
224,160,52318,1,0,0:0:0:0:
224,160,52490,1,0,0:0:0:0:
288,160,52661,1,8,0:0:0:0:
288,160,52833,1,8,0:0:0:0:
224,160,52918,1,0,0:0:0:0:
288,160,53004,1,8,0:0:0:0:
224,160,53176,1,0,0:0:0:0:
288,160,53347,1,8,0:0:0:0:
224,160,53690,1,0,0:0:0:0:
224,160,53861,1,0,0:0:0:0:
288,160,54033,1,8,0:0:0:0:
288,160,54204,1,8,0:0:0:0:
288,160,54290,1,8,0:0:0:0:
224,160,54376,1,0,0:0:0:0:
224,160,54547,1,0,0:0:0:0:
288,160,54718,1,8,0:0:0:0:
224,160,54890,1,0,0:0:0:0:
288,160,54976,1,8,0:0:0:0:
224,160,55061,1,0,0:0:0:0:
224,160,55233,1,0,0:0:0:0:
288,160,55404,1,8,0:0:0:0:
224,160,55490,1,0,0:0:0:0:
288,160,55576,1,8,0:0:0:0:
224,160,55747,1,0,0:0:0:0:
224,160,55918,1,0,0:0:0:0:
224,160,56004,1,0,0:0:0:0:
288,160,56090,1,8,0:0:0:0:
288,160,56261,1,8,0:0:0:0:
160,224,56433,1,4,0:0:0:0:
352,192,56604,1,8,0:0:0:0:
352,192,56776,1,8,0:0:0:0:
288,160,56861,1,8,0:0:0:0:
288,160,56947,1,0,0:0:0:0:
288,160,57118,1,8,0:0:0:0:
288,160,57290,1,0,0:0:0:0:
288,160,57376,1,0,0:0:0:0:
288,160,57461,1,8,0:0:0:0:
320,256,57633,1,0,0:0:0:0:
288,256,57804,1,0,0:0:0:0:
128,96,57976,1,8,0:0:0:0:
128,96,58147,1,8,0:0:0:0:
128,96,58233,1,8,0:0:0:0:
128,96,58318,1,0,0:0:0:0:
128,96,58490,1,8,0:0:0:0:
256,224,58661,1,0,0:0:0:0:
256,224,58833,1,8,0:0:0:0:
256,224,58918,1,8,0:0:0:0:
256,224,59004,1,8,0:0:0:0:
224,192,59176,1,0,0:0:0:0:
256,96,59347,1,0,0:0:0:0:
256,96,59433,1,0,0:0:0:0:
256,96,59518,1,8,0:0:0:0:
288,256,59690,1,8,0:0:0:0:
288,224,59861,1,0,0:0:0:0:
256,256,60033,1,0,0:0:0:0:
256,256,60118,1,0,0:0:0:0:
0,96,60204,1,8,0:0:0:0:
320,256,60376,1,8,0:0:0:0:
96,64,60547,1,0,0:0:0:0:
96,64,60718,1,8,0:0:0:0:
96,64,60804,1,0,0:0:0:0:
96,64,60890,1,8,0:0:0:0:
256,160,61061,1,8,0:0:0:0:
256,160,61233,1,0,0:0:0:0:
192,192,61318,1,0,0:0:0:0:
192,224,61404,1,0,0:0:0:0:
192,224,61576,1,8,0:0:0:0:
256,160,61918,1,4,0:0:0:0:
256,128,62090,1,0,0:0:0:0:
256,128,62261,1,8,0:0:0:0:
256,128,62347,1,8,0:0:0:0:
256,128,62433,1,0,0:0:0:0:
256,128,62604,1,8,0:0:0:0:
352,160,62776,1,0,0:0:0:0:
352,160,62861,1,0,0:0:0:0:
352,160,62947,1,8,0:0:0:0:
384,256,63118,1,0,0:0:0:0:
384,256,63290,1,0,0:0:0:0:
224,96,63461,1,0,0:0:0:0:
224,96,63547,1,0,0:0:0:0:
224,96,63633,1,8,0:0:0:0:
224,96,63804,1,0,0:0:0:0:
224,96,63976,1,8,0:0:0:0:
224,96,64061,1,8,0:0:0:0:
224,96,64147,1,0,0:0:0:0:
224,96,64318,1,8,0:0:0:0:
320,192,64490,1,8,0:0:0:0:
320,192,64661,1,0,0:0:0:0:
320,128,64833,1,0,0:0:0:0:
320,128,64918,1,0,0:0:0:0:
320,128,65004,1,8,0:0:0:0:
320,128,65176,1,0,0:0:0:0:
96,128,65261,1,0,0:0:0:0:
192,320,65347,1,0,0:0:0:0:
320,128,65518,1,0,0:0:0:0:
384,192,65690,1,8,0:0:0:0:
224,288,65776,1,8,0:0:0:0:
224,288,65861,1,8,0:0:0:0:
352,224,66033,1,0,0:0:0:0:
352,192,66204,1,0,0:0:0:0:
96,96,66376,1,8,0:0:0:0:
96,96,66461,1,0,0:0:0:0:
96,96,66547,1,8,0:0:0:0:
192,0,66718,1,0,0:0:0:0:
192,320,66890,1,0,0:0:0:0:
160,64,67061,1,8,0:0:0:0:
160,64,67233,1,0,0:0:0:0:
224,224,67404,5,4,0:0:0:0:
224,160,67576,1,0,0:0:0:0:
224,160,67661,1,0,0:0:0:0:
288,160,67747,1,8,0:0:0:0:
224,160,67918,1,0,0:0:0:0:
288,160,68004,1,8,0:0:0:0:
224,160,68090,1,0,0:0:0:0:
224,160,68261,1,0,0:0:0:0:
288,160,68433,1,8,0:0:0:0:
288,160,68604,1,8,0:0:0:0:
224,160,68776,1,0,0:0:0:0:
224,160,68947,1,0,0:0:0:0:
288,160,69033,1,8,0:0:0:0:
288,160,69118,1,8,0:0:0:0:
224,160,69290,1,0,0:0:0:0:
224,160,69376,1,0,0:0:0:0:
224,160,69461,1,0,0:0:0:0:
224,160,69633,1,0,0:0:0:0:
288,160,69804,1,8,0:0:0:0:
224,160,70147,1,0,0:0:0:0:
224,160,70318,1,0,0:0:0:0:
224,160,70404,1,0,0:0:0:0:
288,160,70490,1,8,0:0:0:0:
288,160,70661,1,8,0:0:0:0:
288,160,70747,1,8,0:0:0:0:
288,160,70833,1,8,0:0:0:0:
224,160,71004,1,0,0:0:0:0:
288,160,71176,1,8,0:0:0:0:
288,160,71347,1,8,0:0:0:0:
224,160,71518,1,0,0:0:0:0:
224,160,71690,1,0,0:0:0:0:
288,160,71861,1,8,0:0:0:0:
288,160,72033,1,8,0:0:0:0:
288,160,72118,1,8,0:0:0:0:
224,160,72204,1,0,0:0:0:0:
224,160,72376,1,0,0:0:0:0:
288,160,72547,1,8,0:0:0:0:
288,160,72718,1,8,0:0:0:0:
224,160,72890,1,0,0:0:0:0:
224,160,73061,1,0,0:0:0:0:
224,160,73147,1,0,0:0:0:0:
288,160,73233,1,8,0:0:0:0:
288,160,73404,1,8,0:0:0:0:
224,160,73490,1,0,0:0:0:0:
288,160,73576,1,8,0:0:0:0:
224,160,73747,1,0,0:0:0:0:
288,160,73918,1,8,0:0:0:0:
288,160,74090,1,8,0:0:0:0:
224,160,74261,1,0,0:0:0:0:
224,160,74433,1,0,0:0:0:0:
288,160,74518,1,8,0:0:0:0:
288,160,74604,1,8,0:0:0:0:
288,160,74776,1,8,0:0:0:0:
288,160,74861,1,8,0:0:0:0:
288,160,74947,1,8,0:0:0:0:
224,160,75118,1,0,0:0:0:0:
288,160,75290,1,8,0:0:0:0:
224,160,75633,1,0,0:0:0:0:
224,160,76147,1,0,0:0:0:0:
224,160,77004,1,0,0:0:0:0:
224,160,77518,1,0,0:0:0:0:
288,160,78033,1,8,0:0:0:0:
416,288,78376,1,4,0:0:0:0:
224,96,78547,1,0,0:0:0:0:
224,96,78718,1,8,0:0:0:0:
224,96,78890,1,0,0:0:0:0:
224,96,78976,1,0,0:0:0:0:
224,96,79061,1,8,0:0:0:0:
224,96,79233,1,0,0:0:0:0:
224,96,79404,1,8,0:0:0:0:
224,96,79576,1,0,0:0:0:0:
224,96,79661,1,0,0:0:0:0:
224,96,79747,1,0,0:0:0:0:
288,160,79918,1,0,0:0:0:0:
288,160,80004,1,0,0:0:0:0:
288,160,80090,1,8,0:0:0:0:
288,160,80261,1,0,0:0:0:0:
288,160,80433,1,8,0:0:0:0:
288,160,80518,1,8,0:0:0:0:
288,160,80604,1,0,0:0:0:0:
288,160,80776,1,8,0:0:0:0:
288,160,80947,1,8,0:0:0:0:
320,288,81118,1,0,0:0:0:0:
384,224,81290,1,0,0:0:0:0:
384,224,81376,1,0,0:0:0:0:
384,224,81461,1,8,0:0:0:0:
384,224,81633,1,0,0:0:0:0:
384,224,81804,1,8,0:0:0:0:
352,160,81890,1,8,0:0:0:0:
384,224,81976,1,0,0:0:0:0:
192,160,82147,1,8,0:0:0:0:
416,288,82318,1,0,0:0:0:0:
192,96,82404,1,0,0:0:0:0:
192,96,82490,1,0,0:0:0:0:
320,192,82661,1,0,0:0:0:0:
320,192,82747,1,0,0:0:0:0:
320,192,82833,1,8,0:0:0:0:
320,160,83004,1,8,0:0:0:0:
320,160,83176,1,0,0:0:0:0:
320,160,83261,1,0,0:0:0:0:
320,160,83347,1,0,0:0:0:0:
320,160,83518,1,8,0:0:0:0:
416,256,83861,1,4,0:0:0:0:
288,192,84033,1,0,0:0:0:0:
288,192,84118,1,0,0:0:0:0:
288,192,84204,1,8,0:0:0:0:
288,192,84376,1,0,0:0:0:0:
288,192,84547,1,8,0:0:0:0:
288,192,84633,1,8,0:0:0:0:
288,192,84718,1,0,0:0:0:0:
288,192,84890,1,8,0:0:0:0:
288,160,85061,1,0,0:0:0:0:
320,288,85147,1,0,0:0:0:0:
384,256,85233,1,0,0:0:0:0:
288,160,85404,1,0,0:0:0:0:
288,160,85576,1,8,0:0:0:0:
256,288,85747,1,0,0:0:0:0:
256,288,85833,1,0,0:0:0:0:
256,256,85918,1,8,0:0:0:0:
256,256,86090,1,0,0:0:0:0:
256,256,86261,1,8,0:0:0:0:
320,224,86433,1,8,0:0:0:0:
256,224,86518,1,8,0:0:0:0:
256,256,86604,1,0,0:0:0:0:
256,256,86776,1,0,0:0:0:0:
256,256,86861,1,0,0:0:0:0:
256,256,86947,1,8,0:0:0:0:
256,256,87118,1,0,0:0:0:0:
384,224,87290,1,8,0:0:0:0:
384,224,87376,1,8,0:0:0:0:
384,224,87461,1,0,0:0:0:0:
384,224,87633,1,8,0:0:0:0:
384,224,87804,1,0,0:0:0:0:
384,224,87890,1,0,0:0:0:0:
384,224,87976,1,0,0:0:0:0:
352,224,88147,1,0,0:0:0:0:
352,224,88233,1,0,0:0:0:0:
352,224,88318,1,8,0:0:0:0:
352,224,88490,1,0,0:0:0:0:
384,224,88661,1,0,0:0:0:0:
384,224,88747,1,8,0:0:0:0:
384,224,88833,1,0,0:0:0:0:
384,224,89004,1,8,0:0:0:0:
224,224,89347,5,4,0:0:0:0:
224,160,89518,1,0,0:0:0:0:
224,160,89604,1,0,0:0:0:0:
288,160,89690,1,8,0:0:0:0:
288,160,89861,1,8,0:0:0:0:
288,160,89947,1,8,0:0:0:0:
288,160,90033,1,8,0:0:0:0:
224,160,90204,1,0,0:0:0:0:
288,160,90376,1,8,0:0:0:0:
288,160,90547,1,8,0:0:0:0:
224,160,90718,1,0,0:0:0:0:
288,160,90890,1,8,0:0:0:0:
224,160,90976,1,0,0:0:0:0:
288,160,91061,1,8,0:0:0:0:
288,160,91233,1,8,0:0:0:0:
288,160,91318,1,8,0:0:0:0:
224,160,91404,1,0,0:0:0:0:
224,160,91576,1,0,0:0:0:0:
288,160,91747,1,8,0:0:0:0:
224,160,91918,1,0,0:0:0:0:
288,160,92090,1,8,0:0:0:0:
224,160,92261,1,0,0:0:0:0:
224,160,92347,1,0,0:0:0:0:
288,160,92433,1,8,0:0:0:0:
288,160,92604,1,8,0:0:0:0:
288,160,92690,1,8,0:0:0:0:
288,160,92776,1,8,0:0:0:0:
224,160,92947,1,0,0:0:0:0:
288,160,93118,1,8,0:0:0:0:
288,160,93290,1,8,0:0:0:0:
224,160,93461,1,0,0:0:0:0:
224,160,93633,1,0,0:0:0:0:
288,160,93804,1,8,0:0:0:0:
288,160,93976,1,8,0:0:0:0:
224,160,94061,1,0,0:0:0:0:
288,160,94147,1,8,0:0:0:0:
224,160,94318,1,0,0:0:0:0:
288,160,94490,1,8,0:0:0:0:
224,160,94833,1,0,0:0:0:0:
224,160,95004,1,0,0:0:0:0:
224,160,95090,1,0,0:0:0:0:
288,160,95176,1,8,0:0:0:0:
288,160,95347,1,8,0:0:0:0:
288,160,95433,1,8,0:0:0:0:
288,160,95518,1,8,0:0:0:0:
224,160,95690,1,0,0:0:0:0:
288,160,95861,1,8,0:0:0:0:
288,160,96033,1,8,0:0:0:0:
224,160,96204,1,0,0:0:0:0:
224,160,96376,1,0,0:0:0:0:
224,160,96461,1,0,0:0:0:0:
288,160,96547,1,8,0:0:0:0:
288,160,96718,1,8,0:0:0:0:
224,160,96890,1,0,0:0:0:0:
224,160,97061,1,0,0:0:0:0:
288,160,97233,1,8,0:0:0:0:
224,160,97404,1,0,0:0:0:0:
288,160,97576,1,8,0:0:0:0:
224,160,97747,1,0,0:0:0:0:
288,160,97833,1,8,0:0:0:0:
288,160,97918,1,8,0:0:0:0:
288,160,98090,1,8,0:0:0:0:
224,160,98176,1,0,0:0:0:0:
288,160,98261,1,8,0:0:0:0:
224,160,98433,1,0,0:0:0:0:
288,160,98604,1,8,0:0:0:0:
288,160,98776,1,8,0:0:0:0:
224,160,98947,1,0,0:0:0:0:
224,160,99118,1,0,0:0:0:0:
224,160,99204,1,0,0:0:0:0:
288,160,99290,1,8,0:0:0:0:
288,160,99461,1,8,0:0:0:0:
288,160,99547,1,8,0:0:0:0:
224,160,99633,1,0,0:0:0:0:
288,160,99718,1,8,0:0:0:0:
224,160,99804,1,0,0:0:0:0:
288,160,99976,1,8,0:0:0:0:
224,160,100147,1,0,0:0:0:0:
160,128,100318,1,12,0:0:0:0:
256,128,100490,1,0,0:0:0:0:
256,128,100576,1,0,0:0:0:0:
256,128,100661,1,0,0:0:0:0:
384,256,100833,1,8,0:0:0:0:
384,256,101004,1,0,0:0:0:0:
384,256,101176,1,0,0:0:0:0:
224,96,101347,1,8,0:0:0:0:
416,256,101518,1,0,0:0:0:0:
64,128,101690,1,8,0:0:0:0:
64,128,101861,1,0,0:0:0:0:
64,128,101947,1,0,0:0:0:0:
64,128,102033,1,8,0:0:0:0:
320,288,102204,1,0,0:0:0:0:
320,288,102376,1,8,0:0:0:0:
64,128,102547,1,0,0:0:0:0:
64,128,102718,1,8,0:0:0:0:
384,256,103061,1,0,0:0:0:0:
384,224,103233,1,8,0:0:0:0:
384,224,103318,1,8,0:0:0:0:
384,224,103404,1,8,0:0:0:0:
384,224,103576,1,0,0:0:0:0:
384,224,103747,1,8,0:0:0:0:
384,224,103918,1,0,0:0:0:0:
384,224,104090,1,8,0:0:0:0:
384,224,104261,1,8,0:0:0:0:
384,224,104433,1,0,0:0:0:0:
416,320,104604,1,0,0:0:0:0:
416,320,104690,1,0,0:0:0:0:
416,320,104776,1,8,0:0:0:0:
416,320,104947,1,8,0:0:0:0:
416,288,105118,1,0,0:0:0:0:
416,288,105290,1,0,0:0:0:0:
416,288,105461,1,8,0:0:0:0:
320,256,105804,1,0,0:0:0:0:
384,224,106147,1,8,0:0:0:0:
384,224,106318,1,0,0:0:0:0:
384,224,106404,1,0,0:0:0:0:
384,224,106490,1,0,0:0:0:0:
384,320,106661,1,0,0:0:0:0:
384,320,106833,1,8,0:0:0:0:
384,320,107004,1,0,0:0:0:0:
384,224,107176,1,0,0:0:0:0:
384,320,107347,1,8,0:0:0:0:
288,192,107518,1,0,0:0:0:0:
288,224,107690,1,0,0:0:0:0:
288,224,107776,1,0,0:0:0:0:
288,224,107861,1,8,0:0:0:0:
288,224,108033,1,0,0:0:0:0:
288,224,108204,1,8,0:0:0:0:
288,224,108376,1,8,0:0:0:0:
288,224,108547,1,0,0:0:0:0:
416,288,108890,1,8,0:0:0:0:
352,192,109061,1,0,0:0:0:0:
352,192,109147,1,0,0:0:0:0:
352,192,109233,1,8,0:0:0:0:
352,192,109404,1,0,0:0:0:0:
352,192,109576,1,8,0:0:0:0:
384,224,109747,1,8,0:0:0:0:
384,224,109918,1,0,0:0:0:0:
384,224,110090,1,0,0:0:0:0:
384,224,110176,1,0,0:0:0:0:
384,224,110261,1,8,0:0:0:0:
416,320,110433,1,0,0:0:0:0:
352,224,110604,1,0,0:0:0:0:
352,224,110690,1,8,0:0:0:0:
352,224,110776,1,0,0:0:0:0:
352,224,110947,1,8,0:0:0:0:
224,224,111290,5,4,0:0:0:0:
224,160,111461,1,0,0:0:0:0:
224,160,111547,1,0,0:0:0:0:
288,160,111633,1,8,0:0:0:0:
288,160,111804,1,8,0:0:0:0:
224,160,112147,1,0,0:0:0:0:
224,160,112233,1,0,0:0:0:0:
288,160,112318,1,8,0:0:0:0:
288,160,112490,1,8,0:0:0:0:
288,160,112576,1,8,0:0:0:0:
224,160,112661,1,0,0:0:0:0:
224,160,112833,1,0,0:0:0:0:
288,160,113004,1,8,0:0:0:0:
224,160,113176,1,0,0:0:0:0:
224,160,113518,1,0,0:0:0:0:
288,160,113690,1,8,0:0:0:0:
224,160,114033,1,0,0:0:0:0:
224,160,114204,1,0,0:0:0:0:
224,160,114290,1,0,0:0:0:0:
288,160,114376,1,8,0:0:0:0:
288,160,114547,1,8,0:0:0:0:
224,160,114890,1,0,0:0:0:0:
224,160,114976,1,0,0:0:0:0:
288,160,115061,1,8,0:0:0:0:
288,160,115233,1,8,0:0:0:0:
288,160,115318,1,8,0:0:0:0:
224,160,115404,1,0,0:0:0:0:
224,160,115576,1,0,0:0:0:0:
288,160,115747,1,8,0:0:0:0:
288,160,115918,1,8,0:0:0:0:
224,160,116261,1,0,0:0:0:0:
224,160,116347,1,0,0:0:0:0:
288,160,116433,1,8,0:0:0:0:
224,160,116604,1,0,0:0:0:0:
288,224,116776,1,12,0:0:0:0:
224,160,116947,1,0,0:0:0:0:
224,160,117118,1,0,0:0:0:0:
288,224,117290,1,12,0:0:0:0:
224,160,117461,1,0,0:0:0:0:
224,160,117633,1,0,0:0:0:0:
288,224,117804,1,12,0:0:0:0:
224,160,117976,1,0,0:0:0:0:
288,224,118147,1,12,0:0:0:0:
224,160,118318,1,0,0:0:0:0:
224,160,118404,1,0,0:0:0:0:
224,160,118490,1,0,0:0:0:0:
288,224,118661,1,12,0:0:0:0:
224,160,118833,1,0,0:0:0:0:
224,160,118918,1,0,0:0:0:0:
224,160,119004,1,0,0:0:0:0:
288,224,119176,1,12,0:0:0:0:
288,224,119518,1,12,0:0:0:0:
224,160,119690,1,0,0:0:0:0:
224,160,120033,1,0,0:0:0:0:
288,224,120204,1,12,0:0:0:0:
224,160,120376,1,0,0:0:0:0:
224,160,120718,1,0,0:0:0:0:
288,224,120890,1,12,0:0:0:0:
288,160,121233,1,8,0:0:0:0:
288,160,121404,1,8,0:0:0:0:
224,160,121747,1,0,0:0:0:0:
288,160,121918,1,8,0:0:0:0:
288,96,122261,1,4,0:0:0:0:
128,128,122433,1,0,0:0:0:0:
128,128,122604,1,8,0:0:0:0:
128,128,122776,1,0,0:0:0:0:
128,128,122861,1,0,0:0:0:0:
128,128,122947,1,8,0:0:0:0:
128,128,123118,1,0,0:0:0:0:
128,128,123290,1,8,0:0:0:0:
352,256,123376,1,0,0:0:0:0:
320,256,123461,1,8,0:0:0:0:
288,288,123633,1,0,0:0:0:0:
256,224,123804,1,8,0:0:0:0:
256,224,123976,1,0,0:0:0:0:
256,224,124147,1,0,0:0:0:0:
256,224,124318,1,8,0:0:0:0:
256,224,124490,1,0,0:0:0:0:
256,224,124576,1,0,0:0:0:0:
192,96,124661,1,0,0:0:0:0:
416,320,125004,1,8,0:0:0:0:
352,224,125176,1,0,0:0:0:0:
352,224,125261,1,0,0:0:0:0:
352,224,125347,1,8,0:0:0:0:
352,256,125518,1,0,0:0:0:0:
352,224,125690,1,8,0:0:0:0:
352,256,125776,1,8,0:0:0:0:
352,256,125861,1,8,0:0:0:0:
352,256,126033,1,0,0:0:0:0:
352,256,126376,1,0,0:0:0:0:
352,256,126547,1,0,0:0:0:0:
352,256,126633,1,0,0:0:0:0:
352,256,126718,1,8,0:0:0:0:
352,256,126890,1,8,0:0:0:0:
256,192,127061,1,0,0:0:0:0:
256,192,127233,1,0,0:0:0:0:
256,160,127404,1,8,0:0:0:0:
128,160,127576,1,0,0:0:0:0:
384,288,127661,1,0,0:0:0:0:
128,128,127747,1,0,0:0:0:0:
416,320,127918,1,0,0:0:0:0:
416,288,128004,1,0,0:0:0:0:
256,160,128090,1,8,0:0:0:0:
160,192,128261,1,8,0:0:0:0:
160,192,128433,1,0,0:0:0:0:
160,192,128604,1,0,0:0:0:0:
64,128,128776,1,8,0:0:0:0:
384,256,129118,1,0,0:0:0:0:
288,192,129290,1,8,0:0:0:0:
288,192,129376,1,8,0:0:0:0:
320,288,129461,1,0,0:0:0:0:
288,192,129633,1,8,0:0:0:0:
288,192,129804,1,0,0:0:0:0:
288,192,129976,1,0,0:0:0:0:
288,192,130147,1,8,0:0:0:0:
416,256,130490,1,0,0:0:0:0:
288,288,130661,1,8,0:0:0:0:
288,256,130747,1,8,0:0:0:0:
288,256,130833,1,8,0:0:0:0:
288,256,131004,1,0,0:0:0:0:
288,256,131176,1,0,0:0:0:0:
192,160,131347,1,8,0:0:0:0:
192,160,131518,1,8,0:0:0:0:
416,256,131861,1,0,0:0:0:0:
320,256,132033,1,0,0:0:0:0:
352,192,132118,1,0,0:0:0:0:
320,256,132204,1,8,0:0:0:0:
320,256,132376,1,0,0:0:0:0:
288,224,132547,1,0,0:0:0:0:
192,192,132633,1,8,0:0:0:0:
192,192,132718,1,0,0:0:0:0:
192,192,132890,1,8,0:0:0:0:
224,224,133233,5,4,0:0:0:0:
288,160,133576,1,8,0:0:0:0:
288,160,133747,1,8,0:0:0:0:
288,160,133833,1,8,0:0:0:0:
288,160,133918,1,8,0:0:0:0:
224,160,134090,1,0,0:0:0:0:
288,160,134261,1,8,0:0:0:0:
288,160,134433,1,8,0:0:0:0:
288,160,134518,1,8,0:0:0:0:
224,160,134604,1,0,0:0:0:0:
224,160,134776,1,0,0:0:0:0:
288,160,134947,1,8,0:0:0:0:
288,160,135290,1,8,0:0:0:0:
224,160,135461,1,0,0:0:0:0:
288,160,135633,1,8,0:0:0:0:
288,160,135804,1,8,0:0:0:0:
288,160,135890,1,8,0:0:0:0:
224,160,135976,1,0,0:0:0:0:
224,160,136147,1,0,0:0:0:0:
288,160,136318,1,8,0:0:0:0:
288,160,136490,1,8,0:0:0:0:
288,160,136576,1,8,0:0:0:0:
288,160,136661,1,8,0:0:0:0:
224,160,136833,1,0,0:0:0:0:
288,160,137004,1,8,0:0:0:0:
224,160,137090,1,0,0:0:0:0:
288,160,137176,1,8,0:0:0:0:
224,160,137347,1,0,0:0:0:0:
224,160,137518,1,0,0:0:0:0:
224,160,137604,1,0,0:0:0:0:
288,160,137690,1,8,0:0:0:0:
224,160,137861,1,0,0:0:0:0:
224,160,137947,1,0,0:0:0:0:
288,160,138033,1,8,0:0:0:0:
224,160,138204,1,0,0:0:0:0:
288,160,138376,1,8,0:0:0:0:
224,160,138461,1,0,0:0:0:0:
288,160,138547,1,8,0:0:0:0:
224,160,138718,1,0,0:0:0:0:
288,160,139061,1,8,0:0:0:0:
224,160,139233,1,0,0:0:0:0:
288,160,139318,1,8,0:0:0:0:
224,160,139404,1,0,0:0:0:0:
224,160,139576,1,0,0:0:0:0:
288,160,139747,1,8,0:0:0:0:
288,160,139918,1,8,0:0:0:0:
224,160,140090,1,0,0:0:0:0:
288,160,140433,1,8,0:0:0:0:
224,160,140604,1,0,0:0:0:0:
288,160,140690,1,8,0:0:0:0:
224,160,140776,1,0,0:0:0:0:
224,160,140947,1,0,0:0:0:0:
288,160,141118,1,8,0:0:0:0:
288,160,141290,1,8,0:0:0:0:
288,160,141376,1,8,0:0:0:0:
224,160,141461,1,0,0:0:0:0:
224,160,141633,1,0,0:0:0:0:
288,160,141804,1,8,0:0:0:0:
224,160,142318,1,0,0:0:0:0:
288,160,142490,1,8,0:0:0:0:
288,160,142661,1,8,0:0:0:0:
224,160,142747,1,0,0:0:0:0:
224,160,142833,1,0,0:0:0:0:
224,160,143004,1,0,0:0:0:0:
288,160,143176,1,8,0:0:0:0:
288,160,143347,1,8,0:0:0:0:
288,160,143518,1,8,0:0:0:0:
224,160,143690,1,0,0:0:0:0:
288,160,143861,1,8,0:0:0:0:
224,160,144033,1,0,0:0:0:0:
128,192,144204,1,4,0:0:0:0:
128,192,144376,1,0,0:0:0:0:
128,192,144461,1,0,0:0:0:0:
128,192,144547,1,8,0:0:0:0:
128,192,144718,1,0,0:0:0:0:
128,192,144890,1,8,0:0:0:0:
128,192,145061,1,0,0:0:0:0:
128,192,145147,1,0,0:0:0:0:
64,128,145233,1,8,0:0:0:0:
96,128,145404,1,8,0:0:0:0:
96,128,145490,1,8,0:0:0:0:
96,128,145576,1,0,0:0:0:0:
96,128,145747,1,8,0:0:0:0:
320,320,145918,1,0,0:0:0:0:
320,320,146090,1,0,0:0:0:0:
320,288,146261,1,8,0:0:0:0:
320,288,146433,1,0,0:0:0:0:
320,288,146604,1,8,0:0:0:0:
160,128,146947,1,0,0:0:0:0:
160,128,147118,1,8,0:0:0:0:
160,128,147204,1,8,0:0:0:0:
160,128,147290,1,8,0:0:0:0:
160,128,147461,1,0,0:0:0:0:
160,128,147633,1,8,0:0:0:0:
288,288,147718,1,8,0:0:0:0:
160,128,147804,1,0,0:0:0:0:
384,224,147976,1,8,0:0:0:0:
384,224,148147,1,8,0:0:0:0:
320,224,148318,1,0,0:0:0:0:
320,224,148490,1,0,0:0:0:0:
320,224,148576,1,0,0:0:0:0:
64,96,148661,1,8,0:0:0:0:
288,288,148833,1,8,0:0:0:0:
288,256,149004,1,0,0:0:0:0:
288,256,149176,1,0,0:0:0:0:
288,256,149347,1,8,0:0:0:0:
288,256,149690,1,0,0:0:0:0:
320,256,149861,1,0,0:0:0:0:
320,256,149947,1,0,0:0:0:0:
320,256,150033,1,8,0:0:0:0:
224,320,150204,1,0,0:0:0:0:
224,320,150376,1,8,0:0:0:0:
320,256,150547,1,0,0:0:0:0:
320,256,150718,1,8,0:0:0:0:
256,288,150890,1,8,0:0:0:0:
256,320,151061,1,0,0:0:0:0:
224,320,151233,1,0,0:0:0:0:
224,320,151318,1,0,0:0:0:0:
224,320,151404,1,8,0:0:0:0:
224,320,151576,1,8,0:0:0:0:
128,128,151747,1,0,0:0:0:0:
128,128,151918,1,0,0:0:0:0:
128,128,152090,1,8,0:0:0:0:
320,160,152433,1,0,0:0:0:0:
192,160,152604,1,8,0:0:0:0:
192,160,152690,1,8,0:0:0:0:
192,160,152776,1,8,0:0:0:0:
192,160,152947,1,0,0:0:0:0:
192,160,153118,1,8,0:0:0:0:
192,160,153290,1,0,0:0:0:0:
192,160,153461,1,8,0:0:0:0:
192,160,153633,1,8,0:0:0:0:
192,160,153804,1,0,0:0:0:0:
192,160,153976,1,8,0:0:0:0:
192,160,154061,1,8,0:0:0:0:
192,160,154147,1,0,0:0:0:0:
192,160,154318,1,0,0:0:0:0:
128,128,154490,1,0,0:0:0:0:
128,128,154576,1,8,0:0:0:0:
128,128,154661,1,0,0:0:0:0:
192,160,154833,1,8,0:0:0:0:
224,224,155176,5,4,0:0:0:0:
288,160,155518,1,8,0:0:0:0:
288,160,155690,1,8,0:0:0:0:
288,160,155776,1,8,0:0:0:0:
288,160,155861,1,8,0:0:0:0:
224,160,156033,1,0,0:0:0:0:
288,160,156204,1,8,0:0:0:0:
288,160,156376,1,8,0:0:0:0:
224,160,156461,1,0,0:0:0:0:
224,160,156547,1,0,0:0:0:0:
224,160,156718,1,0,0:0:0:0:
288,160,156890,1,8,0:0:0:0:
288,160,157233,1,8,0:0:0:0:
224,160,157404,1,0,0:0:0:0:
288,160,157576,1,8,0:0:0:0:
288,160,157747,1,8,0:0:0:0:
224,160,157833,1,0,0:0:0:0:
224,160,157918,1,0,0:0:0:0:
288,160,158261,1,8,0:0:0:0:
288,160,158433,1,8,0:0:0:0:
288,160,158518,1,8,0:0:0:0:
288,160,158604,1,8,0:0:0:0:
224,160,158776,1,0,0:0:0:0:
288,160,158947,1,8,0:0:0:0:
224,160,159033,1,0,0:0:0:0:
288,160,159118,1,8,0:0:0:0:
224,160,159290,1,0,0:0:0:0:
288,160,159633,1,8,0:0:0:0:
288,160,159718,1,8,0:0:0:0:
224,160,159804,1,0,0:0:0:0:
288,160,159976,1,8,0:0:0:0:
288,160,160061,1,8,0:0:0:0:
224,160,160147,1,0,0:0:0:0:
288,160,160318,1,8,0:0:0:0:
224,160,160404,1,0,0:0:0:0:
288,160,160490,1,8,0:0:0:0:
224,160,160661,1,0,0:0:0:0:
288,160,161004,1,8,0:0:0:0:
224,160,161176,1,0,0:0:0:0:
288,160,161261,1,8,0:0:0:0:
224,160,161347,1,0,0:0:0:0:
224,160,161518,1,0,0:0:0:0:
288,160,161690,1,8,0:0:0:0:
288,160,161861,1,8,0:0:0:0:
224,160,162033,1,0,0:0:0:0:
288,160,162376,1,8,0:0:0:0:
224,160,162547,1,0,0:0:0:0:
288,160,162633,1,8,0:0:0:0:
224,160,162718,1,0,0:0:0:0:
224,160,162890,1,0,0:0:0:0:
288,160,163061,1,8,0:0:0:0:
288,160,163233,1,8,0:0:0:0:
288,160,163318,1,8,0:0:0:0:
224,160,163404,1,0,0:0:0:0:
224,160,163576,1,0,0:0:0:0:
288,160,163747,1,8,0:0:0:0:
224,160,164261,1,0,0:0:0:0:
288,160,164433,1,8,0:0:0:0:
224,160,164604,1,0,0:0:0:0:
224,160,164690,1,0,0:0:0:0:
288,160,164776,1,8,0:0:0:0:
224,160,164947,1,0,0:0:0:0:
288,160,165118,1,8,0:0:0:0:
288,160,165290,1,8,0:0:0:0:
224,160,165461,1,0,0:0:0:0:
224,160,165633,1,0,0:0:0:0:
288,160,165804,1,8,0:0:0:0:
416,224,166147,1,4,0:0:0:0:
320,224,166490,1,8,0:0:0:0:
192,192,166661,1,8,0:0:0:0:
192,192,166833,1,0,0:0:0:0:
320,224,167004,1,0,0:0:0:0:
320,224,167176,1,8,0:0:0:0:
320,224,167518,1,0,0:0:0:0:
320,224,167690,1,8,0:0:0:0:
192,192,167861,1,0,0:0:0:0:
320,224,168033,1,0,0:0:0:0:
192,192,168204,1,8,0:0:0:0:
256,224,168376,1,0,0:0:0:0:
320,224,168547,1,0,0:0:0:0:
288,192,168890,1,0,0:0:0:0:
288,160,169233,1,8,0:0:0:0:
160,160,169404,1,8,0:0:0:0:
160,160,169576,1,0,0:0:0:0:
160,160,169747,1,8,0:0:0:0:
160,160,169918,1,0,0:0:0:0:
288,160,170261,1,0,0:0:0:0:
288,160,170433,1,8,0:0:0:0:
320,192,170604,1,0,0:0:0:0:
288,160,170776,1,0,0:0:0:0:
64,96,170947,1,8,0:0:0:0:
64,96,171118,1,0,0:0:0:0:
64,96,171290,1,8,0:0:0:0:
416,224,171633,1,0,0:0:0:0:
320,224,171976,1,8,0:0:0:0:
192,192,172147,1,8,0:0:0:0:
192,192,172319,1,0,0:0:0:0:
320,224,172490,1,0,0:0:0:0:
320,224,172662,1,8,0:0:0:0:
320,224,173004,1,0,0:0:0:0:
320,224,173176,1,8,0:0:0:0:
192,192,173347,1,0,0:0:0:0:
320,224,173519,1,0,0:0:0:0:
192,192,173690,1,8,0:0:0:0:
256,224,173862,1,0,0:0:0:0:
320,224,174033,1,0,0:0:0:0:
288,192,174376,1,0,0:0:0:0:
288,160,174719,1,8,0:0:0:0:
160,160,174890,1,8,0:0:0:0:
160,160,175062,1,0,0:0:0:0:
160,160,175233,1,8,0:0:0:0:
160,160,175404,1,0,0:0:0:0:
288,160,175747,1,0,0:0:0:0:
288,160,175919,1,8,0:0:0:0:
320,192,176090,1,0,0:0:0:0:
288,160,176262,1,0,0:0:0:0:
64,96,176433,1,8,0:0:0:0:
64,96,176604,5,0,0:0:0:0:
64,96,176776,1,8,0:0:0:0:
224,224,177118,5,4,0:0:0:0:
288,160,177461,1,8,0:0:0:0:
288,160,177633,1,8,0:0:0:0:
224,160,177976,1,0,0:0:0:0:
288,160,178147,1,8,0:0:0:0:
224,160,178490,1,0,0:0:0:0:
288,160,178661,1,8,0:0:0:0:
288,160,178833,1,8,0:0:0:0:
224,160,179004,1,0,0:0:0:0:
288,160,179176,1,8,0:0:0:0:
288,160,179518,1,8,0:0:0:0:
224,160,179861,1,0,0:0:0:0:
288,160,180204,1,8,0:0:0:0:
224,160,180376,1,0,0:0:0:0:
224,160,180718,1,0,0:0:0:0:
288,160,180890,1,8,0:0:0:0:
224,160,181233,1,0,0:0:0:0:
288,160,181404,1,8,0:0:0:0:
288,160,181576,1,8,0:0:0:0:
224,160,181918,1,0,0:0:0:0:
224,160,182090,1,0,0:0:0:0:
288,160,182261,1,8,0:0:0:0:
224,160,182604,1,0,0:0:0:0:
288,160,182947,1,8,0:0:0:0:
288,160,183118,1,8,0:0:0:0:
224,160,183461,1,0,0:0:0:0:
288,160,183633,1,8,0:0:0:0:
224,160,183976,1,0,0:0:0:0:
288,160,184147,1,8,0:0:0:0:
288,160,184318,1,8,0:0:0:0:
224,160,184490,1,0,0:0:0:0:
288,160,184661,1,8,0:0:0:0:
288,160,185004,1,8,0:0:0:0:
224,192,188090,1,0,0:0:0:0:
224,160,188261,1,8,0:0:0:0:
224,160,188433,1,8,0:0:0:0:
224,160,188604,1,0,0:0:0:0:
224,160,188690,1,0,0:0:0:0:
224,160,188776,1,8,0:0:0:0:
224,160,188947,1,0,0:0:0:0:
224,160,189118,1,8,0:0:0:0:
224,160,189290,1,8,0:0:0:0:
224,160,189461,1,0,0:0:0:0:
224,160,189633,1,8,0:0:0:0:
224,160,189804,1,8,0:0:0:0:
224,160,189976,1,0,0:0:0:0:
224,160,190147,1,8,0:0:0:0:
224,160,190233,1,8,0:0:0:0:
224,160,190318,1,0,0:0:0:0:
224,160,190490,1,8,0:0:0:0:
352,288,190833,1,0,0:0:0:0:
288,224,191004,1,8,0:0:0:0:
288,192,191176,1,0,0:0:0:0:
288,192,191261,1,0,0:0:0:0:
288,192,191347,1,8,0:0:0:0:
288,224,191433,1,8,0:0:0:0:
288,224,191518,1,0,0:0:0:0:
288,224,191690,1,0,0:0:0:0:
288,224,191861,1,8,0:0:0:0:
192,160,192033,1,8,0:0:0:0:
192,128,192118,1,8,0:0:0:0:
192,128,192204,1,0,0:0:0:0:
192,128,192376,1,0,0:0:0:0:
192,128,192461,1,0,0:0:0:0:
192,128,192547,1,8,0:0:0:0:
192,128,192718,1,8,0:0:0:0:
192,128,192890,1,0,0:0:0:0:
192,128,192976,1,0,0:0:0:0:
192,128,193061,1,0,0:0:0:0:
192,128,193233,1,8,0:0:0:0:
448,320,193576,1,0,0:0:0:0:
384,288,193747,1,0,0:0:0:0:
384,288,193918,1,8,0:0:0:0:
128,192,194090,1,0,0:0:0:0:
128,160,194176,1,0,0:0:0:0:
128,160,194261,1,8,0:0:0:0:
128,160,194433,1,0,0:0:0:0:
128,160,194604,1,8,0:0:0:0:
128,160,194776,1,8,0:0:0:0:
128,160,194947,1,0,0:0:0:0:
128,160,195118,1,8,0:0:0:0:
128,160,195290,1,8,0:0:0:0:
128,160,195461,1,0,0:0:0:0:
128,160,195633,1,8,0:0:0:0:
128,160,195718,1,8,0:0:0:0:
128,160,195804,1,0,0:0:0:0:
128,160,195976,1,8,0:0:0:0:
96,160,196318,1,0,0:0:0:0:
128,128,196490,1,8,0:0:0:0:
128,128,196576,1,8,0:0:0:0:
128,128,196661,1,8,0:0:0:0:
128,128,196833,1,0,0:0:0:0:
128,128,197004,1,8,0:0:0:0:
128,128,197090,1,8,0:0:0:0:
128,128,197176,1,0,0:0:0:0:
256,192,197347,1,8,0:0:0:0:
256,192,197518,1,0,0:0:0:0:
256,192,197690,1,0,0:0:0:0:
256,192,197861,1,0,0:0:0:0:
96,96,197947,1,0,0:0:0:0:
96,96,198033,1,8,0:0:0:0:
96,96,198204,1,0,0:0:0:0:
96,96,198376,1,0,0:0:0:0:
96,96,198461,1,8,0:0:0:0:
96,96,198547,1,0,0:0:0:0:
96,96,198718,1,8,0:0:0:0:
224,224,199061,5,4,0:0:0:0:
224,160,199233,1,0,0:0:0:0:
288,160,199404,1,8,0:0:0:0:
288,160,199576,1,8,0:0:0:0:
288,160,199661,1,8,0:0:0:0:
288,160,199747,1,8,0:0:0:0:
224,160,199918,1,0,0:0:0:0:
288,160,200090,1,8,0:0:0:0:
224,160,200261,1,0,0:0:0:0:
224,160,200347,1,0,0:0:0:0:
224,160,200433,1,0,0:0:0:0:
288,160,200604,1,8,0:0:0:0:
288,160,200776,1,8,0:0:0:0:
224,160,200947,1,0,0:0:0:0:
224,160,201033,1,0,0:0:0:0:
288,160,201118,1,8,0:0:0:0:
224,160,201290,1,0,0:0:0:0:
288,160,201461,1,8,0:0:0:0:
224,160,201804,1,0,0:0:0:0:
224,160,201976,1,0,0:0:0:0:
288,160,202147,1,8,0:0:0:0:
224,160,202318,1,0,0:0:0:0:
288,160,202404,1,8,0:0:0:0:
224,160,202490,1,0,0:0:0:0:
224,160,202661,1,0,0:0:0:0:
288,160,202833,1,8,0:0:0:0:
288,160,203004,1,8,0:0:0:0:
288,160,203090,1,8,0:0:0:0:
224,160,203176,1,0,0:0:0:0:
288,160,203347,1,8,0:0:0:0:
288,160,203518,1,8,0:0:0:0:
288,160,203861,1,8,0:0:0:0:
288,160,203947,1,8,0:0:0:0:
224,160,204033,1,0,0:0:0:0:
224,160,204118,1,0,0:0:0:0:
288,160,204204,1,8,0:0:0:0:
288,160,204376,1,8,0:0:0:0:
224,160,204547,1,0,0:0:0:0:
224,160,204718,1,0,0:0:0:0:
288,160,204890,1,8,0:0:0:0:
288,160,205061,1,8,0:0:0:0:
288,160,205147,1,8,0:0:0:0:
288,160,205233,1,8,0:0:0:0:
224,160,205404,1,0,0:0:0:0:
288,160,205576,1,8,0:0:0:0:
224,160,205747,1,0,0:0:0:0:
224,160,205833,1,0,0:0:0:0:
224,160,205918,1,0,0:0:0:0:
288,160,206090,1,0,0:0:0:0:
224,160,206176,1,0,0:0:0:0:
288,160,206261,1,8,0:0:0:0:
288,160,206433,1,8,0:0:0:0:
224,160,206604,1,0,0:0:0:0:
224,160,206776,1,0,0:0:0:0:
288,160,206947,1,8,0:0:0:0:
224,160,207290,1,0,0:0:0:0:
224,160,207461,1,0,0:0:0:0:
288,160,207633,1,8,0:0:0:0:
288,160,207804,1,8,0:0:0:0:
288,160,207890,1,8,0:0:0:0:
224,160,207976,1,0,0:0:0:0:
224,160,208147,1,0,0:0:0:0:
288,160,208318,1,8,0:0:0:0:
288,160,208490,1,8,0:0:0:0:
224,160,208576,1,0,0:0:0:0:
224,160,208661,1,0,0:0:0:0:
224,160,208833,1,0,0:0:0:0:
288,160,209004,1,8,0:0:0:0:
224,160,209176,1,0,0:0:0:0:
224,160,209347,1,0,0:0:0:0:
288,160,209433,1,8,0:0:0:0:
224,160,209518,1,0,0:0:0:0:
224,160,209604,1,0,0:0:0:0:
288,160,209690,1,8,0:0:0:0:
224,160,209861,1,0,0:0:0:0:
384,224,210033,1,12,0:0:0:0:
384,224,210204,1,0,0:0:0:0:
384,224,210290,1,0,0:0:0:0:
384,224,210376,1,0,0:0:0:0:
384,224,210547,1,8,0:0:0:0:
384,224,210718,1,0,0:0:0:0:
384,224,210804,1,0,0:0:0:0:
384,224,210890,1,0,0:0:0:0:
384,224,211061,1,8,0:0:0:0:
64,160,211233,1,0,0:0:0:0:
64,128,211404,1,8,0:0:0:0:
320,320,211576,1,0,0:0:0:0:
320,288,211661,1,8,0:0:0:0:
320,288,211747,1,8,0:0:0:0:
320,288,211918,1,0,0:0:0:0:
64,128,212090,1,8,0:0:0:0:
320,288,212261,1,8,0:0:0:0:
320,288,212433,1,0,0:0:0:0:
64,128,212604,1,0,0:0:0:0:
320,288,212776,1,8,0:0:0:0:
352,224,212947,1,0,0:0:0:0:
96,160,213033,1,0,0:0:0:0:
96,160,213118,1,0,0:0:0:0:
96,160,213290,1,8,0:0:0:0:
96,160,213461,1,0,0:0:0:0:
96,160,213547,1,0,0:0:0:0:
96,160,213633,1,0,0:0:0:0:
96,160,213804,1,8,0:0:0:0:
96,160,213976,1,0,0:0:0:0:
256,128,214147,1,0,0:0:0:0:
256,128,214318,1,0,0:0:0:0:
256,128,214404,1,0,0:0:0:0:
256,128,214490,1,8,0:0:0:0:
256,128,214661,1,8,0:0:0:0:
256,128,214833,1,0,0:0:0:0:
256,128,214918,1,0,0:0:0:0:
256,128,215004,1,0,0:0:0:0:
256,128,215176,1,8,0:0:0:0:
256,192,215518,1,0,0:0:0:0:
256,192,215861,1,8,0:0:0:0:
256,192,216033,1,0,0:0:0:0:
256,192,216118,1,0,0:0:0:0:
256,192,216204,1,0,0:0:0:0:
256,192,216376,1,0,0:0:0:0:
256,192,216547,1,8,0:0:0:0:
256,192,216718,1,0,0:0:0:0:
256,192,216804,1,0,0:0:0:0:
256,192,216890,1,0,0:0:0:0:
416,224,217061,1,0,0:0:0:0:
416,224,217147,1,0,0:0:0:0:
416,224,217233,1,8,0:0:0:0:
416,224,217404,1,8,0:0:0:0:
320,160,217576,1,0,0:0:0:0:
320,160,217747,1,0,0:0:0:0:
320,160,217918,1,8,0:0:0:0:
96,128,218261,1,0,0:0:0:0:
96,128,218433,1,8,0:0:0:0:
96,128,218518,1,8,0:0:0:0:
96,128,218604,1,8,0:0:0:0:
96,128,218776,1,0,0:0:0:0:
96,128,218947,1,8,0:0:0:0:
96,128,219033,1,8,0:0:0:0:
96,128,219118,1,0,0:0:0:0:
96,128,219290,1,8,0:0:0:0:
96,128,219461,1,0,0:0:0:0:
96,128,219633,1,0,0:0:0:0:
96,128,219804,1,0,0:0:0:0:
96,128,219890,1,0,0:0:0:0:
96,128,219976,1,8,0:0:0:0:
224,192,220147,1,0,0:0:0:0:
96,128,220318,1,0,0:0:0:0:
224,192,220404,1,8,0:0:0:0:
96,128,220490,1,0,0:0:0:0:
96,128,220661,1,8,0:0:0:0:
224,224,221004,5,4,0:0:0:0:
224,160,221176,1,0,0:0:0:0:
224,160,221261,1,0,0:0:0:0:
288,160,221347,1,8,0:0:0:0:
288,160,221518,1,8,0:0:0:0:
224,160,221861,1,0,0:0:0:0:
288,160,222033,1,8,0:0:0:0:
288,160,222204,1,8,0:0:0:0:
288,160,222290,1,8,0:0:0:0:
224,160,222376,1,0,0:0:0:0:
224,160,222547,1,0,0:0:0:0:
224,160,222633,1,0,0:0:0:0:
288,160,222718,1,8,0:0:0:0:
224,160,222890,1,0,0:0:0:0:
224,160,223233,1,0,0:0:0:0:
288,160,223404,1,8,0:0:0:0:
224,160,223576,1,0,0:0:0:0:
224,160,223747,1,0,0:0:0:0:
224,160,223918,1,0,0:0:0:0:
224,160,224004,1,0,0:0:0:0:
288,160,224090,1,8,0:0:0:0:
288,160,224261,1,8,0:0:0:0:
224,160,224604,1,0,0:0:0:0:
288,160,224776,1,8,0:0:0:0:
224,160,224947,1,0,0:0:0:0:
288,160,225033,1,8,0:0:0:0:
224,160,225118,1,0,0:0:0:0:
224,160,225290,1,0,0:0:0:0:
224,160,225376,1,0,0:0:0:0:
288,160,225461,1,8,0:0:0:0:
288,160,225633,1,8,0:0:0:0:
224,160,225976,1,0,0:0:0:0:
224,160,226061,1,0,0:0:0:0:
288,160,226147,1,8,0:0:0:0:
224,160,226318,1,0,0:0:0:0:
288,224,226490,1,12,0:0:0:0:
224,160,226661,1,0,0:0:0:0:
224,160,226833,1,0,0:0:0:0:
288,224,227004,1,12,0:0:0:0:
224,160,227176,1,0,0:0:0:0:
224,160,227347,1,0,0:0:0:0:
288,224,227518,1,12,0:0:0:0:
224,160,227690,1,0,0:0:0:0:
288,224,227861,1,12,0:0:0:0:
224,160,228033,1,0,0:0:0:0:
224,160,228118,1,0,0:0:0:0:
224,160,228204,1,0,0:0:0:0:
288,224,228376,1,12,0:0:0:0:
224,160,228547,1,0,0:0:0:0:
224,160,228633,1,0,0:0:0:0:
224,160,228718,1,0,0:0:0:0:
288,224,228890,1,12,0:0:0:0:
288,224,229233,1,12,0:0:0:0:
224,160,229404,1,0,0:0:0:0:
288,160,229490,1,8,0:0:0:0:
224,160,229576,1,0,0:0:0:0:
288,224,229747,1,12,0:0:0:0:
224,160,229918,1,0,0:0:0:0:
224,160,230004,1,0,0:0:0:0:
224,160,230090,1,0,0:0:0:0:
288,224,230261,1,12,0:0:0:0:
224,160,230433,1,0,0:0:0:0:
288,160,230604,1,8,0:0:0:0:
288,160,230690,1,8,0:0:0:0:
224,160,230776,1,0,0:0:0:0:
288,160,230947,1,8,0:0:0:0:
288,160,231033,1,8,0:0:0:0:
224,160,231118,1,0,0:0:0:0:
288,160,231290,1,8,0:0:0:0:
288,160,231376,1,8,0:0:0:0:
224,160,231461,1,0,0:0:0:0:
224,160,231547,1,0,0:0:0:0:
288,160,231633,1,8,0:0:0:0:
352,160,231976,1,4,0:0:0:0:
288,192,234718,1,8,0:0:0:0:
288,320,236090,1,8,0:0:0:0:
320,256,237461,1,0,0:0:0:0:
320,224,240204,5,8,0:0:0:0:
256,256,241576,1,0,0:0:0:0:
224,160,242776,5,0,0:0:0:0:
288,160,243290,1,8,0:0:0:0:
288,160,243633,1,8,0:0:0:0:
224,160,243976,1,0,0:0:0:0:
224,160,244147,1,0,0:0:0:0:
288,160,244318,1,8,0:0:0:0:
224,160,245518,1,0,0:0:0:0:
288,160,246033,1,8,0:0:0:0:
288,160,246376,1,8,0:0:0:0:
224,160,246718,1,0,0:0:0:0:
288,160,246890,1,8,0:0:0:0:
288,160,247061,1,8,0:0:0:0:
288,160,247404,1,8,0:0:0:0:
288,160,247747,1,8,0:0:0:0:
224,160,248090,1,0,0:0:0:0:
224,160,248261,1,0,0:0:0:0:
288,160,248433,1,8,0:0:0:0:
288,160,248776,1,8,0:0:0:0:
224,160,249118,1,0,0:0:0:0:
224,160,249461,1,0,0:0:0:0:
288,160,249633,1,8,0:0:0:0:
288,160,249804,1,8,0:0:0:0:
288,160,250147,1,8,0:0:0:0:
224,160,250490,1,0,0:0:0:0:
288,160,250833,1,8,0:0:0:0:
224,160,251004,1,0,0:0:0:0:
224,160,251176,1,0,0:0:0:0:
288,160,252547,1,8,0:0:0:0:
288,160,253918,1,8,0:0:0:0:
288,192,254604,1,8,0:0:0:0:
288,192,254947,1,8,0:0:0:0:
288,192,255118,1,0,0:0:0:0:
288,192,255290,1,8,0:0:0:0:
288,192,255633,1,8,0:0:0:0:
288,192,255976,1,8,0:0:0:0:
288,192,256661,1,0,0:0:0:0:
288,192,257347,1,8,0:0:0:0:
288,192,257690,1,0,0:0:0:0:
288,192,257861,1,0,0:0:0:0:
288,192,258033,1,8,0:0:0:0:
288,192,258376,1,8,0:0:0:0:
288,192,258718,1,0,0:0:0:0:
288,160,259404,1,8,0:0:0:0:
288,160,260090,1,8,0:0:0:0:
288,160,260433,1,8,0:0:0:0:
288,160,260604,1,0,0:0:0:0:
288,160,260776,1,8,0:0:0:0:
288,160,261118,1,8,0:0:0:0:
288,160,261461,1,8,0:0:0:0:
288,160,262147,1,0,0:0:0:0:
288,160,262833,1,8,0:0:0:0:
288,160,263176,1,0,0:0:0:0:
288,160,263347,1,8,0:0:0:0:
288,160,263518,1,0,0:0:0:0:
288,160,263861,1,0,0:0:0:0:
288,160,264204,1,8,0:0:0:0:
224,160,264718,5,0,0:0:0:0:
288,160,264890,1,8,0:0:0:0:
224,160,265233,1,0,0:0:0:0:
288,160,265576,1,8,0:0:0:0:
288,160,265918,1,8,0:0:0:0:
288,160,266090,1,8,0:0:0:0:
224,160,266261,1,0,0:0:0:0:
288,160,266604,1,8,0:0:0:0:
288,160,266947,1,8,0:0:0:0:
288,160,267290,1,8,0:0:0:0:
224,160,267461,1,0,0:0:0:0:
288,160,267633,1,8,0:0:0:0:
288,160,267976,1,8,0:0:0:0:
288,160,268318,1,8,0:0:0:0:
288,160,268661,1,0,0:0:0:0:
288,160,268833,1,8,0:0:0:0:
288,160,269004,1,8,0:0:0:0:
288,160,269347,1,8,0:0:0:0:
224,160,269690,1,0,0:0:0:0:
288,160,270033,1,8,0:0:0:0:
288,160,270204,1,8,0:0:0:0:
224,160,270376,1,0,0:0:0:0:
224,160,270547,1,0,0:0:0:0:
288,160,270718,1,8,0:0:0:0:
224,160,270890,1,0,0:0:0:0:
288,160,271061,1,8,0:0:0:0:
224,160,271233,1,0,0:0:0:0:
288,160,271404,1,8,0:0:0:0:
288,160,271576,1,8,0:0:0:0:
288,160,271747,1,8,0:0:0:0:
224,160,271918,1,0,0:0:0:0:
288,160,272090,1,8,0:0:0:0:
224,160,272261,1,0,0:0:0:0:
288,160,272433,1,8,0:0:0:0:
224,160,272604,1,0,0:0:0:0:
288,160,272776,1,8,0:0:0:0:
288,160,272947,1,8,0:0:0:0:
288,224,273118,1,12,0:0:0:0:
224,160,273290,1,0,0:0:0:0:
224,160,273461,1,0,0:0:0:0:
288,224,273633,1,12,0:0:0:0:
224,160,273804,1,0,0:0:0:0:
224,160,273976,1,0,0:0:0:0:
288,224,274147,1,12,0:0:0:0:
224,160,274318,1,0,0:0:0:0:
288,160,274490,1,8,0:0:0:0:
288,160,274576,1,8,0:0:0:0:
224,160,274661,1,0,0:0:0:0:
288,160,274833,1,8,0:0:0:0:
288,160,274918,1,8,0:0:0:0:
224,160,275004,1,0,0:0:0:0:
288,160,275176,1,8,0:0:0:0:
288,160,275261,1,8,0:0:0:0:
224,160,275347,1,0,0:0:0:0:
224,160,275433,1,0,0:0:0:0:
288,160,275518,1,8,0:0:0:0:
96,192,275861,1,4,0:0:0:0:
96,160,276033,1,0,0:0:0:0:
96,160,276119,1,0,0:0:0:0:
96,160,276204,1,8,0:0:0:0:
96,128,276376,1,0,0:0:0:0:
64,96,276547,1,8,0:0:0:0:
64,96,276633,1,8,0:0:0:0:
64,96,276718,1,0,0:0:0:0:
64,96,276890,1,8,0:0:0:0:
64,96,276976,1,8,0:0:0:0:
64,96,277061,1,0,0:0:0:0:
64,96,277147,1,8,0:0:0:0:
64,96,277233,1,0,0:0:0:0:
256,160,277404,1,0,0:0:0:0:
256,160,277576,1,8,0:0:0:0:
256,160,277747,1,0,0:0:0:0:
256,160,277833,1,0,0:0:0:0:
256,160,277918,1,8,0:0:0:0:
256,160,278090,1,0,0:0:0:0:
256,160,278261,1,8,0:0:0:0:
416,224,278604,1,0,0:0:0:0:
320,192,278776,1,8,0:0:0:0:
320,192,278861,1,8,0:0:0:0:
320,192,278947,1,8,0:0:0:0:
320,192,279118,1,0,0:0:0:0:
320,192,279290,1,8,0:0:0:0:
320,192,279376,1,8,0:0:0:0:
320,192,279461,1,0,0:0:0:0:
416,192,279633,1,8,0:0:0:0:
416,224,279718,1,8,0:0:0:0:
320,224,279804,1,0,0:0:0:0:
320,224,279890,1,0,0:0:0:0:
320,224,279976,1,8,0:0:0:0:
32,160,280147,1,0,0:0:0:0:
32,160,280233,1,0,0:0:0:0:
32,160,280318,1,8,0:0:0:0:
32,160,280490,1,8,0:0:0:0:
32,160,280661,1,0,0:0:0:0:
32,160,280833,1,0,0:0:0:0:
32,128,281004,1,8,0:0:0:0:
320,288,281347,1,0,0:0:0:0:
320,192,281518,1,8,0:0:0:0:
320,192,281604,1,8,0:0:0:0:
320,192,281690,1,8,0:0:0:0:
320,192,281861,1,0,0:0:0:0:
160,128,282033,1,8,0:0:0:0:
160,128,282118,1,8,0:0:0:0:
160,128,282204,1,0,0:0:0:0:
160,128,282376,1,8,0:0:0:0:
160,128,282547,1,8,0:0:0:0:
160,128,282718,1,0,0:0:0:0:
288,192,282890,1,8,0:0:0:0:
288,192,282976,1,8,0:0:0:0:
288,192,283061,1,0,0:0:0:0:
288,192,283233,1,8,0:0:0:0:
288,192,283404,1,0,0:0:0:0:
288,192,283490,1,0,0:0:0:0:
288,192,283576,1,8,0:0:0:0:
288,192,283747,1,0,0:0:0:0:
352,288,283918,1,0,0:0:0:0:
320,192,284090,1,8,0:0:0:0:
320,192,284261,1,0,0:0:0:0:
320,192,284347,1,0,0:0:0:0:
320,192,284433,1,0,0:0:0:0:
320,192,284604,1,8,0:0:0:0:
320,192,284776,1,0,0:0:0:0:
224,224,284861,1,0,0:0:0:0:
192,256,284947,1,0,0:0:0:0:
256,160,285118,1,8,0:0:0:0:
256,160,285204,1,8,0:0:0:0:
256,160,285290,1,0,0:0:0:0:
256,160,285376,1,8,0:0:0:0:
256,160,285461,1,0,0:0:0:0:
256,160,285633,1,0,0:0:0:0:
256,160,285718,1,0,0:0:0:0:
256,160,285804,1,8,0:0:0:0:
256,160,285976,1,0,0:0:0:0:
256,160,286147,1,0,0:0:0:0:
256,160,286233,1,8,0:0:0:0:
256,160,286318,1,0,0:0:0:0:
256,160,286490,1,8,0:0:0:0:
224,160,286661,5,0,0:0:0:0:
224,224,286833,1,4,0:0:0:0:
288,160,287176,1,8,0:0:0:0:
288,160,287347,1,8,0:0:0:0:
288,160,287433,1,8,0:0:0:0:
224,160,287518,1,0,0:0:0:0:
224,160,287690,1,0,0:0:0:0:
288,160,287861,1,8,0:0:0:0:
288,160,288033,1,8,0:0:0:0:
224,160,288118,1,0,0:0:0:0:
288,160,288204,1,8,0:0:0:0:
224,160,288290,1,0,0:0:0:0:
224,160,288376,1,0,0:0:0:0:
288,160,288547,1,8,0:0:0:0:
224,160,288718,1,0,0:0:0:0:
288,160,288890,1,8,0:0:0:0:
288,160,288976,1,8,0:0:0:0:
224,160,289061,1,0,0:0:0:0:
288,160,289233,1,8,0:0:0:0:
224,160,289404,1,0,0:0:0:0:
288,160,289490,1,8,0:0:0:0:
224,160,289576,1,0,0:0:0:0:
288,160,289918,1,8,0:0:0:0:
288,160,290090,1,8,0:0:0:0:
288,160,290176,1,8,0:0:0:0:
288,160,290261,1,8,0:0:0:0:
224,160,290433,1,0,0:0:0:0:
288,160,290604,1,8,0:0:0:0:
224,160,290690,1,0,0:0:0:0:
288,160,290776,1,8,0:0:0:0:
224,160,290947,1,0,0:0:0:0:
224,160,291118,1,0,0:0:0:0:
224,160,291204,1,0,0:0:0:0:
288,160,291290,1,8,0:0:0:0:
224,160,291461,1,0,0:0:0:0:
224,160,291547,1,0,0:0:0:0:
288,160,291633,1,8,0:0:0:0:
224,160,291804,1,0,0:0:0:0:
288,160,291976,1,8,0:0:0:0:
224,160,292061,1,0,0:0:0:0:
288,160,292147,1,8,0:0:0:0:
224,160,292318,1,0,0:0:0:0:
224,160,292404,1,0,0:0:0:0:
224,160,292490,1,0,0:0:0:0:
288,160,292661,1,8,0:0:0:0:
224,160,292833,1,0,0:0:0:0:
288,160,292918,1,8,0:0:0:0:
224,160,293004,1,0,0:0:0:0:
224,160,293176,1,0,0:0:0:0:
288,160,293347,1,8,0:0:0:0:
288,160,293518,1,8,0:0:0:0:
224,160,293690,1,0,0:0:0:0:
224,160,293776,1,0,0:0:0:0:
224,160,293861,1,0,0:0:0:0:
288,160,294033,1,8,0:0:0:0:
224,160,294204,1,0,0:0:0:0:
288,160,294290,1,8,0:0:0:0:
224,160,294376,1,0,0:0:0:0:
224,160,294547,1,0,0:0:0:0:
288,160,294718,1,8,0:0:0:0:
288,160,294890,1,8,0:0:0:0:
288,160,294976,1,8,0:0:0:0:
224,160,295061,1,0,0:0:0:0:
224,160,295233,1,0,0:0:0:0:
288,160,295404,1,8,0:0:0:0:
288,160,295576,1,8,0:0:0:0:
224,160,295918,1,0,0:0:0:0:
288,160,296090,1,8,0:0:0:0:
288,160,296261,1,8,0:0:0:0:
224,160,296347,1,0,0:0:0:0:
224,160,296433,1,0,0:0:0:0:
224,160,296604,1,0,0:0:0:0:
288,160,296776,1,8,0:0:0:0:
224,160,296947,1,0,0:0:0:0:
288,160,297118,1,8,0:0:0:0:
288,160,297204,1,8,0:0:0:0:
224,160,297290,1,0,0:0:0:0:
288,160,297461,1,8,0:0:0:0:
224,160,297633,1,0,0:0:0:0:
352,320,297804,1,4,0:0:0:0:
320,224,297976,1,0,0:0:0:0:
320,224,298061,1,0,0:0:0:0:
320,224,298147,1,8,0:0:0:0:
320,224,298318,1,0,0:0:0:0:
320,224,298490,1,8,0:0:0:0:
320,224,298576,1,8,0:0:0:0:
320,224,298661,1,0,0:0:0:0:
320,224,298833,1,8,0:0:0:0:
320,224,298918,1,8,0:0:0:0:
320,224,299004,1,0,0:0:0:0:
320,224,299090,1,8,0:0:0:0:
320,224,299176,1,0,0:0:0:0:
320,224,299347,1,0,0:0:0:0:
320,224,299433,1,0,0:0:0:0:
320,224,299518,1,8,0:0:0:0:
320,224,299690,1,0,0:0:0:0:
320,224,299861,1,8,0:0:0:0:
320,224,299947,1,8,0:0:0:0:
320,224,300033,1,0,0:0:0:0:
320,224,300204,1,8,0:0:0:0:
352,288,300376,1,8,0:0:0:0:
352,288,300547,1,0,0:0:0:0:
384,256,300718,1,8,0:0:0:0:
384,256,300804,1,8,0:0:0:0:
384,256,300890,1,8,0:0:0:0:
384,256,301061,1,0,0:0:0:0:
384,256,301233,1,8,0:0:0:0:
384,256,301318,1,8,0:0:0:0:
384,256,301404,1,0,0:0:0:0:
384,256,301576,1,8,0:0:0:0:
384,256,301661,1,8,0:0:0:0:
384,256,301747,1,0,0:0:0:0:
384,256,301833,1,0,0:0:0:0:
384,256,301918,1,8,0:0:0:0:
416,288,302090,1,0,0:0:0:0:
416,288,302176,1,0,0:0:0:0:
288,192,302261,1,8,0:0:0:0:
288,192,302347,1,0,0:0:0:0:
288,192,302433,1,8,0:0:0:0:
384,288,302604,1,0,0:0:0:0:
384,288,302776,1,0,0:0:0:0:
384,288,302947,1,8,0:0:0:0:
384,256,303033,1,8,0:0:0:0:
384,288,303118,1,8,0:0:0:0:
384,256,303290,1,0,0:0:0:0:
288,224,303461,1,0,0:0:0:0:
288,224,303547,1,0,0:0:0:0:
288,224,303633,1,8,0:0:0:0:
288,224,303804,1,0,0:0:0:0:
288,224,303976,1,8,0:0:0:0:
288,224,304061,1,8,0:0:0:0:
288,224,304147,1,0,0:0:0:0:
288,224,304318,1,8,0:0:0:0:
288,224,304490,1,8,0:0:0:0:
288,224,304576,1,8,0:0:0:0:
288,224,304661,1,0,0:0:0:0:
288,224,304833,1,0,0:0:0:0:
288,224,304918,1,0,0:0:0:0:
288,224,305004,1,8,0:0:0:0:
256,192,305176,1,8,0:0:0:0:
256,192,305347,1,0,0:0:0:0:
256,192,305433,1,8,0:0:0:0:
256,192,305518,1,0,0:0:0:0:
256,192,305690,1,8,0:0:0:0:
256,192,305861,1,0,0:0:0:0:
256,192,305947,1,0,0:0:0:0:
256,192,306033,1,8,0:0:0:0:
256,192,306204,1,0,0:0:0:0:
256,192,306290,1,0,0:0:0:0:
256,192,306376,1,0,0:0:0:0:
256,192,306547,1,8,0:0:0:0:
256,192,306718,1,0,0:0:0:0:
256,192,306804,1,0,0:0:0:0:
256,192,306890,1,0,0:0:0:0:
256,192,307061,1,8,0:0:0:0:
256,192,307147,1,8,0:0:0:0:
256,192,307233,1,0,0:0:0:0:
256,192,307318,1,8,0:0:0:0:
256,192,307404,1,0,0:0:0:0:
224,192,307576,1,0,0:0:0:0:
224,192,307661,1,0,0:0:0:0:
224,192,307747,1,8,0:0:0:0:
224,192,307918,1,0,0:0:0:0:
224,192,308090,1,0,0:0:0:0:
224,192,308176,1,8,0:0:0:0:
224,192,308261,1,0,0:0:0:0:
224,192,308433,1,8,0:0:0:0:
224,160,308604,5,0,0:0:0:0:
224,224,308776,1,4,0:0:0:0:
288,160,309118,1,8,0:0:0:0:
288,160,309290,1,8,0:0:0:0:
288,160,309376,1,8,0:0:0:0:
224,160,309461,1,0,0:0:0:0:
224,160,309633,1,0,0:0:0:0:
288,160,309804,1,8,0:0:0:0:
288,160,309976,1,8,0:0:0:0:
288,160,310061,1,8,0:0:0:0:
224,160,310147,1,0,0:0:0:0:
224,160,310233,1,0,0:0:0:0:
224,160,310318,1,0,0:0:0:0:
288,160,310490,1,8,0:0:0:0:
224,160,310661,1,0,0:0:0:0:
288,160,310833,1,8,0:0:0:0:
288,160,310918,1,8,0:0:0:0:
224,160,311004,1,0,0:0:0:0:
288,160,311176,1,8,0:0:0:0:
224,160,311347,1,0,0:0:0:0:
288,160,311433,1,8,0:0:0:0:
224,160,311518,1,0,0:0:0:0:
288,160,311861,1,8,0:0:0:0:
288,160,312033,1,8,0:0:0:0:
288,160,312118,1,8,0:0:0:0:
288,160,312204,1,8,0:0:0:0:
224,160,312376,1,0,0:0:0:0:
288,160,312547,1,8,0:0:0:0:
288,160,312718,1,8,0:0:0:0:
288,160,312804,1,8,0:0:0:0:
224,160,312890,1,0,0:0:0:0:
224,160,313061,1,0,0:0:0:0:
224,160,313147,1,0,0:0:0:0:
288,160,313233,1,8,0:0:0:0:
288,160,313318,1,8,0:0:0:0:
224,160,313404,1,0,0:0:0:0:
288,160,313576,1,8,0:0:0:0:
224,160,313747,1,0,0:0:0:0:
288,160,313918,1,8,0:0:0:0:
288,160,314090,1,8,0:0:0:0:
288,160,314176,1,8,0:0:0:0:
224,160,314261,1,0,0:0:0:0:
224,160,314347,1,0,0:0:0:0:
224,160,314433,1,0,0:0:0:0:
288,160,314604,1,8,0:0:0:0:
288,160,314776,1,8,0:0:0:0:
288,160,314861,1,8,0:0:0:0:
224,160,314947,1,0,0:0:0:0:
224,160,315118,1,0,0:0:0:0:
288,160,315290,1,8,0:0:0:0:
288,160,315461,1,8,0:0:0:0:
288,160,315547,1,8,0:0:0:0:
224,160,315633,1,0,0:0:0:0:
224,160,315718,1,0,0:0:0:0:
224,160,315804,1,0,0:0:0:0:
288,160,315976,1,8,0:0:0:0:
288,160,316147,1,8,0:0:0:0:
288,160,316233,1,8,0:0:0:0:
224,160,316318,1,0,0:0:0:0:
224,160,316490,1,0,0:0:0:0:
288,160,316661,1,8,0:0:0:0:
288,160,316833,1,8,0:0:0:0:
288,160,316918,1,8,0:0:0:0:
224,160,317004,1,0,0:0:0:0:
224,160,317176,1,0,0:0:0:0:
288,160,317347,1,8,0:0:0:0:
288,160,317518,1,8,0:0:0:0:
224,160,317861,1,0,0:0:0:0:
288,160,318033,1,8,0:0:0:0:
288,160,318204,1,8,0:0:0:0:
224,160,318290,1,0,0:0:0:0:
288,160,318376,1,8,0:0:0:0:
288,160,318461,1,8,0:0:0:0:
224,160,318547,1,0,0:0:0:0:
288,160,318718,1,8,0:0:0:0:
224,160,318890,1,0,0:0:0:0:
288,160,319061,1,8,0:0:0:0:
288,160,319147,1,8,0:0:0:0:
224,160,319233,1,0,0:0:0:0:
288,160,319404,1,8,0:0:0:0:
224,160,319576,1,0,0:0:0:0:
352,224,319747,1,4,0:0:0:0:
256,160,320090,1,8,0:0:0:0:
256,160,320261,1,8,0:0:0:0:
128,160,320433,1,0,0:0:0:0:
128,160,320604,1,0,0:0:0:0:
128,128,320776,1,8,0:0:0:0:
256,160,321118,1,0,0:0:0:0:
270,143,321290,1,8,0:0:0:0:
270,143,321461,1,0,0:0:0:0:
270,143,321633,1,0,0:0:0:0:
270,143,321804,1,8,0:0:0:0:
270,143,321976,1,0,0:0:0:0:
270,143,322147,1,0,0:0:0:0:
224,128,322490,1,0,0:0:0:0:
224,128,322833,1,8,0:0:0:0:
352,160,323004,1,8,0:0:0:0:
320,224,323176,1,0,0:0:0:0:
320,224,323347,1,8,0:0:0:0:
384,288,323518,1,0,0:0:0:0:
224,160,323861,1,0,0:0:0:0:
209,141,324033,1,8,0:0:0:0:
192,96,324204,1,0,0:0:0:0:
224,96,324376,1,0,0:0:0:0:
224,96,324547,1,8,0:0:0:0:
224,96,324718,1,0,0:0:0:0:
224,96,324890,1,8,0:0:0:0:
351,156,325233,1,0,0:0:0:0:
351,156,325576,1,8,0:0:0:0:
351,156,325747,1,0,0:0:0:0:
351,156,326090,1,0,0:0:0:0:
351,156,326261,1,8,0:0:0:0:
351,156,326604,1,0,0:0:0:0:
351,156,326776,1,8,0:0:0:0:
351,156,326947,1,0,0:0:0:0:
351,156,327118,1,0,0:0:0:0:
351,156,327461,1,0,0:0:0:0:
351,156,327633,1,8,0:0:0:0:
416,288,327976,1,0,0:0:0:0:
416,256,328318,1,8,0:0:0:0:
416,256,328490,1,0,0:0:0:0:
384,256,328833,1,0,0:0:0:0:
384,256,329004,1,8,0:0:0:0:
384,256,329347,1,0,0:0:0:0:
384,256,329518,1,0,0:0:0:0:
384,224,329690,1,8,0:0:0:0:
384,224,329861,1,8,0:0:0:0:
96,96,330204,1,0,0:0:0:0:
96,96,330376,1,8,0:0:0:0:
320,224,330718,1,0,0:0:0:0:
320,224,331061,1,8,0:0:0:0:
320,192,331576,1,0,0:0:0:0:
320,224,331747,1,8,0:0:0:0:
320,160,332090,1,0,0:0:0:0:
320,160,332433,1,0,0:0:0:0:
320,160,332947,1,8,0:0:0:0:
320,160,333118,1,8,0:0:0:0:
288,96,333461,1,0,0:0:0:0:
288,96,333804,1,8,0:0:0:0:
288,96,334318,1,0,0:0:0:0:
288,64,334490,1,8,0:0:0:0:
288,64,334833,1,0,0:0:0:0:
288,64,335176,1,0,0:0:0:0:
288,64,335690,1,8,0:0:0:0:
288,64,335861,1,8,0:0:0:0:
288,64,336204,1,0,0:0:0:0:
288,64,336547,1,8,0:0:0:0:
288,64,337233,1,8,0:0:0:0:
288,64,337918,1,8,0:0:0:0:
288,64,338604,1,8,0:0:0:0:
288,64,338947,1,0,0:0:0:0:
160,160,340318,1,8,0:0:0:0:
256,192,341690,12,0,343061,0:0:0:0:
