osu file format v14

[General]
AudioFilename: audio.mp3
AudioLeadIn: 0
PreviewTime: 632
Countdown: 0
SampleSet: Soft
StackLeniency: 0.2
Mode: 0
LetterboxInBreaks: 0
WidescreenStoryboard: 1

[Editor]
Bookmarks: 23604,34575,45547,67490,78461,100404,116861,122347,133318,144290,155261,166232,177204
DistanceSpacing: 1.1
BeatDivisor: 4
GridSize: 32
TimelineZoom: 1.9

[Metadata]
Title:Necro Fantasia
TitleUnicode:Necro Fantasia
Artist:MISATO
ArtistUnicode:美里
Creator:Celektus
Version:Expert
Source:東方妖々夢 ~ Perfect Cherry Blossom.
Tags:ネクロファンタジア Touhou Toho Arrange Album Youyoumu Ghostly Dream 八雲 紫 Yukari Yakumo Necrofantasia Masayoshi Minoshima Haruka Phantasm Stage Boss Theme For Your Pieces EXSERENSES C74 Reitaisai8 - Magic Girl - Alstroemeria Records ALR 東方Project
BeatmapID:1746092
BeatmapSetID:833595

[Difficulty]
HPDrainRate:7
CircleSize:4
OverallDifficulty:9
ApproachRate:9
SliderMultiplier:1.9
SliderTickRate:1

[Events]
//Background and Video events
0,0,"65608311_p0.png",0,0
//Break Periods
//Storyboard Layer 0 (Background)
//Storyboard Layer 1 (Fail)
//Storyboard Layer 2 (Pass)
//Storyboard Layer 3 (Foreground)
//Storyboard Sound Samples

[TimingPoints]
290,342.857142857143,4,2,1,15,1,0
1661,-133.333333333333,4,2,1,15,0,0
23604,-133.333333333333,4,2,1,25,0,0
34575,-105.263157894737,4,2,1,50,0,0
44175,-333.333333333333,4,2,1,30,0,0
44861,-100,4,2,1,45,0,0
45461,-100,4,2,1,5,0,0
45547,-83.3333333333333,4,2,1,60,0,0
45804,-83.3333333333333,4,2,1,5,0,0
45890,-83.3333333333333,4,2,1,60,0,0
51290,-83.3333333333333,4,2,1,5,0,0
51375,-83.3333333333333,4,2,1,60,0,0
56775,-83.3333333333333,4,2,1,5,0,0
56861,-83.3333333333333,4,2,1,60,0,0
62261,-83.3333333333333,4,2,1,5,0,0
62347,-83.3333333333333,4,2,1,60,0,0
67747,-83.3333333333333,4,2,1,5,0,0
67832,-83.3333333333333,4,2,1,60,0,0
73232,-83.3333333333333,4,2,1,5,0,0
73318,-83.3333333333333,4,2,1,60,0,0
75718,-333.333333333333,4,2,1,30,0,0
78461,-83.3333333333333,4,2,1,60,0,0
78718,-83.3333333333333,4,2,1,5,0,0
78804,-83.3333333333333,4,2,1,60,0,0
84204,-83.3333333333333,4,2,1,5,0,0
84290,-83.3333333333333,4,2,1,60,0,0
89690,-83.3333333333333,4,2,1,5,0,0
89775,-83.3333333333333,4,2,1,60,0,0
95175,-83.3333333333333,4,2,1,5,0,0
95261,-83.3333333333333,4,2,1,60,0,0
116861,-83.3333333333333,4,2,1,80,0,0
120975,-333.333333333333,4,2,1,40,0,0
121832,-333.333333333333,4,2,1,60,0,0
122347,-66.6666666666667,4,2,1,80,0,1
166232,-66.6666666666667,4,2,1,80,0,0

[Colours]
Combo1 : 255,128,192
Combo2 : 255,255,128
Combo3 : 255,128,128
Combo4 : 128,128,192

[HitObjects]
232,376,1661,5,2,0:2:0:0:
110,324,1832,1,2,0:2:0:0:
122,195,2004,1,2,0:2:0:0:
249,165,2175,1,2,0:2:0:0:
314,277,2518,5,6,0:2:0:0:
314,277,4404,5,2,0:2:0:0:
424,210,4575,1,2,0:2:0:0:
359,99,4746,1,2,0:2:0:0:
249,165,4918,1,2,0:2:0:0:
337,187,5261,5,6,0:2:0:0:
249,165,5775,5,2,0:2:0:0:
122,195,5946,1,2,0:2:0:0:
92,67,6118,1,2,0:2:0:0:
218,41,6289,1,2,0:2:0:0:
170,115,6632,5,6,0:2:0:0:
232,376,7147,5,2,0:2:0:0:
314,277,7318,1,2,0:2:0:0:
249,165,7489,1,2,0:2:0:0:
122,195,7660,1,2,0:2:0:0:
110,324,8004,5,6,0:2:0:0:
110,324,9890,5,2,0:2:0:0:
1,248,10061,1,2,0:2:0:0:
122,195,10232,1,2,0:2:0:0:
110,324,10404,1,2,0:2:0:0:
77,254,10747,5,6,0:2:0:0:
44,185,11261,5,2,0:2:0:0:
153,261,11432,1,2,0:2:0:0:
32,314,11603,1,2,0:2:0:0:
44,185,11775,1,2,0:2:0:0:
77,254,12118,5,6,0:2:0:0:
371,217,12632,5,2,0:2:0:0:
453,118,12803,1,2,0:2:0:0:
388,6,12974,1,2,0:2:0:0:
261,36,13145,1,2,0:2:0:0:
249,165,13489,5,6,0:2:0:0:
249,165,15375,5,2,0:2:0:0:
371,217,15547,1,2,0:2:0:0:
249,165,15718,1,2,0:2:0:0:
371,217,15890,1,2,0:2:0:0:
336,130,16232,5,6,0:2:0:0:
284,252,16747,5,2,2:2:0:0:
336,130,16919,1,2,2:2:0:0:
284,252,17090,1,2,2:2:0:0:
336,130,17262,1,2,2:2:0:0:
371,217,17604,5,6,2:2:0:0:
261,36,18118,5,2,0:2:0:0:
388,6,18289,1,2,0:2:0:0:
453,118,18460,1,2,0:2:0:0:
371,217,18631,1,2,0:2:0:0:
249,165,18975,5,6,0:2:0:0:
493,269,20862,5,2,0:2:0:0:
371,217,21033,1,2,0:2:0:0:
249,165,21205,1,2,0:2:0:0:
127,113,21376,1,2,0:2:0:0:
5,61,21718,5,6,0:2:0:0:
5,269,22232,5,2,0:2:0:0:
127,217,22403,1,2,0:2:0:0:
249,165,22575,1,2,0:2:0:0:
371,113,22746,1,2,0:2:0:0:
493,61,23088,5,6,0:2:0:0:
493,61,23604,6,0,P|457:55|423:45,2,71.2500027179719,2|0|2,0:2|0:0|0:2,0:0:0:0:
336,200,24118,2,0,P|371:205|405:215,1,71.2500027179719,2|0,0:2|0:0,0:0:0:0:
512,327,24461,2,0,P|499:293|490:259,2,71.2500027179719,2|0|0,0:2|0:0|0:2,0:0:0:0:
327,294,24975,6,0,P|321:329|312:363,3,71.2500027179719,0|0|0|0,0:2|0:0|0:2|0:0,0:0:0:0:
217,190,25661,2,0,P|226:224|231:259,3,71.2500027179719,0|0|0|0,0:2|0:0|0:2|0:0,0:0:0:0:
121,363,26347,6,0,P|130:329|135:294,1,71.2500027179719,2|0,0:2|0:0,0:0:0:0:
73,119,26690,1,2,0:2:0:0:
0,189,26861,2,0,P|25:215|53:236,1,71.2500027179719,2|0,0:2|0:0,0:0:0:0:
210,171,27204,2,0,P|177:179|144:193,2,71.2500027179719,2|0|0,0:2|0:0|0:0,0:0:0:0:
402,261,27718,6,0,P|392:227|379:194,1,71.2500027179719,2|0,0:2|0:0,0:0:0:0:
238,72,28061,1,2,0:2:0:0:
210,171,28232,2,0,P|244:180|279:184,1,71.2500027179719,2|0,0:2|0:0,0:0:0:0:
383,49,28575,2,0,P|359:72|337:100,2,71.2500027179719,2|0|0,0:2|0:0|0:0,0:0:0:0:
402,261,29090,6,0,P|436:270|471:274,2,71.2500027179719,2|0|2,0:2|0:0|0:2,0:0:0:0:
279,184,29604,2,0,P|245:175|210:171,1,71.2500027179719,2|0,0:2|0:0,0:0:0:0:
48,196,29947,2,0,P|82:205|117:209,2,71.2500027179719,2|0|0,0:2|0:0|0:0,0:0:0:0:
57,50,30461,6,0,P|31:75|10:103,3,71.2500027179719,0|0|0|0,0:2|0:0|0:0|0:0,0:0:0:0:
178,130,31147,2,0,P|168:95|155:62,3,71.2500027179719,0|0|0|0,0:2|0:0|0:0|0:0,0:0:0:0:
269,8,31832,5,2,0:2:0:0:
262,94,32003,1,2,0:2:0:0:
255,179,32174,1,2,0:2:0:0:
247,264,32346,1,2,0:2:0:0:
240,349,32690,5,6,0:2:0:0:
359,0,33204,5,2,0:2:0:0:
352,86,33375,1,2,0:2:0:0:
345,171,33546,1,2,0:2:0:0:
337,256,33718,1,2,0:2:0:0:
330,341,34062,5,6,0:2:0:0:
0,372,34575,6,0,L|179:356,1,180.49999518013,6|2,3:2|1:2,0:0:0:0:
351,384,35090,1,2,0:2:0:0:
80,212,35432,1,2,3:2:0:0:
12,168,35604,1,0,1:0:0:0:
12,168,35947,6,0,L|191:184,1,180.49999518013,0|0,3:2|1:2,0:0:0:0:
363,156,36462,1,0,0:2:0:0:
66,81,36804,1,0,3:0:0:0:
183,62,36975,2,0,L|190:151,1,90.2499975900651,0|0,1:0|0:0,0:0:0:0:
238,275,37318,5,2,3:2:0:0:
288,89,37661,2,0,L|296:0,1,90.2499975900651,0|2,1:0|0:2,0:0:0:0:
318,304,38175,1,2,3:2:0:0:
327,384,38347,1,0,1:0:0:0:
370,109,38690,5,2,3:2:0:0:
420,294,39033,2,0,L|427:383,1,90.2499975900651,0|2,1:0|0:2,0:0:0:0:
450,80,39547,1,2,3:2:0:0:
512,182,39718,2,0,L|422:174,1,90.2499975900651,2|0,1:2|0:2,0:0:0:0:
230,185,40061,6,0,L|237:274,1,90.2499975900651,2|0,3:2|2:2,2:0:0:0:
128,372,40404,2,0,L|38:362,1,90.2499975900651,0|2,1:2|2:2,2:0:0:0:
0,108,40918,1,0,3:0:0:0:
10,33,41090,1,0,1:0:0:0:
123,232,41432,6,0,L|115:142,1,90.2499975900651,2|0,3:2|2:2,2:0:0:0:
225,45,41775,2,0,L|314:54,1,90.2499975900651,0|2,1:2|2:2,2:0:0:0:
353,309,42289,1,0,3:0:0:0:
508,236,42461,2,0,L|418:245,1,90.2499975900651,0|2,1:2|2:2,2:0:0:0:
261,384,42804,5,2,3:2:0:0:
268,298,42975,1,0,0:0:0:0:
275,213,43147,2,0,L|284:123,1,90.2499975900651,0|2,1:2|2:2,2:0:0:0:
0,175,43661,1,2,3:2:0:0:
7,89,43832,1,0,1:2:0:0:
159,308,44175,6,0,P|118:301|79:316,1,85.4999973907472,2|2,0:2|0:2,0:0:0:0:
125,379,44861,6,0,L|96:47,1,332.5,2|2,0:2|0:2,0:0:0:0:
184,0,45547,6,0,P|247:57|326:88,1,170.999994781494,6|0,3:2|0:2,0:0:0:0:
320,108,45890,2,0,P|341:159|348:216,2,113.999996520996,8|2|0,0:2|0:2|0:0,0:0:0:0:
193,142,46404,1,0,3:2:0:0:
344,0,46575,1,8,0:2:0:0:
188,296,46918,6,0,P|240:317|297:323,1,113.999996520996,0|0,3:2|0:0,0:0:0:0:
512,252,47261,2,0,P|459:230|402:224,2,113.999996520996,8|0|2,0:2|0:0|0:2,0:0:0:0:
377,384,47775,1,0,3:0:0:0:
314,229,47947,1,10,0:2:0:0:
11,384,48290,6,0,P|55:349|88:303,1,113.999996520996,2|0,3:2|0:0,0:0:0:0:
102,104,48632,2,0,P|110:161|133:213,1,113.999996520996,10|2,0:2|0:2,0:0:0:0:
381,0,49147,1,2,3:2:0:0:
193,47,49318,2,0,P|245:68|302:73,1,113.999996520996,8|2,0:2|0:2,0:0:0:0:
228,262,49661,6,0,P|262:215|306:180,1,113.999996520996,0|2,3:2|0:2,0:0:0:0:
470,50,50004,2,0,P|462:162|512:263,1,227.999993041992,8|2,0:2|0:2,0:0:0:0:
306,180,50518,1,0,3:0:0:0:
381,0,50690,1,10,0:2:0:0:
400,258,50861,1,0,3:0:0:0:
372,261,50946,1,0,3:0:0:0:
343,263,51032,6,0,P|266:301|210:365,1,170.999994781494,6|0,3:2|0:2,0:0:0:0:
206,384,51375,2,0,P|153:362|96:358,2,113.999996520996,8|2|0,0:2|0:2|0:0,0:0:0:0:
160,264,51890,1,0,3:0:0:0:
328,379,52061,1,8,0:2:0:0:
0,203,52404,6,0,P|56:198|109:177,1,113.999996520996,0|0,3:2|0:2,0:0:0:0:
319,152,52747,2,0,P|262:156|209:177,2,113.999996520996,8|0|2,0:2|0:2|0:2,0:0:0:0:
158,90,53261,1,0,3:0:0:0:
160,264,53432,1,10,0:2:0:0:
451,384,53775,6,0,P|475:332|483:276,1,113.999996520996,0|0,3:2|0:2,0:0:0:0:
399,92,54118,2,0,P|432:138|476:173,1,113.999996520996,10|2,3:2|0:2,0:0:0:0:
206,384,54632,1,0,3:0:0:0:
77,224,54804,2,0,P|43:270|0:305,1,113.999996520996,10|2,3:2|0:2,0:0:0:0:
194,300,55147,5,0,3:0:0:0:
0,280,55318,1,2,3:2:0:0:
20,87,55490,37,8,0:2:0:0:
213,105,55661,2,0,L|326:116,1,113.999996520996,8|2,0:2|0:2,0:0:0:0:
493,232,56004,37,0,3:2:0:0:
300,212,56176,1,10,0:2:0:0:
107,192,56347,1,0,3:0:0:0:
110,220,56432,1,0,3:0:0:0:
112,249,56518,38,0,P|156:322|225:372,1,170.999994781494,6|0,3:2|0:2,0:0:0:0:
255,378,56861,2,0,P|293:335|341:305,2,113.999996520996,8|2|0,0:2|0:2|0:0,0:0:0:0:
220,254,57375,1,0,3:0:0:0:
418,242,57547,1,8,0:2:0:0:
35,164,57890,6,0,P|73:206|121:236,1,113.999996520996,0|0,3:2|0:2,0:0:0:0:
319,224,58232,2,0,P|336:169|338:113,2,113.999996520996,8|0|2,0:2|0:2|0:2,0:0:0:0:
289,26,58747,1,0,3:0:0:0:
188,163,58918,1,10,0:2:0:0:
457,384,59261,6,0,P|418:341|370:311,1,113.999996520996,2|0,3:2|0:2,0:0:0:0:
162,350,59604,2,0,P|217:338|267:311,1,113.999996520996,10|2,0:2|0:2,0:0:0:0:
289,26,60118,1,0,0:0:0:0:
443,151,60290,2,0,P|387:139|337:112,1,113.999996520996,8|2,0:2|0:2,0:0:0:0:
87,45,60632,6,0,P|141:62|197:64,1,113.999996520996,0|2,3:2|0:2,0:0:0:0:
261,278,60975,2,0,P|156:320|43:326,1,227.999993041992,8|2,0:2|0:2,0:0:0:0:
255,384,61490,1,0,3:0:0:0:
32,302,61661,1,10,0:2:0:0:
219,202,61833,1,0,3:0:0:0:
191,199,61918,1,0,3:0:0:0:
162,197,62004,6,0,P|81:165|20:106,1,170.999994781494,6|0,3:2|0:2,0:0:0:0:
7,79,62347,2,0,P|41:34|86:0,2,113.999996520996,8|2|0,0:2|0:2|0:0,0:0:0:0:
140,85,62861,1,0,3:0:0:0:
0,230,63032,1,8,0:2:0:0:
223,0,63375,6,0,P|229:56|251:108,1,113.999996520996,0|0,3:2|0:2,0:0:0:0:
214,294,63718,2,0,P|207:237|185:185,2,113.999996520996,8|0|2,0:2|0:2|0:2,0:0:0:0:
272,133,64232,1,0,3:0:0:0:
312,309,64404,1,10,0:2:0:0:
439,2,64747,6,0,P|393:36|359:81,1,113.999996520996,0|0,3:2|0:2,0:0:0:0:
409,288,65090,2,0,P|403:232|381:180,1,113.999996520996,10|2,0:2|0:2,0:0:0:0:
66,384,65604,1,0,3:0:0:0:
0,230,65775,2,0,P|34:184|79:150,1,113.999996520996,8|2,0:2|0:2,0:0:0:0:
284,141,66118,6,0,P|231:118|175:111,1,113.999996520996,0|2,3:2|0:2,0:0:0:0:
359,81,66461,5,8,0:2:0:0:
97,50,66632,1,8,0:2:0:0:
66,312,66804,5,0,3:2:0:0:
97,50,66975,1,0,3:2:0:0:
97,50,67147,5,8,0:2:0:0:
66,312,67319,1,0,3:2:0:0:
328,343,67490,22,0,P|244:360|161:348,1,170.999994781494,6|0,3:2|0:2,0:0:0:0:
162,315,67832,2,0,P|218:309|280:325,1,113.999996520996,8|2,0:2|0:2,0:0:0:0:
512,101,68347,1,2,3:2:0:0:
359,81,68518,1,8,0:2:0:0:
0,247,68861,6,0,P|71:159|98:49,2,227.999993041992,0|8|0,3:2|0:2|0:0,0:0:0:0:
162,206,69718,1,0,3:0:0:0:
77,26,69890,1,8,0:2:0:0:
0,384,70232,5,2,3:2:0:0:
195,97,70575,2,0,P|248:119|289:157,1,113.999996520996,8|2,0:2|0:2,0:0:0:0:
416,384,71090,1,2,3:2:0:0:
466,207,71261,1,8,0:2:0:0:
164,9,71604,5,2,3:2:0:0:
360,296,71947,2,0,P|412:273|453:235,1,113.999996520996,8|2,0:2|0:2,0:0:0:0:
114,186,72461,1,2,3:2:0:0:
164,9,72632,1,8,0:2:0:0:
64,363,72975,6,0,P|136:319|189:252,1,170.999994781494,6|0,2:2|2:2,2:0:0:0:
202,225,73318,2,0,P|224:277|262:318,1,113.999996520996,8|2,0:2|0:2,0:0:0:0:
82,0,73832,1,2,3:2:0:0:
0,152,74003,1,8,0:2:0:0:
328,196,74347,6,0,P|240:125|130:98,2,227.999993041992,0|8|0,3:2|0:2|0:0,0:0:0:0:
287,34,75204,1,0,3:0:0:0:
107,119,75376,1,8,0:2:0:0:
415,367,75718,5,2,3:2:0:0:
422,281,75889,1,2,0:2:0:0:
429,196,76060,1,2,0:2:0:0:
437,111,76232,1,2,3:2:0:0:
444,26,76575,6,0,L|387:30,1,56.9999982604981,6|0,3:2|3:0,0:0:0:0:
260,0,77090,37,2,0:2:0:0:
267,86,77261,1,2,3:2:0:0:
274,171,77432,1,2,0:2:0:0:
282,256,77604,2,0,L|245:253,1,28.4999991302491,4|0,3:2|3:0,0:0:0:0:
238,253,77861,1,0,3:0:0:0:
224,252,77947,1,0,3:0:0:0:
138,245,78118,1,0,3:0:0:0:
123,244,78203,1,0,3:0:0:0:
109,243,78289,1,0,3:0:0:0:
109,242,78461,22,0,P|142:321|200:382,1,170.999994781494,6|0,3:2|0:2,0:0:0:0:
231,384,78804,2,0,P|282:363|339:356,2,113.999996520996,8|2|0,0:2|0:2|0:0,0:0:0:0:
230,260,79318,1,0,3:0:0:0:
44,333,79490,1,8,0:2:0:0:
0,35,79832,6,0,P|34:79|80:112,1,113.999996520996,0|0,3:2|0:0,0:0:0:0:
302,158,80175,2,0,P|267:112|220:78,2,113.999996520996,8|0|2,0:2|0:0|0:2,0:0:0:0:
119,205,80689,1,0,3:0:0:0:
142,39,80861,1,10,0:2:0:0:
455,60,81204,6,0,P|478:111|487:167,1,113.999996520996,0|0,3:2|0:2,0:0:0:0:
402,352,81547,2,0,P|435:305|479:270,1,113.999996520996,10|2,3:2|0:2,0:0:0:0:
172,128,82061,1,0,3:0:0:0:
0,192,82232,2,0,P|43:229|73:276,1,113.999996520996,10|2,3:2|0:2,0:0:0:0:
81,69,82575,5,0,3:0:0:0:
90,251,82747,1,2,3:2:0:0:
219,380,82918,5,8,0:2:0:0:
210,198,83090,2,0,L|204:84,1,113.999996520996,8|2,0:2|0:2,0:0:0:0:
396,289,83432,5,0,3:0:0:0:
214,289,83603,1,10,0:2:0:0:
32,289,83776,1,0,3:0:0:0:
35,261,83861,1,0,3:0:0:0:
37,232,83947,38,0,P|81:159|150:109,1,170.999994781494,6|0,3:2|0:2,0:0:0:0:
180,103,84290,2,0,P|218:146|266:176,2,113.999996520996,8|2|0,0:2|0:2|0:0,0:0:0:0:
145,227,84804,1,0,3:0:0:0:
343,239,84976,1,8,0:2:0:0:
69,0,85318,6,0,P|74:56|95:109,1,113.999996520996,0|0,3:2|0:2,0:0:0:0:
120,319,85661,2,0,P|116:262|95:209,2,113.999996520996,8|0|2,0:2|0:2|0:2,0:0:0:0:
182,158,86175,1,0,3:0:0:0:
8,160,86346,1,10,0:2:0:0:
360,69,86690,6,0,P|316:104|283:150,1,113.999996520996,2|0,3:2|0:0,0:0:0:0:
268,346,87032,2,0,P|260:289|237:237,1,113.999996520996,10|2,0:2|0:2,0:0:0:0:
512,377,87547,1,2,3:2:0:0:
367,258,87718,2,0,P|423:264|476:285,1,113.999996520996,10|2,0:2|0:2,0:0:0:0:
470,66,88061,6,0,P|449:118|443:174,1,113.999996520996,0|2,3:2|0:2,0:0:0:0:
238,237,88404,2,0,P|266:129|360:68,1,227.999993041992,8|0,0:2|3:0,0:0:0:0:
131,27,88832,1,8,0:2:0:0:
126,0,88918,1,0,3:0:0:0:
126,0,89090,1,8,0:2:0:0:
242,123,89261,1,0,3:0:0:0:
39,52,89432,6,0,P|85:123|153:173,1,170.999994781494,6|0,3:2|0:2,0:0:0:0:
152,204,89775,2,0,P|130:254|95:300,2,113.999996520996,8|2|0,0:2|0:2|0:0,0:0:0:0:
45,222,90289,1,0,3:2:0:0:
242,123,90460,1,8,0:2:0:0:
498,384,90804,6,0,P|475:332|468:276,1,113.999996520996,0|0,3:2|0:2,0:0:0:0:
343,133,91147,2,0,P|365:185|372:241,2,113.999996520996,8|0|2,0:2|0:2|0:2,0:0:0:0:
473,244,91661,1,0,3:0:0:0:
420,71,91833,1,10,0:2:0:0:
30,11,92175,6,0,P|69:54|117:84,1,113.999996520996,2|0,3:2|0:2,0:0:0:0:
325,45,92518,2,0,P|270:57|220:84,1,113.999996520996,10|2,0:2|0:2,0:0:0:0:
198,369,93032,1,0,0:0:0:0:
44,244,93204,2,0,P|100:256|150:283,1,113.999996520996,8|2,0:2|0:2,0:0:0:0:
270,174,93547,6,0,P|252:228|250:285,1,113.999996520996,0|2,3:2|0:2,0:0:0:0:
108,159,93890,2,0,P|186:79|298:73,1,227.999993041992,8|2,0:2|0:2,0:0:0:0:
447,153,94404,1,0,3:0:0:0:
351,0,94575,1,8,0:2:0:0:
229,181,94747,1,0,3:0:0:0:
256,184,94832,1,0,3:0:0:0:
285,186,94918,6,0,P|366:218|427:277,1,170.999994781494,6|0,3:2|0:2,0:0:0:0:
427,305,95261,2,0,P|393:350|348:384,2,113.999996520996,8|2|0,0:2|0:2|0:0,0:0:0:0:
307,298,95775,1,0,3:0:0:0:
447,153,95946,1,8,0:2:0:0:
146,384,96290,5,0,3:0:0:0:
0,243,96461,1,0,3:2:0:0:
161,158,96632,5,8,0:2:0:0:
307,298,96804,2,0,L|407:244,1,113.999996520996,8|0,0:2|0:0,0:0:0:0:
199,34,97147,5,0,3:2:0:0:
38,119,97318,1,8,0:2:0:0:
451,0,97661,6,0,P|475:52|483:108,1,113.999996520996,0|0,3:2|0:2,0:0:0:0:
399,292,98004,2,0,P|432:246|476:211,1,113.999996520996,10|2,3:2|0:2,0:0:0:0:
211,95,98518,1,2,3:2:0:0:
392,152,98690,2,0,P|346:118|311:74,1,113.999996520996,10|2,3:2|0:2,0:0:0:0:
298,289,99032,6,0,P|289:232|266:180,1,113.999996520996,0|2,3:2|0:2,0:0:0:0:
23,155,99375,2,0,P|133:173|202:261,1,227.999993041992,8|0,2:2|3:2,2:0:0:0:
212,70,99804,1,8,0:2:0:0:
211,95,99890,1,0,3:0:0:0:
2,141,100061,1,8,0:2:0:0:
179,271,100232,1,0,3:2:0:0:
311,74,100404,6,0,P|359:144|387:224,1,170.999994781494,6|0,3:2|0:0,0:0:0:0:
363,235,100747,1,8,0:2:0:0:
458,122,100918,2,0,P|488:75|512:23,1,113.999996520996,2|0,0:2|0:0,0:0:0:0:
266,180,101261,1,2,3:2:0:0:
492,220,101432,2,0,P|469:272|438:320,1,113.999996520996,2|0,0:2|0:0,0:0:0:0:
191,375,101775,5,0,3:0:0:0:
336,384,101946,2,0,P|313:331|282:283,1,113.999996520996,2|8,0:2|0:2,0:0:0:0:
252,14,102290,1,0,3:0:0:0:
227,28,102375,1,0,3:0:0:0:
208,48,102461,2,0,P|238:95|261:148,1,113.999996520996,2|0,3:2|3:2,0:0:0:0:
191,375,102804,2,0,P|168:322|137:274,1,113.999996520996,10|0,0:2|0:2,0:0:0:0:
201,97,103147,6,0,P|153:167|125:247,1,170.999994781494,2|0,3:2|0:0,0:0:0:0:
148,258,103490,1,8,0:2:0:0:
53,145,103661,2,0,P|23:98|0:45,1,113.999996520996,2|0,0:2|0:0,0:0:0:0:
235,231,104004,1,0,3:0:0:0:
9,271,104175,2,0,P|32:323|63:371,1,113.999996520996,2|0,0:2|0:0,0:0:0:0:
54,146,104518,5,0,3:0:0:0:
201,97,104690,1,2,3:2:0:0:
435,82,104861,5,8,0:0:0:0:
288,131,105032,2,0,P|265:183|234:231,1,113.999996520996,10|2,0:2|0:2,0:0:0:0:
62,370,105375,5,0,3:2:0:0:
296,355,105546,1,10,0:0:0:0:
0,123,105890,6,0,P|70:171|150:199,1,170.999994781494,6|0,3:2|0:0,0:0:0:0:
161,175,106233,1,8,0:2:0:0:
210,28,106404,2,0,P|162:58|109:81,1,113.999996520996,2|0,3:2|0:0,0:0:0:0:
50,273,106747,1,0,3:2:0:0:
248,259,106918,2,0,P|200:289|147:312,1,113.999996520996,10|0,0:2|0:0,0:0:0:0:
367,384,107261,5,0,0:0:0:0:
345,231,107432,2,0,P|393:262|446:285,1,113.999996520996,2|8,0:2|0:2,0:0:0:0:
441,98,107775,1,0,3:0:0:0:
409,122,107861,1,0,3:0:0:0:
377,134,107947,2,0,P|324:111|277:80,1,113.999996520996,2|0,3:2|3:2,0:0:0:0:
86,34,108290,2,0,P|134:65|187:88,1,113.999996520996,10|0,0:2|0:2,0:0:0:0:
248,271,108632,6,0,P|178:223|98:195,1,170.999994781494,6|0,3:2|0:0,0:0:0:0:
87,219,108975,1,8,0:2:0:0:
38,366,109147,2,0,P|86:336|139:313,1,113.999996520996,2|0,3:2|0:0,0:0:0:0:
198,121,109490,1,0,3:2:0:0:
0,135,109661,2,0,P|48:105|101:82,1,113.999996520996,10|0,0:2|0:0,0:0:0:0:
308,19,110004,5,0,3:0:0:0:
330,172,110175,2,0,P|282:141|229:118,1,113.999996520996,2|8,0:2|0:2,0:0:0:0:
409,73,110518,1,0,0:0:0:0:
298,269,110690,1,0,3:0:0:0:
350,291,110776,1,8,0:2:0:0:
398,322,110861,1,0,3:0:0:0:
398,322,111032,1,8,0:2:0:0:
60,384,111375,6,0,P|136:347|200:292,1,170.999994781494,6|0,3:2|0:0,0:0:0:0:
185,270,111718,1,8,0:2:0:0:
26,289,111890,2,0,P|60:243|86:192,1,113.999996520996,2|0,0:2|0:0,0:0:0:0:
173,0,112232,1,0,0:0:0:0:
16,121,112404,2,0,P|50:75|76:24,1,113.999996520996,2|0,0:2|0:0,0:0:0:0:
304,108,112747,5,0,3:2:0:0:
145,89,112919,2,0,P|179:134|205:185,1,113.999996520996,2|8,0:2|0:2,0:0:0:0:
335,360,113261,1,0,3:0:0:0:
353,339,113347,1,0,3:0:0:0:
362,311,113432,2,0,P|335:260|301:214,1,113.999996520996,2|0,3:2|3:2,0:0:0:0:
341,0,113775,2,0,P|375:45|401:96,1,113.999996520996,10|0,0:2|0:2,0:0:0:0:
503,315,114118,6,0,P|516:231|507:147,1,170.999994781494,6|0,3:2|0:0,0:0:0:0:
481,145,114461,1,8,0:2:0:0:
406,286,114633,2,0,P|387:231|360:181,1,113.999996520996,2|0,0:2|0:0,0:0:0:0:
252,0,114975,1,0,0:0:0:0:
262,199,115147,2,0,P|243:144|216:94,1,113.999996520996,2|0,0:2|0:0,0:0:0:0:
0,82,115490,5,0,3:2:0:0:
75,223,115661,2,0,P|93:168|120:118,1,113.999996520996,2|8,0:2|0:2,0:0:0:0:
275,299,116004,1,0,3:0:0:0:
253,291,116090,1,0,3:0:0:0:
232,288,116175,2,0,P|175:289|119:301,1,113.999996520996,2|0,3:2|3:2,0:0:0:0:
310,209,116518,2,0,P|365:197|422:195,1,113.999996520996,2|0,3:2|3:2,0:0:0:0:
443,198,116774,1,0,3:0:0:0:
465,206,116861,5,14,3:2:0:0:
242,136,117032,1,0,3:0:0:0:
214,127,117204,1,0,3:0:0:0:
379,286,117375,5,10,3:2:0:0:
328,57,117546,1,0,3:0:0:0:
320,27,117718,1,0,3:0:0:0:
267,250,117890,5,10,3:2:0:0:
439,92,118061,1,0,3:0:0:0:
385,312,118232,5,12,3:2:0:0:
351,170,118404,1,2,3:2:0:0:
320,27,118575,1,0,3:0:0:0:
267,250,118747,5,8,3:2:0:0:
164,142,118918,1,2,3:2:0:0:
67,34,119090,1,0,3:0:0:0:
123,285,119261,5,10,3:2:0:0:
123,285,119432,1,0,3:2:0:0:
210,3,119604,5,14,0:2:0:0:
267,250,119775,1,0,3:0:0:0:
509,324,119947,5,14,0:2:0:0:
479,315,120032,1,8,0:2:0:0:
449,306,120118,1,10,0:2:0:0:
453,78,120290,5,14,0:2:0:0:
210,3,120461,1,0,3:0:0:0:
26,176,120633,5,14,0:2:0:0:
48,154,120718,1,8,0:2:0:0:
71,133,120804,1,10,0:2:0:0:
71,133,120975,6,0,L|127:137,2,56.9999982604981,2|2|2,0:3|0:3|0:3,0:3:0:0:
234,110,121832,5,0,3:0:0:0:
48,154,122004,1,10,0:2:0:0:
48,154,122347,6,0,L|66:366,1,213.750008153916,6|0,3:2|0:0,0:0:0:0:
92,382,122690,2,0,P|160:372|200:309,1,142.500005435944,10|0,0:2|0:0,0:0:0:0:
288,172,123032,2,0,P|262:235|297:302,1,142.500005435944,2|0,0:2|0:0,0:0:0:0:
494,351,123375,1,10,0:2:0:0:
346,234,123547,2,0,L|483:269,2,142.500005435944,2|0|2,0:2|3:0|0:2,0:0:0:0:
511,119,124061,6,0,L|373:154,2,142.500005435944,8|0|2,0:2|0:0|0:2,0:0:0:0:
346,234,124575,1,0,0:0:0:0:
413,42,124747,2,0,P|349:67|282:32,1,142.500005435944,10|2,0:2|0:3,0:0:0:0:
214,228,125090,6,0,L|196:16,1,213.750008153916,6|0,3:2|0:0,0:0:0:0:
167,4,125433,2,0,P|99:14|59:77,1,142.500005435944,10|0,0:2|0:0,0:0:0:0:
182,230,125775,2,0,P|139:176|64:172,1,142.500005435944,2|0,0:2|0:0,0:0:0:0:
0,347,126118,1,10,0:2:0:0:
229,318,126290,6,0,L|87:335,2,142.500005435944,2|0|0,0:2|3:0|3:0,0:0:0:0:
0,347,126804,1,10,0:2:0:0:
316,306,126975,1,8,0:2:0:0:
245,46,127147,6,0,L|386:63,1,142.500005435944,2|0,0:2|3:0,0:0:0:0:
158,34,127490,1,10,0:2:0:0:
474,75,127661,1,10,0:2:0:0:
470,110,127747,1,8,0:2:0:0:
467,145,127832,6,0,L|449:357,1,213.750008153916,6|0,3:2|0:0,0:0:0:0:
423,373,128175,2,0,P|335:315|229:318,1,213.750008153916,10|0,0:2|0:2,0:0:0:0:
197,300,128518,2,0,P|158:357|89:367,1,142.500005435944,2|0,0:2|3:0,0:0:0:0:
302,224,128861,1,8,0:2:0:0:
110,279,129032,6,0,P|148:221|217:211,2,142.500005435944,2|0|0,0:2|3:0|0:0,0:0:0:0:
302,224,129547,2,0,P|305:154|359:111,1,142.500005435944,10|0,0:2|0:0,0:0:0:0:
156,22,129890,2,0,P|213:59|224:128,1,142.500005435944,2|0,0:2|3:0,0:0:0:0:
413,48,130232,1,8,0:2:0:0:
382,194,130404,2,0,P|446:219|508:188,1,142.500005435944,2|6,0:2|3:2,0:0:0:0:
78,316,130918,6,0,P|74:246|20:203,1,142.500005435944,10|0,0:2|0:0,0:0:0:0:
19,100,131261,2,0,P|80:131|145:105,1,142.500005435944,2|0,0:2|3:0,0:0:0:0:
0,287,131604,1,8,0:2:0:0:
222,216,131775,2,0,P|160:247|95:221,1,142.500005435944,2|6,0:2|3:2,0:0:0:0:
512,295,132290,5,8,0:2:0:0:
382,194,132461,1,0,3:0:0:0:
222,216,132632,1,0,3:0:0:0:
201,200,132718,1,8,0:2:0:0:
71,99,132890,1,0,3:0:0:0:
50,115,132976,1,8,0:2:0:0:
173,38,133147,1,0,3:2:0:0:
152,22,133233,1,0,3:0:0:0:
131,6,133318,6,0,L|343:24,1,213.750008153916,6|0,3:2|0:0,0:0:0:0:
359,50,133661,2,0,P|427:60|467:123,1,142.500005435944,10|0,0:2|0:0,0:0:0:0:
512,314,134004,2,0,P|458:271|454:196,1,142.500005435944,2|0,0:2|3:0,0:0:0:0:
256,291,134347,1,8,0:2:0:0:
381,136,134518,6,0,L|342:273,2,142.500005435944,2|0|2,0:2|3:0|0:2,0:0:0:0:
493,339,135032,2,0,L|453:202,2,142.500005435944,8|0|2,0:2|0:0|0:2,0:0:0:0:
381,136,135547,1,0,3:2:0:0:
364,359,135718,2,0,P|296:349|256:286,1,142.500005435944,10|2,0:2|0:3,0:0:0:0:
381,136,136061,6,0,L|169:154,1,213.750008153916,6|0,3:2|0:0,0:0:0:0:
148,174,136404,2,0,P|80:184|40:247,1,142.500005435944,10|0,0:2|0:0,0:0:0:0:
129,384,136747,2,0,P|154:320|119:253,1,142.500005435944,2|0,2:2|3:0,2:0:0:0:
341,273,137090,1,8,0:2:0:0:
234,93,137261,6,0,P|259:156|224:223,1,142.500005435944,2|0,2:2|3:0,2:0:0:0:
512,0,137775,2,0,P|442:4|399:58,1,142.500005435944,10|0,2:2|0:0,2:0:0:0:
474,208,138118,2,0,P|505:145|480:81,1,142.500005435944,2|0,2:2|0:0,2:0:0:0:
512,286,138461,1,8,0:2:0:0:
329,256,138632,6,0,P|397:267|435:324,1,142.500005435944,2|6,2:2|3:2,2:0:0:0:
65,130,139147,2,0,P|135:125|178:71,1,142.500005435944,10|2,2:2|0:2,2:0:0:0:
377,24,139490,2,0,P|307:28|264:82,1,142.500005435944,2|2,2:2|3:2,2:0:0:0:
0,77,139832,1,8,0:2:0:0:
147,155,140004,6,0,P|103:208|35:212,1,142.500005435944,2|6,2:2|3:2,2:0:0:0:
512,326,140518,2,0,P|442:329|398:383,1,142.500005435944,10|2,2:2|0:2,2:0:0:0:
229,299,140861,2,0,P|261:236|236:171,1,142.500005435944,2|2,2:2|3:2,2:0:0:0:
304,361,141204,1,8,0:2:0:0:
454,222,141375,6,0,P|385:210|349:152,1,142.500005435944,2|6,2:2|3:2,2:0:0:0:
33,211,141890,1,8,0:2:0:0:
0,298,142061,1,2,0:2:0:0:
171,0,142404,1,0,3:2:0:0:
237,174,142575,1,10,0:2:0:0:
507,384,142918,5,6,3:2:0:0:
126,333,143261,1,8,0:2:0:0:
0,381,143432,1,2,0:2:0:0:
430,135,143775,1,0,3:2:0:0:
179,39,143946,1,10,0:2:0:0:
341,153,144118,5,2,3:2:0:0:
464,230,144290,2,0,L|446:18,1,213.750008153916,6|0,3:2|0:0,0:0:0:0:
420,2,144633,2,0,P|352:12|312:75,1,142.500005435944,10|0,0:2|0:0,0:0:0:0:
227,235,144975,2,0,P|253:172|218:105,1,142.500005435944,2|0,0:2|0:0,0:0:0:0:
0,70,145318,1,10,0:2:0:0:
167,168,145490,2,0,L|17:145,2,142.500005435944,2|0|2,0:2|3:0|0:2,0:0:0:0:
2,274,146004,6,0,L|145:252,2,142.500005435944,8|0|2,0:2|0:0|0:2,0:0:0:0:
167,168,146518,1,0,0:0:0:0:
110,361,146690,2,0,P|174:336|241:371,1,142.500005435944,10|2,0:2|0:3,0:0:0:0:
298,156,147033,6,0,L|316:368,1,213.750008153916,6|0,3:2|0:0,0:0:0:0:
345,380,147376,2,0,P|413:370|453:307,1,142.500005435944,10|0,0:2|0:0,0:0:0:0:
330,154,147718,2,0,P|373:208|448:212,1,142.500005435944,2|0,0:2|0:0,0:0:0:0:
512,37,148061,1,10,0:2:0:0:
283,66,148233,6,0,L|425:49,2,142.500005435944,2|0|0,0:2|3:0|3:0,0:0:0:0:
512,37,148747,1,10,0:2:0:0:
196,78,148918,1,8,0:2:0:0:
156,277,149090,6,0,L|136:137,1,142.500005435944,2|0,0:2|3:0,0:0:0:0:
230,321,149433,1,10,0:2:0:0:
38,309,149604,1,10,0:2:0:0:
42,274,149690,1,8,0:2:0:0:
45,239,149775,6,0,L|63:27,1,213.750008153916,6|0,3:2|0:0,0:0:0:0:
89,11,150118,2,0,P|177:69|283:66,1,213.750008153916,10|0,0:2|0:2,0:0:0:0:
315,84,150461,2,0,P|354:27|423:17,1,142.500005435944,2|0,0:2|3:0,0:0:0:0:
210,160,150804,1,8,0:2:0:0:
402,105,150975,6,0,P|364:163|295:173,2,142.500005435944,2|0|0,0:2|3:0|0:0,0:0:0:0:
210,160,151490,2,0,P|207:230|153:273,1,142.500005435944,10|0,0:2|0:0,0:0:0:0:
250,375,151833,2,0,P|253:307|307:263,1,142.500005435944,2|0,0:2|3:0,0:0:0:0:
161,361,152175,1,8,0:2:0:0:
130,190,152347,2,0,P|87:136|17:132,1,142.500005435944,2|6,0:2|3:2,0:0:0:0:
434,68,152861,6,0,P|438:138|492:181,1,142.500005435944,10|0,0:2|0:0,0:0:0:0:
493,284,153204,2,0,P|432:253|367:279,1,142.500005435944,2|0,0:2|3:0,0:0:0:0:
512,97,153547,1,8,0:2:0:0:
276,80,153718,2,0,P|333:118|343:187,1,142.500005435944,2|6,0:2|3:2,0:0:0:0:
0,29,154233,5,8,0:2:0:0:
130,130,154404,1,0,3:0:0:0:
290,108,154575,1,0,3:0:0:0:
311,124,154661,1,8,0:2:0:0:
332,140,154747,1,0,3:2:0:0:
462,241,154918,1,8,0:2:0:0:
339,346,155090,1,0,3:2:0:0:
360,362,155176,1,0,3:0:0:0:
381,378,155261,6,0,L|169:360,1,213.750008153916,6|0,3:2|0:0,0:0:0:0:
153,334,155604,2,0,P|85:324|45:261,1,142.500005435944,10|0,0:2|0:0,0:0:0:0:
0,70,155947,2,0,P|54:113|58:188,1,142.500005435944,2|0,0:2|3:0,0:0:0:0:
256,93,156290,1,8,0:2:0:0:
131,248,156461,6,0,L|170:111,2,142.500005435944,2|0|2,0:2|3:0|0:2,0:0:0:0:
19,45,156975,2,0,L|59:182,2,142.500005435944,8|0|2,0:2|0:0|0:2,0:0:0:0:
131,248,157490,1,0,3:2:0:0:
148,25,157661,2,0,P|216:35|256:98,1,142.500005435944,10|2,0:2|0:3,0:0:0:0:
131,248,158004,6,0,L|343:230,1,213.750008153916,6|0,3:2|0:0,0:0:0:0:
364,210,158347,2,0,P|432:200|472:137,1,142.500005435944,10|0,0:2|0:0,0:0:0:0:
383,0,158690,2,0,P|358:64|393:131,1,142.500005435944,2|0,2:2|3:0,2:0:0:0:
171,111,159033,1,8,0:2:0:0:
278,291,159204,6,0,P|253:228|288:161,1,142.500005435944,2|0,2:2|3:0,2:0:0:0:
80,367,159718,2,0,P|150:363|193:309,1,142.500005435944,10|0,2:2|0:0,2:0:0:0:
38,176,160061,2,0,P|7:239|32:303,1,142.500005435944,2|0,2:2|0:0,2:0:0:0:
0,98,160404,1,8,0:2:0:0:
148,233,160575,6,0,P|123:168|153:107,1,142.500005435944,2|6,2:2|3:2,2:0:0:0:
512,273,161090,2,0,P|442:278|399:332,1,142.500005435944,10|2,2:2|0:2,2:0:0:0:
200,379,161433,2,0,P|270:375|313:321,1,142.500005435944,2|2,2:2|3:2,2:0:0:0:
512,273,161775,1,8,0:2:0:0:
322,182,161947,6,0,P|389:193|427:250,1,142.500005435944,2|6,2:2|3:2,2:0:0:0:
0,58,162461,2,0,P|70:55|114:1,1,142.500005435944,10|2,2:2|0:2,2:0:0:0:
283,85,162804,2,0,P|251:148|276:213,1,142.500005435944,2|2,2:2|3:2,2:0:0:0:
208,23,163147,1,8,0:2:0:0:
58,162,163318,6,0,P|127:174|163:232,1,142.500005435944,2|6,2:2|3:2,2:0:0:0:
479,173,163833,1,8,0:2:0:0:
512,86,164004,1,2,0:2:0:0:
341,384,164347,1,0,3:2:0:0:
275,210,164518,1,10,0:2:0:0:
5,0,164861,5,6,3:2:0:0:
386,51,165204,1,8,0:2:0:0:
512,3,165375,1,2,0:2:0:0:
82,249,165718,1,0,3:2:0:0:
333,345,165889,1,10,0:2:0:0:
133,0,166232,5,6,0:2:0:0:
