osu file format v14

[General]
AudioFilename: audio.mp3
AudioLeadIn: 0
PreviewTime: 25684
Countdown: 0
SampleSet: Soft
StackLeniency: 0.7
Mode: 0
LetterboxInBreaks: 0
WidescreenStoryboard: 1

[Editor]
DistanceSpacing: 1.3
BeatDivisor: 4
GridSize: 4
TimelineZoom: 1.1

[Metadata]
Title:Mieru Darou Byston Well (TV Size)
TitleUnicode:みえるだろうバイストン・ウェル (TV Size)
Artist:MIO
ArtistUnicode:MIO
Creator:bossandy
Version:Normal
Source:聖戦士ダンバイン
Tags:Aura Battler Dunbine Seisenshi Danbain Japanese Anime Mecha Sunrise J-pop Jpop pop 80s ending MIQ ミオ Silent Rock
BeatmapID:3335953
BeatmapSetID:1632800

[Difficulty]
HPDrainRate:3
CircleSize:3
OverallDifficulty:4
ApproachRate:5.2
SliderMultiplier:1.4
SliderTickRate:1

[Events]
//Background and Video events
0,0,"BG.jpg",0,0
//Break Periods
//Storyboard Layer 0 (Background)
//Storyboard Layer 1 (Fail)
//Storyboard Layer 2 (Pass)
//Storyboard Layer 3 (Foreground)
//Storyboard Layer 4 (Overlay)
//Storyboard Sound Samples

[TimingPoints]
1200,680.657969370391,4,2,1,70,1,0
6645,678.157671658661,4,2,1,70,1,0
12070,697.674418604651,4,2,1,70,1,0
13465,681.818181818182,4,2,1,70,1,8
15510,674.157303370787,4,2,1,70,1,8
17532,677.966101694915,4,2,1,70,1,8
20243,684.931506849315,4,2,1,70,1,8
22982,675.675675675676,4,2,1,70,1,0
25684,697.674418604652,4,2,1,70,1,8
26032,-100,4,2,2,70,0,0
26556,-100,4,2,3,70,0,0
27079,669.642857142857,4,2,1,70,1,8
28418,681.044267877412,4,2,1,90,1,1
38633,-100,4,2,3,90,0,1
38974,-100,4,2,2,90,0,1
39314,-100,4,2,1,90,0,1
44763,675.675675675676,4,2,1,90,1,9
49492,-100,4,2,3,90,0,1
49830,-100,4,2,2,90,0,1
50168,697.674418604651,4,2,1,90,1,1
51563,675.675675675676,4,2,1,90,1,9
52238,-100,4,2,3,90,0,1
52576,666.666666666667,4,2,2,90,1,9
52576,-100,4,2,2,90,0,1
52909,675.675675675676,4,2,1,90,1,9
53584,681.818181818182,4,2,1,90,1,9
55629,-100,4,2,1,55,0,0
56311,-100,4,2,1,50,0,0
56993,-100,4,2,1,45,0,0
57674,-100,4,2,1,40,0,0
58356,-100,4,2,1,35,0,0
59038,-100,4,2,1,20,0,0
59720,-100,4,2,1,15,0,0
60402,-100,4,2,1,10,0,0
61084,-100,4,2,1,5,0,0

[Colours]
Combo1 : 165,183,112
Combo2 : 151,153,132
Combo3 : 174,146,133
Combo4 : 199,62,33

[HitObjects]
472,64,1200,6,0,L|386:58,1,70,2|0,3:2|0:0,0:0:0:0:
324,92,1880,2,0,L|238:86,1,70,2|0,0:0|0:0,0:0:0:0:
212,16,2561,2,0,P|176:60|204:156,1,140,2|2,0:0|0:0,0:0:0:0:
252,188,3582,1,0,0:0:0:0:
324,228,3922,6,0,B|388:228|420:208|420:208|436:228|480:232,2,140,2|2|2,3:2|0:0|0:0,0:0:0:0:
252,188,5624,1,0,0:0:0:0:
180,228,5964,1,2,0:0:0:0:
92,88,6645,6,0,L|20:100,1,70,2|0,3:2|0:0,0:0:0:0:
52,180,7323,2,0,P|52:220|36:252,1,70,2|0,0:0|0:0,0:0:0:0:
68,324,8001,2,0,B|96:368|144:356|144:356|224:336,1,140,2|2,0:0|0:0,0:0:0:0:
276,324,9018,1,0,0:0:0:0:
220,260,9357,6,0,L|228:184,1,70,2|0,3:2|0:0,0:0:0:0:
276,120,10035,2,0,P|244:108|196:112,1,70,2|0,0:0|0:0,0:0:0:0:
188,28,10713,2,0,P|257:26|322:51,1,140,2|2,3:2|0:0,0:0:0:0:
356,128,11731,1,0,0:0:0:0:
300,192,12070,6,0,P|275:257|276:326,1,140,2|2,3:2|1:2,0:0:0:0:
352,368,13116,1,2,0:0:0:0:
436,360,13465,2,0,P|460:294|459:225,1,140,2|2,3:2|1:2,0:0:0:0:
384,184,14487,1,0,0:0:0:0:
404,104,14828,5,2,3:2:0:0:
256,28,15510,2,0,L|164:36,1,70,2|2,1:2|0:0,0:0:0:0:
104,40,16184,1,2,3:2:0:0:
16,184,16858,1,2,1:2:0:0:
56,260,17195,1,0,0:0:0:0:
136,236,17532,6,0,P|172:236|216:256,1,70,2|2,3:2|0:0,0:0:0:0:
264,308,18209,2,0,P|300:308|344:288,1,70,2|2,1:2|0:0,0:0:0:0:
360,216,18887,1,2,3:2:0:0:
440,196,19226,2,0,P|463:130|463:60,1,140,2|2,0:0|0:0,0:0:0:0:
380,40,20243,6,0,B|340:48|312:32|312:32|292:56|244:56,2,140,2|2|2,3:2|1:2|3:2,0:0:0:0:
440,196,22297,1,2,1:2:0:0:
472,276,22640,1,2,0:0:0:0:
408,328,22982,6,0,L|328:316,1,70,2|0,3:2|0:0,0:0:0:0:
260,348,23657,2,0,L|180:336,1,70,2|2,1:2|0:0,0:0:0:0:
112,364,24333,2,0,P|44:344|12:268,1,140,2|2,3:2|1:2,0:0:0:0:
160,192,25684,5,2,3:2:0:0:
228,144,26032,2,0,L|220:28,2,105,0|0|8,3:0|3:0|0:0,0:0:0:0:
496,348,28418,6,0,P|444:312|364:312,1,140,4|10,3:2|0:0,0:0:0:0:
292,360,29439,1,2,0:0:0:0:
292,360,29609,1,2,0:0:0:0:
292,360,29780,2,0,L|200:352,1,70,0|2,3:0|0:0,0:0:0:0:
132,372,30461,2,0,L|124:280,1,70,10|2,0:0|0:0,0:0:0:0:
44,264,31142,6,0,L|60:116,1,140,2|10,3:2|0:0,0:0:0:0:
116,56,32163,1,2,0:0:0:0:
116,56,32334,1,2,0:0:0:0:
116,56,32504,2,0,B|150:47|184:56|184:56|219:64|253:56,1,140,2|10,3:2|0:0,0:0:0:0:
428,8,33866,6,0,P|440:40|440:88,1,70,2|2,3:2|0:0,0:0:0:0:
400,156,34547,2,0,P|388:188|388:236,1,70,10|2,0:0|0:0,0:0:0:0:
412,312,35228,1,2,3:2:0:0:
336,360,35568,1,2,0:0:0:0:
336,360,35739,1,2,0:0:0:0:
336,360,35909,1,8,0:0:0:0:
156,368,36590,6,0,P|152:320|196:232,1,140,2|10,3:2|0:0,0:0:0:0:
268,192,37612,1,2,0:0:0:0:
268,192,37782,1,2,0:0:0:0:
268,192,37952,2,0,P|240:166|206:151,1,70,2|10,3:2|0:0,0:0:0:0:
124,176,38633,1,2,3:2:0:0:
52,120,38974,1,2,3:2:0:0:
88,36,39314,6,0,B|128:8|176:20|176:20|248:36,1,140,6|10,3:2|0:0,0:0:0:0:
308,60,40336,1,2,0:0:0:0:
308,60,40506,1,2,0:0:0:0:
308,60,40676,2,0,B|344:68|344:68|400:52,1,70,0|2,3:0|0:0,0:0:0:0:
456,16,41357,2,0,P|468:61|455:108,1,70,10|2,0:0|0:0,0:0:0:0:
400,144,42038,6,0,P|412:192|376:288,1,140,2|10,3:2|0:0,0:0:0:0:
312,328,43060,1,2,0:0:0:0:
312,328,43230,1,2,0:0:0:0:
312,328,43400,2,0,B|264:312|264:312|228:336|172:328,1,140,2|8,3:2|0:0,0:0:0:0:
100,164,44763,6,0,P|136:152|180:152,1,70,2|2,3:2|0:0,0:0:0:0:
208,68,45438,2,0,P|240:79|275:81,1,70,10|2,0:0|0:0,0:0:0:0:
368,68,46114,1,2,3:2:0:0:
420,144,46452,1,2,0:0:0:0:
420,144,46621,1,2,0:0:0:0:
420,144,46790,1,8,0:0:0:0:
364,316,47465,6,0,P|300:356|212:332,1,140,2|10,3:2|0:0,0:0:0:0:
160,300,48479,1,2,0:0:0:0:
160,300,48648,1,2,0:0:0:0:
160,300,48817,2,0,L|168:216,1,70,2|8,3:2|0:0,0:0:0:0:
96,172,49492,1,2,3:2:0:0:
96,172,49661,1,2,3:2:0:0:
96,172,49830,1,0,3:0:0:0:
176,132,50168,6,0,P|244:172|324:144,1,140,6|2,3:2|3:2,0:0:0:0:
372,112,51214,2,0,P|436:120|404:187,1,137.5,14|8,3:2|0:0,0:0:0:0:
356,236,52238,1,0,3:0:0:0:
424,296,52576,1,0,3:0:0:0:
356,356,52909,6,0,B|322:356|289:339|289:339|255:356|222:356,1,140,10|10,0:0|0:0,0:0:0:0:
315,28,55629,5,2,3:2:0:0:
256,192,55799,12,0,61084,0:0:0:0:
