osu file format v14

[General]
AudioFilename: audio.mp3
AudioLeadIn: 0
PreviewTime: 25684
Countdown: 0
SampleSet: Soft
StackLeniency: 0.7
Mode: 0
LetterboxInBreaks: 0
WidescreenStoryboard: 1

[Editor]
DistanceSpacing: 1.3
BeatDivisor: 4
GridSize: 4
TimelineZoom: 2

[Metadata]
Title:Mieru Darou Byston Well (TV Size)
TitleUnicode:みえるだろうバイストン・ウェル (TV Size)
Artist:MIO
ArtistUnicode:MIO
Creator:bossandy
Version:Angel
Source:聖戦士ダンバイン
Tags:Aura Battler Dunbine Seisenshi Danbain Japanese Anime Mecha Sunrise J-pop Jpop pop 80s ending MIQ ミオ Silent Rock
BeatmapID:3332899
BeatmapSetID:1632800

[Difficulty]
HPDrainRate:5
CircleSize:4
OverallDifficulty:7
ApproachRate:8.1
SliderMultiplier:2
SliderTickRate:1

[Events]
//Background and Video events
0,0,"BG.jpg",0,0
//Break Periods
//Storyboard Layer 0 (Background)
//Storyboard Layer 1 (Fail)
//Storyboard Layer 2 (Pass)
//Storyboard Layer 3 (Foreground)
//Storyboard Layer 4 (Overlay)
//Storyboard Sound Samples

[TimingPoints]
1200,680.657969370391,4,2,1,70,1,0
1200,-125,4,2,1,70,0,0
6645,678.157671658661,4,2,1,70,1,0
6645,-125,4,2,1,70,0,0
12070,697.674418604651,4,2,1,70,1,0
12070,-111.111111111111,4,2,1,70,0,8
13465,681.818181818182,4,2,1,70,1,8
13465,-111.111111111111,4,2,1,70,0,8
15510,674.157303370787,4,2,1,70,1,8
15510,-111.111111111111,4,2,1,70,0,8
17532,677.966101694915,4,2,1,70,1,8
17532,-111.111111111111,4,2,1,70,0,0
20243,684.931506849315,4,2,1,70,1,8
20243,-111.111111111111,4,2,1,70,0,8
22982,675.675675675676,4,2,1,70,1,0
22982,-111.111111111111,4,2,1,70,0,0
25684,697.674418604652,4,2,1,70,1,8
25684,-125,4,2,1,70,0,8
26032,-125,4,2,2,70,0,0
26556,-125,4,2,3,70,0,0
27079,669.642857142857,4,2,1,70,1,8
28418,681.044267877412,4,2,1,90,1,1
38633,-100,4,2,3,90,0,1
38974,-100,4,2,2,90,0,1
39314,-100,4,2,1,90,0,1
44763,675.675675675676,4,2,1,90,1,9
49492,-100,4,2,3,90,0,1
49830,-100,4,2,2,90,0,1
50168,697.674418604651,4,2,1,90,1,1
51563,675.675675675676,4,2,1,90,1,9
52238,-100,4,2,3,90,0,1
52576,666.666666666667,4,2,2,90,1,9
52576,-100,4,2,2,90,0,1
52909,675.675675675676,4,2,1,90,1,9
53584,681.818181818182,4,2,1,90,1,9
55629,-100,4,2,1,55,0,0
56311,-100,4,2,1,50,0,0
56993,-100,4,2,1,45,0,0
57674,-100,4,2,1,40,0,0
58356,-100,4,2,1,35,0,0
59038,-100,4,2,1,20,0,0
59720,-100,4,2,1,15,0,0
60402,-100,4,2,1,10,0,0
61084,-100,4,2,1,5,0,0

[Colours]
Combo1 : 165,183,112
Combo2 : 151,153,132
Combo3 : 174,146,133
Combo4 : 199,62,33

[HitObjects]
0,140,1200,5,2,3:2:0:0:
51,231,1540,2,0,L|41:324,2,80,0|2|0,0:0|0:0|0:0,0:0:0:0:
131,167,2561,2,0,L|122:87,1,80,2|0,0:0|0:0,0:0:0:0:
231,179,3241,2,0,L|222:99,1,80,2|0,0:0|0:0,0:0:0:0:
331,191,3922,5,2,3:2:0:0:
275,271,4262,1,0,0:0:0:0:
411,243,4603,1,2,0:0:0:0:
355,323,4943,1,0,0:0:0:0:
331,191,5283,2,0,P|355:163|407:143,1,80,2|0,0:0|0:0,0:0:0:0:
355,323,5964,2,0,P|331:351|279:371,1,80,2|0,0:0|0:0,0:0:0:0:
231,179,6645,5,2,3:2:0:0:
176,268,6984,2,0,P|128:280|72:268,2,80,0|2|0,0:0|0:0|0:0,0:0:0:0:
231,179,8001,2,0,P|279:191|335:179,1,80,2|0,0:0|0:0,0:0:0:0:
256,68,8679,2,0,P|216:65|178:77,1,80,2|0,0:0|0:0,0:0:0:0:
308,188,9357,5,2,3:2:0:0:
376,108,9696,1,0,0:0:0:0:
488,220,10035,2,0,L|384:204,1,80,2|0,0:0|0:0,0:0:0:0:
240,268,10713,1,2,3:2:0:0:
308,188,11053,2,0,L|314:148,2,40,0|0|2,0:0|0:0|0:0,0:0:0:0:
340,287,11731,1,0,0:0:0:0:
216,364,12070,6,0,P|172:344|144:288,1,89.9999972534181,2|2,3:2|0:0,0:0:0:0:
149,310,12593,1,2,0:0:0:0:
149,310,12767,1,2,1:2:0:0:
240,268,13116,1,2,0:0:0:0:
167,118,13465,2,0,L|160:208,1,89.9999972534181,2|0,3:2|0:0,0:0:0:0:
248,56,14146,1,2,1:2:0:0:
167,118,14487,2,0,L|100:112,1,44.999998626709,0|0,0:0|0:0,0:0:0:0:
41,166,14828,6,0,P|26:124|32:80,1,89.9999972534181,2|2,3:2|0:0,0:0:0:0:
32,79,15340,1,2,0:0:0:0:
32,79,15510,1,2,1:2:0:0:
128,4,15847,1,2,0:0:0:0:
248,56,16184,2,0,L|340:44,1,89.9999972534181,2|0,3:2|0:0,0:0:0:0:
404,168,16858,2,0,L|312:156,1,89.9999972534181,2|0,1:2|0:0,0:0:0:0:
248,56,17532,5,2,3:2:0:0:
314,156,17870,2,0,L|304:208,2,44.999998626709,2|2|2,0:0|0:0|1:2,0:0:0:0:
412,84,18548,1,2,0:0:0:0:
314,156,18887,1,2,3:2:0:0:
248,56,19226,1,2,0:0:0:0:
150,128,19565,2,0,L|160:240,1,89.9999972534181,0|2,1:0|0:0,0:0:0:0:
297,335,20243,6,0,L|313:155,2,179.999994506836,2|2|2,3:2|1:2|3:2,0:0:0:0:
180,312,21955,1,0,0:0:0:0:
72,356,22297,1,2,1:2:0:0:
20,252,22640,2,0,L|32:184,1,44.999998626709,2|2,0:0|0:0,0:0:0:0:
40,127,22982,6,0,P|81:112|126:116,1,89.9999972534181,2|0,3:2|0:0,0:0:0:0:
240,236,23657,2,0,P|198:220|153:224,1,89.9999972534181,2|2,1:2|0:0,0:0:0:0:
320,296,24333,2,0,P|336:254|332:209,1,89.9999972534181,2|0,3:2|0:0,0:0:0:0:
280,56,25009,2,0,P|264:98|268:143,1,89.9999972534181,2|2,1:2|0:0,0:0:0:0:
372,112,25684,5,2,3:2:0:0:
280,56,26032,5,0,3:0:0:0:
112,196,26556,5,0,3:0:0:0:
248,364,27079,5,8,0:0:0:0:
368,352,27413,5,2,0:0:0:0:
464,196,27748,1,2,0:0:0:0:
368,32,28083,1,2,0:0:0:0:
312,144,28418,6,0,P|232:184|196:80,1,200,4|10,3:2|0:0,0:0:0:0:
368,32,29439,1,2,0:0:0:0:
368,32,29609,1,2,0:0:0:0:
368,32,29780,2,0,P|412:68|424:124,1,100,0|2,3:0|0:0,0:0:0:0:
312,144,30461,1,10,0:0:0:0:
480,216,30801,1,2,0:0:0:0:
312,312,31142,6,0,B|264:312|216:288|216:288|168:312|120:312,1,200,2|10,3:2|0:0,0:0:0:0:
140,176,32163,1,2,0:0:0:0:
140,176,32334,1,2,0:0:0:0:
140,176,32504,2,0,P|72:188|40:188,1,100,2|0,3:2|0:0,0:0:0:0:
152,40,33185,2,0,P|220:52|252:52,1,100,10|0,0:0|0:0,0:0:0:0:
436,0,33866,6,0,L|420:124,1,100,2|2,3:2|0:0,0:0:0:0:
263,151,34547,2,0,L|250:51,1,100,10|2,0:0|0:0,0:0:0:0:
423,99,35228,2,0,L|410:198,1,100,2|2,3:2|0:0,0:0:0:0:
399,275,35739,1,2,0:0:0:0:
399,275,35909,1,8,0:0:0:0:
263,151,36250,1,2,0:0:0:0:
140,292,36590,6,0,L|132:368,1,50,2|2,3:2|0:0,0:0:0:0:
24,256,36931,2,0,L|29:206,1,50,2|2,0:0|0:0,0:0:0:0:
152,136,37271,1,10,0:0:0:0:
48,8,37612,2,0,L|42:57,1,50,2|2,0:0|0:0,0:0:0:0:
152,136,37952,2,0,L|216:112,1,50,2|0,3:2|0:0,0:0:0:0:
312,172,38293,5,10,0:0:0:0:
404,28,38633,1,2,3:2:0:0:
460,44,38803,1,0,3:0:0:0:
472,148,38974,1,2,3:2:0:0:
416,132,39144,1,0,3:0:0:0:
312,172,39314,6,0,P|260:256|148:252,1,200,6|10,3:2|0:0,0:0:0:0:
184,64,40336,1,2,0:0:0:0:
184,64,40506,1,2,0:0:0:0:
184,64,40676,2,0,L|208:168,1,100,0|2,3:0|0:0,0:0:0:0:
88,44,41357,1,10,0:0:0:0:
276,80,41698,1,2,0:0:0:0:
112,148,42038,6,0,L|156:342,1,200,2|10,3:2|0:0,0:0:0:0:
328,312,43060,1,2,0:0:0:0:
328,312,43230,1,2,0:0:0:0:
328,312,43400,2,0,B|374:299|374:299|423:323,1,100,2|0,3:2|0:0,0:0:0:0:
308,172,44082,2,0,B|261:159|261:159|212:183,1,100,8|0,0:0|0:0,0:0:0:0:
408,88,44763,5,2,3:2:0:0:
432,244,45100,1,2,0:0:0:0:
214,182,45438,1,10,0:0:0:0:
238,338,45776,1,2,0:0:0:0:
328,216,46114,2,0,P|332:160|304:100,1,100,2|2,3:2|0:0,0:0:0:0:
248,80,46621,1,2,0:0:0:0:
248,80,46790,1,8,0:0:0:0:
116,256,47127,1,0,0:0:0:0:
52,64,47465,6,0,L|36:164,1,100,2|2,3:2|0:0,0:0:0:0:
230,281,48141,2,0,L|214:182,1,100,10|2,0:0|0:0,0:0:0:0:
200,104,48648,1,2,0:0:0:0:
200,104,48817,1,2,3:2:0:0:
116,256,49154,1,8,0:0:0:0:
324,336,49492,1,2,3:2:0:0:
380,320,49661,1,2,3:2:0:0:
328,252,49830,1,0,3:0:0:0:
388,140,50168,6,0,P|376:88|284:32,1,150,6|0,3:2|0:0,0:0:0:0:
224,84,50865,2,0,P|199:85|172:79,1,50,2|0,3:2|3:0,0:0:0:0:
248,168,51214,2,0,B|180:184|128:156|128:156|108:192|64:196,1,196.8,14|8,3:2|0:0,0:0:0:0:
40,96,52238,5,0,3:0:0:0:
96,288,52576,1,0,3:0:0:0:
248,168,52909,1,10,0:0:0:0:
472,320,53584,5,10,0:0:0:0:
40,64,55629,5,2,3:2:0:0:
256,192,55799,12,0,61084,0:0:0:0:
