osu file format v14

[General]
AudioFilename: audio.mp3
AudioLeadIn: 0
PreviewTime: 11519
Countdown: 0
SampleSet: None
StackLeniency: 1
Mode: 0
LetterboxInBreaks: 0
WidescreenStoryboard: 1

[Editor]
DistanceSpacing: 1.5
BeatDivisor: 4
GridSize: 4
TimelineZoom: 1

[Metadata]
Title:Shiki no Uta (TV Size)
TitleUnicode:四季ノ唄 (TV Size)
Artist:MINMI
ArtistUnicode:MINMI
Creator:deetz
Version:Hard
Source:サムライチャンプルー
Tags:nujabes samurai champloo
BeatmapID:1693515
BeatmapSetID:803234

[Difficulty]
HPDrainRate:5
CircleSize:4
OverallDifficulty:6
ApproachRate:7.5
SliderMultiplier:2
SliderTickRate:1

[Events]
//Background and Video events
0,0,"XsJ8bpk.jpg",0,0
//Break Periods
//Storyboard Layer 0 (Background)
//Storyboard Layer 1 (Fail)
//Storyboard Layer 2 (Pass)
//Storyboard Layer 3 (Foreground)
//Storyboard Sound Samples

[TimingPoints]
6898,648.648648648649,4,2,0,40,1,0
53600,-100,4,2,0,40,0,1
73384,-100,4,2,0,40,0,0
74357,-100,4,2,0,40,0,1
94789,-100,4,2,0,40,0,0
95114,-100,4,2,0,40,0,1
95762,-100,4,2,0,40,0,0

[Colours]
Combo1 : 255,94,55
Combo2 : 173,255,95
Combo3 : 17,254,176
Combo4 : 255,88,100

[HitObjects]
10,82,6897,6,0,P|62:86|122:110,1,100,4|8,0:1|0:1,0:0:0:0:
159,156,7384,2,0,P|157:193|152:215,2,50,4|0|8,0:3|0:1|0:1,0:0:0:0:
222,115,7870,1,8,0:1:0:0:
322,266,8195,6,0,P|325:216|337:167,1,100,4|8,0:3|0:1,0:0:0:0:
405,135,8681,1,2,0:2:0:0:
472,101,8843,1,2,0:2:0:0:
437,33,9006,2,0,P|405:50|382:64,1,50,10|8,0:2|0:1,0:0:0:0:
319,68,9330,1,2,0:2:0:0:
248,43,9492,6,0,P|186:29|139:39,1,100,4|8,0:3|0:1,0:0:0:0:
92,82,9979,1,4,0:3:0:0:
28,195,10303,2,0,P|37:254|38:257,1,50,8|0,0:1|0:1,0:0:0:0:
106,224,10627,2,0,P|110:248|112:273,1,50,4|4,0:3|0:3,0:0:0:0:
81,360,10952,2,2,P|138:345|188:325,1,100,2|2,0:1|0:1,0:1:0:0:
176,330,11600,1,2,0:2:0:0:
232,281,11762,1,2,0:2:0:0:
306,272,11924,1,2,0:2:0:0:
406,339,12087,6,0,P|415:279|413:211,1,100,4|8,0:1|0:1,0:0:0:0:
358,190,12573,1,4,0:3:0:0:
236,101,12898,1,8,0:1:0:0:
236,101,13060,1,8,0:1:0:0:
176,146,13222,6,0,P|150:170|127:183,1,50,0|4,0:1|0:3,0:0:0:0:
83,99,13546,2,0,P|77:74|69:50,1,50,0|8,0:1|0:1,0:0:0:0:
1,152,13870,2,0,P|26:209|50:273,1,100,4|8,0:3|0:1,0:0:0:0:
84,304,14357,2,0,P|110:291|142:280,1,50,8|0,0:1|0:1,0:0:0:0:
195,243,14681,5,4,0:3:0:0:
289,360,15006,1,8,0:1:0:0:
289,360,15168,1,4,0:3:0:0:
370,234,15492,1,8,0:1:0:0:
370,234,15654,1,0,0:1:0:0:
415,301,15816,1,4,0:3:0:0:
415,301,15978,1,4,0:3:0:0:
481,265,16141,2,2,P|491:214|497:121,1,100,2|2,0:1|0:1,0:1:0:0:
496,166,16789,1,2,0:2:0:0:
434,122,16952,1,2,0:2:0:0:
362,98,17114,1,2,0:2:0:0:
303,179,17276,6,0,P|249:205|174:210,1,100,4|8,0:2|0:1,0:0:0:0:
151,165,17762,1,4,0:3:0:0:
229,36,18087,1,8,0:1:0:0:
229,36,18249,1,8,0:1:0:0:
148,14,18411,2,0,P|147:38|150:63,1,50,4|4,0:3|0:3,0:0:0:0:
81,128,18735,2,0,P|55:133|16:142,1,50,0|8,0:1|0:1,0:0:0:0:
8,236,19060,1,4,0:3:0:0:
8,236,19384,2,0,P|13:261|22:301,1,50,8|8,0:1|0:1,0:0:0:0:
93,288,19708,1,0,0:1:0:0:
171,368,19870,6,0,P|230:354|271:339,1,100,4|8,0:3|0:1,0:0:0:0:
314,282,20357,2,0,P|373:296|414:311,1,100,4|8,0:3|0:1,0:0:0:0:
484,319,20843,2,0,P|501:289|510:265,1,50,0|4,0:1|0:3,0:0:0:0:
470,208,21168,1,4,0:3:0:0:
509,97,21330,2,2,P|453:98|400:118,1,100,2|2,0:1|0:1,0:1:0:0:
411,111,21979,1,2,0:2:0:0:
349,153,22141,1,2,0:2:0:0:
274,145,22303,1,2,0:2:0:0:
244,50,22465,6,0,P|181:54|125:76,1,100,4|8,0:2|0:1,0:0:0:0:
107,130,22952,1,4,0:3:0:0:
37,268,23276,2,0,P|44:301|57:335,1,50,8|8,0:1|0:1,0:0:0:0:
107,363,23600,2,0,P|158:357|209:347,1,100,0|0,0:1|0:1,0:0:0:0:
246,284,24087,1,8,0:1:0:0:
214,187,24249,2,0,P|265:193|316:203,1,100,4|8,0:3|0:1,0:0:0:0:
353,266,24736,1,8,0:1:0:0:
462,256,24898,6,0,P|459:295|453:319,1,50,0|4,0:1|0:3,0:0:0:0:
403,358,25222,2,0,P|364:355|340:349,1,50,0|8,0:1|0:1,0:0:0:0:
285,320,25546,2,0,P|215:332|179:343,2,100,4|8|4,0:3|0:1|0:3,0:0:0:0:
219,252,26357,1,4,0:3:0:0:
160,183,26519,2,2,P|230:171|266:160,1,100,2|2,0:1|0:1,0:1:0:0:
257,162,27168,1,2,0:2:0:0:
288,94,27330,1,2,0:2:0:0:
246,31,27492,1,2,0:2:0:0:
138,15,27654,6,0,P|84:47|49:83,1,100,4|8,0:2|0:1,0:0:0:0:
53,148,28141,2,0,P|56:200|66:258,1,100,4|8,0:3|0:1,0:0:0:0:
117,299,28627,2,0,L|170:309,1,50,8|0,0:1|0:0,0:0:0:0:
258,241,28952,1,4,0:3:0:0:
295,306,29114,2,0,P|380:294|434:282,1,100,8|4,0:1|0:3,0:0:0:0:
458,254,29600,1,8,0:1:0:0:
462,179,29762,1,4,0:3:0:0:
467,103,29925,1,4,0:3:0:0:
337,27,30249,6,0,L|265:45,1,50,8|4,0:1|0:3,0:0:0:0:
218,13,30573,1,0,0:1:0:0:
218,13,30735,1,8,0:1:0:0:
156,150,31060,1,8,0:1:0:0:
87,120,31222,2,0,P|30:157|17:199,1,100,4|4,0:3|0:3,0:0:0:0:
18,184,31708,6,0,L|35:245,1,50,2|2,0:2|0:2,0:0:0:0:
106,237,32033,2,0,L|122:297,1,50,2|2,0:2|0:2,0:0:0:0:
193,289,32357,2,0,L|209:349,2,50,2|2|4,0:2|0:2|0:3,0:0:0:0:
262,195,32843,5,4,0:2:0:0:
262,195,33168,2,0,P|320:186|405:178,1,100,8|0,0:1|0:1,0:0:0:0:
425,219,33654,1,8,0:1:0:0:
403,290,33816,2,0,P|345:299|260:307,1,100,8|4,0:1|0:3,0:0:0:0:
82,304,34465,2,0,L|28:349,2,50,8|4|0,0:1|0:3|0:1,0:0:0:0:
142,258,34952,1,8,0:1:0:0:
101,194,35114,2,0,P|90:140|91:80,1,100,8|4,0:1|0:3,0:0:0:0:
230,45,35762,6,0,P|241:99|240:159,1,100,8|0,0:1|0:1,0:0:0:0:
241,143,36249,2,0,P|295:132|355:133,1,100,8|4,0:1|0:3,0:0:0:0:
390,76,36735,1,4,0:3:0:0:
461,158,36898,2,2,P|472:212|471:272,1,100,2|2,0:1|0:1,0:1:0:0:
426,315,37384,2,0,L|369:331,1,50,4|8,0:3|0:1,0:0:0:0:
327,273,37708,2,0,L|270:257,1,50,0|2,0:1|0:3,0:0:0:0:
183,353,38033,5,4,0:0:0:0:
183,353,38357,2,0,P|120:351|46:354,1,100,8|0,0:1|0:1,0:0:0:0:
64,279,38843,1,8,0:1:0:0:
115,223,39006,2,0,P|178:225|252:222,1,100,8|4,0:1|0:3,0:0:0:0:
255,79,39654,2,0,L|269:13,1,50,8|4,0:1|0:3,0:0:0:0:
176,84,39979,2,0,L|155:19,1,50,0|8,0:1|0:1,0:0:0:0:
110,127,40303,2,0,L|59:81,1,50,8|2,0:1|0:3,0:0:0:0:
86,204,40627,6,0,P|84:276|88:321,1,100,0|8,0:0|0:1,0:0:0:0:
231,350,41276,1,4,0:3:0:0:
231,350,41438,2,0,P|280:347|330:350,1,100,8|4,0:1|0:3,0:0:0:0:
363,281,41925,1,4,0:3:0:0:
314,189,42087,2,2,P|363:186|413:189,2,100,2|2|10,0:1|0:1|0:1,0:1:0:0:
261,135,42898,2,0,P|228:133|198:129,1,50,0|2,0:1|0:3,0:0:0:0:
192,58,43222,6,0,P|130:82|115:148,1,100,4|8,0:2|0:1,0:0:0:0:
49,145,43708,2,0,P|73:207|139:222,1,100,4|8,0:3|0:1,0:0:0:0:
175,216,44195,1,8,0:1:0:0:
132,302,44357,6,0,P|199:299|245:291,1,100,0|0,0:1|0:1,0:0:0:0:
272,231,44843,1,8,0:1:0:0:
293,353,45006,6,0,P|360:350|406:342,1,100,4|8,0:3|0:1,0:0:0:0:
430,252,45492,1,8,0:1:0:0:
473,162,45654,6,0,P|478:126|494:69,1,50,0|4,0:1|0:3,0:0:0:0:
386,120,45979,2,0,P|391:84|407:27,1,50,0|8,0:1|0:1,0:0:0:0:
313,175,46303,2,0,P|254:183|202:194,2,100,4|8|4,0:3|0:1|0:3,0:0:0:0:
278,261,47114,1,4,0:3:0:0:
343,334,47276,2,2,P|293:343|244:350,1,100,2|2,0:1|0:1,0:1:0:0:
244,350,47925,2,0,L|187:330,1,50,8|4,0:1|0:3,0:0:0:0:
124,314,48249,1,2,0:3:0:0:
38,379,48411,6,0,P|27:322|32:261,1,100,4|8,0:2|0:1,0:0:0:0:
125,230,48898,2,0,P|136:173|131:112,1,100,4|8,0:3|0:1,0:0:0:0:
68,95,49384,1,8,0:1:0:0:
162,10,49546,6,0,P|164:62|160:87,1,50,0|4,0:1|0:3,0:0:0:0:
238,16,49870,2,0,P|240:68|236:93,1,50,0|8,0:1|0:1,0:0:0:0:
283,141,50195,2,0,P|283:165|280:190,1,50,4|0,0:3|0:1,0:0:0:0:
359,135,50519,2,0,P|359:159|356:184,1,50,8|8,0:1|0:1,0:0:0:0:
433,225,50843,6,0,P|455:258|462:303,1,50,0|4,0:1|0:3,0:0:0:0:
326,269,51168,2,0,P|328:308|312:351,1,50,0|8,0:1|0:1,0:0:0:0:
211,253,51492,2,0,P|193:288|129:340,1,100,4|8,0:3|0:1,0:0:0:0:
75,341,51979,2,0,L|-3:335,1,50,0|4,0:0|0:3,0:0:0:0:
39,263,52303,1,4,0:3:0:0:
26,189,52465,1,2,0:1:0:0:
127,78,52789,1,2,0:1:0:0:
271,120,53114,2,0,L|332:114,1,50,2|2,0:2|0:2,0:0:0:0:
395,108,53438,1,2,0:2:0:0:
473,188,53600,6,0,P|485:258|478:316,1,100,4|8,0:1|0:1,0:0:0:0:
403,256,54087,2,0,P|402:305|413:354,1,100,4|8,0:3|0:1,0:0:0:0:
329,339,54573,1,8,0:1:0:0:
246,318,54735,2,0,P|202:322|155:328,1,50,4|4,0:3|0:3,0:0:0:0:
117,356,55060,2,0,P|73:360|26:366,1,50,4|8,0:3|0:1,0:0:0:0:
21,271,55384,2,0,P|87:268|137:271,1,100,0|8,0:1|0:1,0:0:0:0:
198,235,55870,2,0,P|201:199|200:153,1,50,8|4,0:1|0:3,0:0:0:0:
129,138,56195,5,4,0:3:0:0:
248,17,56519,1,8,0:1:0:0:
332,28,56681,1,4,0:3:0:0:
282,190,57006,1,8,0:1:0:0:
366,201,57168,1,0,0:1:0:0:
454,216,57330,1,4,0:3:0:0:
454,216,57492,1,4,0:3:0:0:
499,312,57654,2,2,P|434:328|390:333,1,100,2|2,0:1|0:1,0:1:0:0:
401,332,58303,2,0,P|375:317|337:307,1,50,2|2,0:2|0:2,0:0:0:0:
274,334,58627,1,2,0:2:0:0:
225,228,58789,6,0,P|155:216|97:223,1,100,4|8,0:1|0:1,0:0:0:0:
157,298,59276,2,0,P|107:298|58:287,1,100,4|8,0:3|0:1,0:0:0:0:
21,194,59762,2,0,L|6:142,1,50,8|4,0:1|0:3,0:0:0:0:
40,67,60087,2,0,P|64:56|92:52,2,50,4|4|8,0:3|0:3|0:1,0:0:0:0:
116,134,60573,2,0,P|173:119|213:97,1,100,0|8,0:1|0:1,0:0:0:0:
295,34,61060,2,0,P|252:22|223:24,1,50,8|4,0:1|0:3,0:0:0:0:
275,143,61384,5,4,0:3:0:0:
412,242,61708,1,8,0:1:0:0:
367,314,61870,1,4,0:3:0:0:
153,355,62195,1,8,0:1:0:0:
129,274,62357,1,0,0:0:0:0:
108,196,62519,1,4,0:3:0:0:
108,196,62681,1,4,0:3:0:0:
32,122,62843,2,2,P|85:107|166:95,1,100,2|2,0:1|0:1,0:1:0:0:
129,98,63492,2,0,L|197:132,1,50,2|2,0:0|0:0,0:0:0:0:
244,73,63816,1,2,0:0:0:0:
281,169,63979,6,0,P|329:177|378:166,1,100,4|8,0:1|0:1,0:0:0:0:
431,61,64465,1,0,0:1:0:0:
431,61,64789,2,0,P|469:80|481:94,1,50,8|8,0:1|0:1,0:0:0:0:
511,187,65114,6,0,P|511:251|504:295,1,100,0|0,0:1|0:1,0:0:0:0:
423,306,65600,1,8,0:1:0:0:
329,350,65762,2,0,P|329:286|336:242,1,100,4|8,0:3|0:1,0:0:0:0:
280,184,66248,1,0,0:0:0:0:
220,123,66411,2,0,P|160:126|147:132,1,50,0|4,0:1|0:3,0:0:0:0:
107,180,66735,2,0,P|47:183|34:189,1,50,0|8,0:1|0:1,0:0:0:0:
22,79,67060,2,0,P|36:36|104:11,1,100,4|8,0:3|0:1,0:0:0:0:
245,54,67708,1,4,0:3:0:0:
245,54,67870,1,4,0:3:0:0:
325,83,68033,6,2,P|395:77|436:73,1,100,2|2,0:1|0:1,0:1:0:0:
424,74,68681,2,0,P|432:125|433:136,1,50,2|2,0:0|0:0,0:0:0:0:
497,177,69006,1,2,0:0:0:0:
397,231,69168,6,0,P|390:284|371:361,1,100,4|8,0:1|0:1,0:0:0:0:
306,287,69654,1,4,0:3:0:0:
242,371,69816,2,0,P|189:364|112:345,1,100,0|8,0:1|0:1,0:0:0:0:
133,269,70303,2,0,L|120:203,1,50,0|4,0:1|0:3,0:0:0:0:
54,307,70627,2,0,P|40:259|34:188,1,100,8|4,0:1|0:3,0:0:0:0:
132,132,71114,2,0,P|125:82|112:34,1,100,8|0,0:1|0:1,0:0:0:0:
278,69,71762,5,4,0:0:0:0:
420,161,72087,1,8,0:1:0:0:
420,161,72249,1,4,0:3:0:0:
368,322,72573,1,8,0:1:0:0:
368,322,72735,1,0,0:3:0:0:
283,336,72898,1,4,0:3:0:0:
283,336,73060,1,4,0:3:0:0:
200,354,73222,2,2,P|135:335|90:325,1,100,2|2,0:1|0:1,0:1:0:0:
35,276,73708,2,0,L|14:226,1,50,2|2,0:3|0:3,0:0:0:0:
97,114,74033,1,8,0:3:0:0:
97,114,74357,6,0,B|155:91|141:117|194:99,2,100,4|8|2,0:1|0:1|0:3,0:0:0:0:
122,195,75168,1,8,0:1:0:0:
122,195,75330,1,8,0:1:0:0:
241,315,75654,2,0,P|300:323|351:326,1,100,4|8,0:3|0:1,0:0:0:0:
461,195,76303,2,0,P|402:187|351:184,1,100,0|8,0:1|0:1,0:0:0:0:
317,124,76789,1,0,0:1:0:0:
376,42,76952,6,0,P|317:34|266:31,1,100,4|8,0:3|0:1,0:0:0:0:
236,94,77438,1,4,0:3:0:0:
226,169,77600,2,0,L|170:165,1,50,0|8,0:1|0:1,0:0:0:0:
131,104,77925,2,0,L|75:100,1,50,0|4,0:1|0:3,0:0:0:0:
16,138,78249,1,4,0:3:0:0:
17,241,78411,2,2,P|76:250|130:239,1,100,2|2,0:1|0:1,0:1:0:0:
230,340,79060,2,0,L|299:350,1,50,2|2,0:2|0:2,0:0:0:0:
319,202,79546,6,0,P|351:141|398:121,2,100,4|8|2,0:2|0:1|0:3,0:0:0:0:
373,253,80357,1,8,0:1:0:0:
441,223,80519,1,8,0:1:0:0:
508,89,80843,6,0,P|476:28|429:8,1,100,4|8,0:3|0:1,0:0:0:0:
376,3,81330,2,0,P|315:35|295:82,1,100,4|0,0:3|0:1,0:0:0:0:
241,106,81816,1,8,0:1:0:0:
109,42,82141,6,0,P|78:44|50:51,1,50,4|0,0:3|0:1,0:0:0:0:
29,126,82465,2,0,P|60:124|88:117,1,50,8|4,0:1|0:3,0:0:0:0:
157,185,82789,2,0,P|126:187|98:194,1,50,0|8,0:1|0:1,0:0:0:0:
77,269,83113,2,0,P|108:267|136:260,1,50,0|4,0:1|0:3,0:0:0:0:
185,310,83438,1,4,0:3:0:0:
235,202,83600,2,2,P|289:210|335:237,1,100,2|2,0:1|0:1,0:1:0:0:
478,231,84249,2,0,P|479:261|473:311,1,50,2|2,0:2|0:2,0:0:0:0:
350,358,84735,6,0,B|292:335|306:361|253:343,1,100,4|8,0:2|0:1,0:0:0:0:
223,195,85384,2,0,L|199:244,1,50,2|8,0:3|0:1,0:0:0:0:
162,304,85708,2,0,B|104:327|118:301|65:319,2,100,8|4|8,0:1|0:3|0:1,0:0:0:0:
82,176,86681,2,0,P|84:107|121:77,1,100,0|8,0:1|0:1,0:0:0:0:
178,82,87168,1,0,0:1:0:0:
286,54,87330,6,0,P|284:123|247:153,1,100,4|8,0:3|0:1,0:0:0:0:
217,200,87816,2,0,P|209:238|214:272,1,50,4|0,0:3|0:1,0:0:0:0:
251,311,88141,2,0,L|319:334,1,50,8|0,0:1|0:1,0:0:0:0:
359,283,88465,1,4,0:3:0:0:
359,283,88627,1,4,0:3:0:0:
454,361,88789,2,2,P|474:303|476:258,1,100,2|2,0:1|0:1,0:1:0:0:
349,184,89438,2,0,L|327:116,1,50,2|2,0:2|0:2,0:0:0:0:
462,16,89925,6,0,P|420:7|409:7,1,50,4|0,0:2|0:0,0:0:0:0:
336,60,90249,2,0,P|294:69|283:69,1,50,8|0,0:1|0:0,0:0:0:0:
208,20,90573,2,0,P|166:11|155:11,1,50,2|8,0:3|0:1,0:0:0:0:
82,64,90897,2,0,P|40:73|29:73,1,50,8|0,0:1|0:1,0:0:0:0:
17,146,91222,6,0,P|55:192|102:197,1,100,4|8,0:3|0:1,0:0:0:0:
148,148,91708,2,0,P|195:160|223:200,1,100,4|0,0:3|0:1,0:0:0:0:
176,334,92195,1,8,0:1:0:0:
176,334,92519,6,0,P|224:344|253:342,1,50,4|0,0:3|0:1,0:0:0:0:
302,261,92843,2,0,P|277:263|253:271,1,50,8|4,0:1|0:3,0:0:0:0:
340,353,93168,2,0,P|388:363|417:361,1,50,0|8,0:1|0:1,0:0:0:0:
468,246,93492,2,0,P|420:236|391:238,1,50,0|4,0:1|0:3,0:0:0:0:
306,178,93816,1,4,0:3:0:0:
306,178,93979,2,2,P|295:116|291:48,1,100,2|2,0:1|0:1,0:1:0:0:
158,248,94627,2,0,P|152:277|143:310,1,50,2|2,0:2|0:2,0:0:0:0:
61,306,94951,2,0,P|66:276|76:244,1,50,2|4,0:2|0:2,0:0:0:0:
256,192,95276,12,0,97708,0:1:0:0:
