osu file format v14

[General]
AudioFilename: audio.mp3
AudioLeadIn: 0
PreviewTime: 30861
Countdown: 0
SampleSet: Soft
StackLeniency: 0.8
Mode: 0
LetterboxInBreaks: 0
WidescreenStoryboard: 0

[Editor]
DistanceSpacing: 1.4
BeatDivisor: 8
GridSize: 32
TimelineZoom: 1.3

[Metadata]
Title:Shiki no Uta
TitleUnicode:四季ノ唄
Artist:MINMI
ArtistUnicode:MINMI
Creator:Zelq
Version:Flow
Source:サムライチャンプルー
Tags:nujabes samurai champloo anime japanese ending hip-hop pop reggae imagine ending
BeatmapID:3452798
BeatmapSetID:1689583

[Difficulty]
HPDrainRate:4
CircleSize:4.2
OverallDifficulty:8
ApproachRate:8.8
SliderMultiplier:2.6
SliderTickRate:1

[Events]
//Background and Video events
0,0,"gud.jpg",0,0
//Break Periods
2,135617,143725
//Storyboard Layer 0 (Background)
//Storyboard Layer 1 (Fail)
//Storyboard Layer 2 (Pass)
//Storyboard Layer 3 (Foreground)
//Storyboard Layer 4 (Overlay)
//Storyboard Sound Samples

[TimingPoints]
8159,648.648648648649,4,2,1,50,1,0
8159,-166.666666666667,4,2,1,50,0,0
10753,-125,4,2,1,65,0,0
31510,-83.3333333333333,4,2,1,80,0,1
31591,-83.3333333333333,4,2,1,80,0,0
41888,-83.3333333333333,4,2,1,80,0,1
41969,-83.3333333333333,4,2,1,80,0,0
52266,-90.9090909090909,4,2,1,70,0,0
83401,-83.3333333333333,4,2,1,80,0,0
104159,-83.3333333333333,4,2,1,80,0,1
104240,-83.3333333333333,4,2,1,80,0,0
114537,-83.3333333333333,4,2,1,80,0,1
114618,-83.3333333333333,4,2,1,80,0,0
122320,-100,4,2,1,65,0,0
124915,657.534246575342,4,2,1,55,1,0
124915,-125,4,2,1,55,0,0
130175,625,4,2,1,55,1,0
130175,-125,4,2,1,55,0,0
131425,648.648648648649,4,2,1,50,1,0
131425,-111.111111111111,4,2,1,50,0,0
134343,631.578947368422,4,2,1,50,1,0
134343,-111.111111111111,4,2,1,50,0,0
135290,648.648648648649,4,2,1,50,1,0
135290,-100,4,2,1,50,0,0
144533,-100,4,2,1,60,0,0
145668,-90.9090909090909,4,2,1,70,0,0
166425,-83.3333333333333,4,2,1,80,0,1
166506,-83.3333333333333,4,2,1,80,0,0
176803,-83.3333333333333,4,2,1,80,0,1
176884,-83.3333333333333,4,2,1,80,0,0
187181,-83.3333333333333,4,2,1,80,0,1
187262,-83.3333333333333,4,2,1,80,0,0
197560,-83.3333333333333,4,2,1,80,0,1
197641,-83.3333333333333,4,2,1,80,0,0
228695,-90.9090909090909,4,2,1,75,0,0
270208,-166.666666666667,4,2,1,50,0,0
291614,652.173913043478,4,2,1,30,1,0
291614,-166.666666666667,4,2,1,30,0,0
294222,625,4,2,1,30,1,0
294222,-166.666666666667,4,2,1,30,0,0
295472,750,4,2,1,30,1,0
295472,-100,4,2,1,30,0,0

[Colours]
Combo1 : 250,180,240
Combo2 : 120,200,230
Combo3 : 255,230,130
Combo4 : 160,230,150

[HitObjects]
399,63,9780,6,0,P|435:49|473:40,2,77.999997619629,2|0|0,0:0|0:0|0:0,0:0:0:0:
306,18,10753,2,0,L|331:171,1,156,2|0,0:0|0:0,0:0:0:0:
331,171,11402,1,2,0:0:0:0:
466,335,11726,6,0,P|471:310|478:285,1,52
397,383,12050,2,0,P|349:364|303:340,1,104,2|0,0:0|0:0,0:0:0:0:
303,340,12537,1,2,0:0:0:0:
432,139,12699,6,0,P|413:214|351:258,1,156,2|0,0:0|0:0,0:0:0:0:
186,369,13348,2,0,P|215:328|219:276,1,104,2|0,0:0|0:0,0:0:0:0:
168,226,13834,1,0,0:0:0:0:
168,226,13996,1,2,0:0:0:0:
27,153,14321,6,0,L|78:165,1,52,2|0,0:0|0:0,0:0:0:0:
78,165,14645,2,0,P|72:216|56:265,2,104,2|0|2,0:0|0:0|0:0,0:0:0:0:
31,81,15456,1,2,0:0:0:0:
89,6,15618,1,0,0:0:0:0:
267,158,15942,6,0,P|216:149|167:135,1,104,2|0,0:0|0:0,0:0:0:0:
194,64,16591,2,0,P|220:53|254:37,1,52,2|0,0:0|0:0,0:0:0:0:
325,0,16915,2,0,L|442:22,2,104,0|2|0,0:0|0:0|0:0,0:0:0:0:
317,89,17726,5,2,0:0:0:0:
377,130,17888,1,2,0:0:0:0:
452,122,18050,2,0,L|444:179,2,52
479,276,18537,6,0,P|430:259|380:246,1,104,2|0,0:0|0:0,0:0:0:0:
380,246,19186,1,0,0:0:0:0:
242,365,19510,2,0,P|291:349|341:336,2,104,2|2|0,0:0|0:0|0:0,0:0:0:0:
56,368,20483,5,2,0:0:0:0:
105,313,20645,1,2,0:0:0:0:
69,246,20807,1,0,0:0:0:0:
59,7,21131,6,0,B|37:59|61:89|33:159,1,156,2|0,3:2|0:0,0:0:0:0:
33,159,21780,1,2,0:0:0:0:
165,41,22104,6,0,P|215:30|265:14,1,104,0|2,0:0|0:0,0:0:0:0:
233,108,22591,1,0,0:0:0:0:
203,201,22753,2,0,P|169:161|129:128,1,104
301,176,23240,2,0,P|313:125|333:77,1,104,2|0,0:0|0:0,0:0:0:0:
178,286,23726,6,0,B|97:316|117:331|40:359,1,156,2|0,3:2|0:0,0:0:0:0:
40,359,24375,1,2,0:2:0:0:
352,371,24699,6,0,P|303:352|252:339,2,104,0|2|0,0:0|0:0|0:0,0:0:0:0:
446,241,25672,1,2,0:0:0:0:
396,297,25834,1,2,0:0:0:0:
444,360,25996,1,0,0:0:0:0:
444,360,26321,2,0,B|442:273|415:243|410:155,1,208,2|2,3:2|0:0,0:0:0:0:
214,9,27294,6,0,P|239:15|264:21,1,52
328,90,27618,2,0,P|308:138|303:190,1,104,2|0,0:0|0:0,0:0:0:0:
488,14,28104,5,2,0:0:0:0:
421,48,28267,1,2,0:0:0:0:
499,31,28429,2,0,P|493:58|490:87,2,52
352,20,28915,6,0,B|267:56|310:88|222:128,1,156,2|0,3:2|0:0,0:0:0:0:
237,121,29564,1,2,0:2:0:0:
410,376,29888,6,0,P|400:353|425:268,1,104,2|0,0:0|0:0,0:0:0:0:
461,218,30375,1,2,0:0:0:0:
461,218,30537,1,2,0:0:0:0:
512,270,30861,1,2,0:0:0:0:
396,327,31023,5,2,0:0:0:0:
273,309,31186,1,0,0:0:0:0:
145,288,31348,1,2,0:0:0:0:
86,233,31510,6,0,P|107:306|66:369,1,155.999995239258,4|8,3:2|0:2,0:0:0:0:
25,151,31996,5,0,3:0:0:0:
179,193,32159,2,0,P|253:172|313:123,1,155.999995239258,2|8,0:2|0:2,0:0:0:0:
118,22,32645,6,0,P|111:61|100:99,1,77.999997619629,2|0,0:2|3:0,0:0:0:0:
268,200,32969,2,0,P|260:239|250:276,1,77.999997619629,2|8,0:2|0:2,0:0:0:0:
210,70,33294,6,0,B|293:42|277:32|353:8,1,155.999995239258,2|0,3:2|0:0,0:0:0:0:
476,233,33780,1,8,0:2:0:0:
395,185,33942,5,0,0:0:0:0:
489,46,34104,2,0,B|412:69|428:79|345:107,1,155.999995239258,4|8,3:0|0:2,0:0:0:0:
467,321,34591,5,2,3:2:0:0:
467,321,34915,1,8,0:2:0:0:
268,201,35077,6,0,B|194:222|194:222|170:263|203:293,1,155.999995239258,2|0,0:0|3:0,0:0:0:0:
293,358,35564,2,0,B|314:322|314:322|302:287,1,77.999997619629,2|0,0:2|0:0,0:0:0:0:
130,175,35888,5,8,0:2:0:0:
302,287,36050,1,2,0:2:0:0:
182,377,36213,2,0,P|108:349|33:332,1,155.999995239258,10|0,0:2|0:0,0:0:0:0:
130,175,36699,6,0,L|140:97,1,77.999997619629,4|0,3:2|0:0,0:0:0:0:
193,44,37023,1,8,0:2:0:0:
0,178,37186,5,0,3:0:0:0:
33,242,37348,2,0,P|108:260|182:286,1,155.999995239258,2|8,0:2|0:2,0:0:0:0:
85,19,37834,5,2,0:2:0:0:
31,104,37996,1,2,3:2:0:0:
5,25,38159,5,0,0:0:0:0:
116,99,38321,1,8,0:2:0:0:
257,0,38483,5,2,3:2:0:0:
257,0,38645,1,2,0:2:0:0:
257,0,38807,1,2,3:2:0:0:
386,148,38969,1,8,0:2:0:0:
284,224,39131,1,0,0:0:0:0:
213,164,39294,2,0,P|206:125|195:87,1,77.999997619629,4|0,3:0|0:0,0:0:0:0:
404,276,39618,5,8,0:2:0:0:
340,355,39780,2,0,P|269:324|194:305,1,155.999995239258,0|8,3:0|0:2,0:0:0:0:
448,360,40267,6,0,P|451:283|470:207,1,155.999995239258,2|0,0:2|3:0,0:0:0:0:
470,206,40753,1,0,0:0:0:0:
312,86,40915,6,0,P|348:69|380:47,1,77.999997619629,2|8,0:2|0:2,0:0:0:0:
485,117,41240,1,2,0:2:0:0:
404,164,41402,1,2,0:2:0:0:
453,6,41564,2,0,P|490:16|529:21,1,77.999997619629,2|0,0:2|3:0,0:0:0:0:
404,164,41888,2,0,B|322:197|345:206|267:237,1,155.999995239258,4|8,3:2|0:2,0:0:0:0:
152,366,42375,6,0,B|70:333|93:324|15:292,2,155.999995239258,2|2|0,3:2|3:2|0:0,0:0:0:0:
291,309,43186,1,0,3:0:0:0:
193,186,43348,2,0,P|186:225|176:263,1,77.999997619629,2|8,0:2|0:2,0:0:0:0:
403,163,43672,2,0,P|396:202|386:240,1,77.999997619629,2|0,3:2|0:0,0:0:0:0:
146,122,43996,5,2,3:2:0:0:
177,50,44159,2,0,P|214:63|252:72,1,77.999997619629,8|0,0:2|0:0,0:0:0:0:
71,136,44483,2,0,P|20:80|42:9,1,155.999995239258,4|8,3:0|0:2,0:0:0:0:
294,224,44969,2,0,P|345:168|323:97,1,155.999995239258,2|8,3:2|0:2,0:0:0:0:
9,287,45456,5,2,0:2:0:0:
82,226,45618,2,0,B|156:268|127:279|204:320,1,155.999995239258,2|2,3:2|0:2,0:0:0:0:
204,320,46267,1,8,0:2:0:0:
120,367,46429,1,0,0:0:0:0:
219,222,46591,5,8,0:2:0:0:
288,244,46753,1,2,0:2:0:0:
347,287,46915,1,2,0:2:0:0:
439,285,47077,6,0,P|366:315|302:358,1,155.999995239258,4|8,3:2|0:2,0:0:0:0:
302,357,47564,1,0,3:0:0:0:
503,211,47726,6,0,P|466:201|433:181,1,77.999997619629,2|0,0:2|3:0,0:0:0:0:
190,45,48050,2,0,P|204:122|215:199,1,155.999995239258,8|0,0:2|3:0,0:0:0:0:
214,198,48537,1,2,0:2:0:0:
441,55,48699,6,0,P|404:68|366:79,1,77.999997619629,8|0,0:2|3:0,0:0:0:0:
126,158,49023,6,0,P|88:147|51:134,1,77.999997619629,2|0,0:2|3:0,0:0:0:0:
376,226,49348,6,0,P|339:238|302:248,1,77.999997619629,0|2,3:0|0:2,0:0:0:0:
53,364,49672,6,0,P|36:288|14:213,1,155.999995239258,10|2,3:2|0:2,0:0:0:0:
97,61,50159,5,8,0:2:0:0:
222,0,50321,1,0,0:0:0:0:
311,107,50483,1,8,0:0:0:0:
228,164,50645,2,0,P|206:238|189:314,1,155.999995239258,2|0,3:2|3:0,0:0:0:0:
188,314,51131,1,10,0:2:0:0:
124,226,51294,5,2,0:2:0:0:
317,354,51456,1,10,0:2:0:0:
242,384,51618,5,2,0:2:0:0:
311,227,51780,1,2,3:2:0:0:
137,123,51942,1,2,3:2:0:0:
224,80,52104,5,2,3:2:0:0:
124,226,52267,2,0,P|92:208|59:195,1,71.5000021820069,4|0,3:2|0:0,0:0:0:0:
228,164,52591,5,8,0:2:0:0:
326,125,52753,1,0,3:0:0:0:
424,89,52915,2,0,B|453:135|453:135|432:174|423:218,1,143.000004364014,2|8,0:2|0:2,0:0:0:0:
443,384,53402,6,0,P|436:316|373:291,1,143.000004364014,2|0,0:2|0:0,0:0:0:0:
373,291,53888,1,8,0:2:0:0:
491,258,54050,5,0,0:0:0:0:
349,373,54213,1,2,0:2:0:0:
282,306,54375,2,0,P|293:271|300:232,2,71.5000021820069,2|8|0,3:2|0:2|0:0,0:0:0:0:
72,367,54861,6,0,P|140:371|183:317,1,143.000004364014,4|8,3:0|0:2,0:0:0:0:
137,257,55348,1,0,3:0:0:0:
288,124,55510,5,2,0:2:0:0:
213,152,55753,1,2,0:2:0:0:
135,137,55996,1,2,3:2:0:0:
80,83,56159,1,2,3:2:0:0:
3,85,56321,6,0,P|19:155|30:226,1,143.000004364014,10|8,0:2|0:2,0:0:0:0:
1,297,56807,1,2,3:2:0:0:
153,378,56969,5,10,0:2:0:0:
94,328,57131,1,2,0:2:0:0:
314,292,57294,5,0,0:0:0:0:
225,327,57456,2,0,P|235:256|222:186,1,143.000004364014,4|8,3:0|0:2,0:0:0:0:
379,120,57942,5,0,3:0:0:0:
439,168,58104,2,0,L|300:132,1,143.000004364014,2|8,0:2|0:2,0:0:0:0:
387,371,58591,5,2,0:2:0:0:
387,371,58753,1,0,3:0:0:0:
387,371,58915,2,0,P|444:332|445:263,1,143.000004364014,2|2,0:2|3:2,0:0:0:0:
377,234,59402,1,2,0:0:0:0:
493,106,59564,5,2,3:2:0:0:
493,106,59726,1,8,0:2:0:0:
348,23,59888,2,0,P|380:42|413:53,1,71.5000021820069,2|4,0:2|3:0,0:0:0:0:
228,137,60213,1,0,0:0:0:0:
228,137,60375,2,0,P|298:145|370:139,1,143.000004364014,8|0,0:2|0:0,0:0:0:0:
442,171,60861,1,2,3:2:0:0:
219,9,61023,5,2,0:2:0:0:
155,48,61186,2,0,L|134:189,1,143.000004364014,2|2,3:2|3:2,0:0:0:0:
3,302,61672,1,2,0:0:0:0:
88,384,61834,2,0,L|77:313,1,71.5000021820069,8|2,0:2|0:2,0:0:0:0:
64,219,62159,1,8,0:2:0:0:
50,128,62321,1,2,0:2:0:0:
38,33,62645,6,0,B|108:58|95:68|168:91,1,143.000004364014,6|8,3:2|0:2,0:0:0:0:
168,91,63131,1,0,3:0:0:0:
234,18,63294,1,2,0:2:0:0:
366,151,63456,1,2,3:2:0:0:
288,201,63618,2,0,P|222:220|208:287,1,143.000004364014,8|0,0:2|3:0,0:0:0:0:
339,378,64104,5,0,3:0:0:0:
417,328,64267,1,8,0:2:0:0:
317,276,64429,1,0,3:0:0:0:
481,384,64591,6,0,P|490:349|502:315,1,71.5000021820069,2|0,0:2|0:0,0:0:0:0:
366,151,64915,2,0,P|374:185|386:219,1,71.5000021820069,8|0,0:2|0:0,0:0:0:0:
207,371,65240,1,4,3:0:0:0:
207,371,65564,2,0,P|141:351|126:284,1,143.000004364014,8|0,0:2|0:0,0:0:0:0:
33,144,66050,6,0,P|67:154|100:166,1,71.5000021820069,2|2,3:2|3:2,0:0:0:0:
207,140,66375,2,0,P|194:173|184:207,1,71.5000021820069,2|10,0:2|0:2,0:0:0:0:
24,56,66699,2,0,P|112:35|213:-4,1,143.000004364014,2|8,3:2|0:2,0:0:0:0:
350,142,67186,5,2,3:2:0:0:
281,113,67348,1,2,0:2:0:0:
373,23,67510,1,10,0:2:0:0:
457,58,67672,2,0,P|447:91|442:130,1,71.5000021820069,0|4,0:0|3:0,0:0:0:0:
300,38,67996,2,0,P|266:25|234:10,2,71.5000021820069,0|8|0,0:0|0:2|3:0,0:0:0:0:
439,216,68483,5,2,0:2:0:0:
439,216,68645,2,0,P|472:203|504:188,1,71.5000021820069,2|8,3:2|0:2,0:0:0:0:
349,226,68969,2,0,B|304:286|304:286|345:368,1,143.000004364014,2|0,0:2|0:0,0:0:0:0:
402,380,69456,1,8,0:2:0:0:
456,325,69618,1,2,3:2:0:0:
198,200,69942,5,2,0:2:0:0:
133,165,70104,1,10,0:0:0:0:
71,211,70267,2,0,P|107:272|27:355,1,143.000004364014,2|0,3:2|0:0,0:0:0:0:
212,379,70753,2,0,L|72:348,1,143.000004364014,8|2,0:2|0:2,0:0:0:0:
207,280,71240,1,0,3:0:0:0:
133,165,71402,5,2,0:2:0:0:
53,112,71564,1,0,0:0:0:0:
189,55,71726,1,2,0:0:0:0:
111,6,72050,1,2,3:2:0:0:
228,139,72213,5,8,0:2:0:0:
340,96,72375,2,0,P|323:165|306:262,1,143.000004364014,2|8,0:2|0:2,0:0:0:0:
309,235,72861,1,2,0:2:0:0:
273,30,73023,5,6,3:2:0:0:
273,30,73186,1,0,0:0:0:0:
273,30,73348,1,10,0:2:0:0:
416,174,73510,2,0,P|483:156|504:90,1,143.000004364014,2|0,3:2|3:0,0:0:0:0:
504,91,73996,1,8,0:2:0:0:
400,35,74159,6,0,P|435:27|470:18,1,71.5000021820069,2|0,0:2|3:0,0:0:0:0:
271,114,74483,6,0,P|305:106|340:96,1,71.5000021820069,2|8,0:2|0:2,0:0:0:0:
402,257,74807,6,0,P|436:249|471:239,1,71.5000021820069,2|0,3:2|0:0,0:0:0:0:
312,347,75131,6,0,P|277:339|242:329,1,71.5000021820069,2|8,3:2|0:2,0:0:0:0:
439,384,75456,6,0,P|444:314|394:265,1,143.000004364014,2|0,0:2|0:0,0:0:0:0:
294,190,75942,2,0,B|284:225|284:225|301:256,1,71.5000021820069,8|0,0:2|3:0,0:0:0:0:
165,380,76267,5,0,0:0:0:0:
85,333,76429,1,8,0:2:0:0:
193,151,76591,2,0,B|175:205|188:229|166:291,1,143.000004364014,2|0,0:2|3:0,0:0:0:0:
0,366,77077,6,0,P|55:325|52:257,1,143.000004364014,2|8,0:2|0:0,0:0:0:0:
0,181,77564,1,2,0:0:0:0:
140,56,77726,5,8,0:0:0:0:
53,25,77888,1,0,3:0:0:0:
71,119,78050,2,0,B|141:153|119:167|191:204,1,143.000004364014,2|0,0:0|0:0,0:0:0:0:
274,158,78537,1,8,0:0:0:0:
429,285,78699,1,2,3:2:0:0:
358,321,78861,5,2,0:0:0:0:
463,158,79023,1,0,3:2:0:0:
398,110,79186,1,8,0:2:0:0:
488,11,79348,6,0,P|418:28|348:39,1,143.000004364014,2|0,0:2|0:0,0:0:0:0:
348,39,79834,1,8,0:0:0:0:
274,240,79996,6,0,P|280:204|283:169,1,71.5000021820069,2|0,3:2|0:0,0:0:0:0:
165,86,80321,6,0,P|171:50|174:15,1,71.5000021820069,2|8,0:2|0:0,0:0:0:0:
38,243,80645,6,0,P|44:207|47:172,1,71.5000021820069,2|4,0:2|3:0,0:0:0:0:
270,339,80969,6,0,P|239:320|207:304,1,71.5000021820069,2|8,0:2|0:2,0:0:0:0:
11,359,81294,2,0,P|41:340|73:324,1,71.5000021820069,2|0,3:2|0:0,0:0:0:0:
191,292,81618,1,8,0:2:0:0:
85,68,81780,6,0,B|21:90|21:90|1:132|34:156,1,143.000004364014,2|0,0:0|3:0,0:0:0:0:
127,202,82267,1,2,0:0:0:0:
257,90,82429,1,2,0:2:0:0:
351,128,82591,1,8,0:0:0:0:
291,185,82753,6,0,P|256:192|222:203,1,71.5000021820069,0|8,0:0|0:0,0:0:0:0:
371,366,83077,2,0,P|378:294|397:225,1,143.000004364014,2|6,3:2|3:2,0:0:0:0:
396,226,83726,5,8,0:0:0:0:
484,264,83888,1,0,3:0:0:0:
488,109,84050,2,0,P|467:141|470:179,1,77.999997619629,2|0,0:2|3:0,0:0:0:0:
484,367,84375,2,0,P|417:326|345:296,1,155.999995239258,8|2,0:0|3:2,0:0:0:0:
69,363,85023,5,10,0:2:0:0:
157,380,85186,1,0,3:0:0:0:
90,180,85348,5,2,0:2:0:0:
90,180,85510,1,2,3:2:0:0:
34,259,85672,5,8,0:0:0:0:
122,276,85834,1,2,0:2:0:0:
217,127,85996,6,0,B|341:83|310:68|443:27,1,233.999992858887,4|0,3:0|3:0,0:0:0:0:
374,164,86645,6,0,P|342:142|337:104,1,77.999997619629,0|0,0:0|3:0,0:0:0:0:
179,53,86969,2,0,P|127:61|127:153,2,155.999995239258,2|2|2,0:0|3:2|0:0,0:0:0:0:
179,53,87780,1,8,0:0:0:0:
277,193,87942,2,0,P|266:230|259:268,1,77.999997619629,0|8,0:0|0:0,0:0:0:0:
33,109,88267,6,0,L|58:262,1,155.999995239258,2|4,0:0|3:0,0:0:0:0:
58,262,88915,1,8,0:0:0:0:
204,175,89077,5,0,3:0:0:0:
204,175,89240,1,2,0:2:0:0:
204,175,89402,1,0,3:0:0:0:
491,330,89564,6,0,P|455:346|422:366,1,77.999997619629,8|0,0:0|0:0,0:0:0:0:
315,204,89888,2,0,L|288:360,1,155.999995239258,2|8,3:2|0:0,0:0:0:0:
217,381,90375,1,2,0:2:0:0:
166,255,90537,5,2,0:2:0:0:
268,277,90699,1,2,3:2:0:0:
374,299,90861,1,10,0:2:0:0:
512,170,91023,5,2,0:0:0:0:
467,112,91186,2,0,P|398:139|397:212,1,155.999995239258,4|8,3:0|0:0,0:0:0:0:
203,7,91834,6,0,P|246:21|281:31,1,77.999997619629,2|8,0:2|0:0,0:0:0:0:
141,104,92159,2,0,P|215:127|291:144,1,155.999995239258,2|2,0:0|0:0,0:0:0:0:
330,81,92645,1,0,3:0:0:0:
258,214,92807,2,0,P|220:225|183:238,1,77.999997619629,2|0,3:2|3:0,0:0:0:0:
101,340,93131,2,0,P|78:265|41:196,1,155.999995239258,8|0,0:0|0:0,0:0:0:0:
211,151,93618,5,8,0:0:0:0:
258,214,93780,2,0,L|249:291,1,77.999997619629,4|0,3:2|0:0,0:0:0:0:
323,363,94104,2,0,P|349:305|469:265,1,155.999995239258,8|0,0:0|0:0,0:0:0:0:
445,99,94591,5,0,3:3:0:0:
496,192,94753,2,0,L|343:158,1,155.999995239258,8|2,0:0|3:2,0:0:0:0:
282,91,95240,1,0,0:0:0:0:
341,15,95402,1,8,0:0:0:0:
211,151,95564,5,0,3:0:0:0:
150,84,95726,2,0,L|159:-6,1,77.999997619629,2|2,0:0|3:2,0:0:0:0:
98,219,96050,5,8,0:0:0:0:
98,219,96213,1,2,0:0:0:0:
37,152,96375,2,0,L|46:62,1,77.999997619629,4|0,3:0|0:0,0:0:0:0:
25,294,96699,2,0,P|96:323|171:372,1,155.999995239258,8|0,0:0|0:0,0:0:0:0:
162,365,97186,1,0,3:0:0:0:
259,217,97348,6,0,P|252:254|223:279,1,77.999997619629,8|0,0:0|0:0,0:0:0:0:
300,350,97672,2,0,P|374:344|405:276,1,155.999995239258,2|0,3:2|0:0,0:0:0:0:
289,136,98159,5,8,0:0:0:0:
381,163,98321,2,0,L|481:134,2,77.999997619629,2|8|2,0:0|0:0|0:0,0:0:0:0:
381,163,98969,6,0,P|372:124|371:86,1,77.999997619629,4|0,3:0|0:0,0:0:0:0:
299,20,99294,2,0,P|261:29|223:30,1,77.999997619629,8|0,0:0|3:0,0:0:0:0:
174,217,99618,6,0,P|165:178|164:140,1,77.999997619629,2|0,0:2|3:0,0:0:0:0:
0,120,99942,2,0,P|75:101|142:61,1,155.999995239258,8|0,0:0|3:0,0:0:0:0:
142,61,100429,2,0,B|146:23|146:23|105:-4,1,77.999997619629,0|8,0:0|0:0,0:0:0:0:
0,120,100753,5,0,3:0:0:0:
40,189,100915,1,2,0:0:0:0:
49,268,101077,1,0,3:0:0:0:
195,361,101240,5,8,0:0:0:0:
116,352,101402,2,0,P|72:363|31:380,2,77.999997619629,0|4|2,0:0|3:0|0:2,0:0:0:0:
233,282,101888,2,0,P|304:314|379:335,1,155.999995239258,8|2,0:0|0:2,0:0:0:0:
451,315,102375,1,8,0:0:0:0:
291,384,102537,6,0,L|319:230,1,155.999995239258,2|2,0:0|3:2,0:0:0:0:
319,230,103186,6,0,P|303:194|288:139,1,77.999997619629,2|8,0:0|0:0,0:0:0:0:
338,73,103510,1,0,0:0:0:0:
430,117,103672,1,8,0:0:0:0:
402,189,103834,1,2,0:0:0:0:
205,114,103996,5,2,0:0:0:0:
266,39,104159,2,0,P|343:27|419:10,1,155.999995239258,6|8,3:2|0:0,0:0:0:0:
180,0,104645,2,0,P|167:76|145:151,1,155.999995239258,2|0,3:2|3:0,0:0:0:0:
144,151,105131,1,8,0:0:0:0:
18,188,105294,6,0,P|56:200|91:213,1,77.999997619629,2|4,0:2|3:0,0:0:0:0:
135,336,105618,2,0,P|173:348|208:361,1,77.999997619629,0|8,0:0|0:0,0:0:0:0:
341,203,105942,2,0,P|266:214|232:281,1,155.999995239258,2|0,3:2|0:0,0:0:0:0:
296,335,106429,1,8,0:0:0:0:
479,165,106591,5,0,0:0:0:0:
424,221,106753,2,0,P|412:296|400:375,1,155.999995239258,4|8,3:0|0:0,0:0:0:0:
397,147,107240,2,0,P|401:108|411:70,1,77.999997619629,0|0,3:0|0:0,0:0:0:0:
411,70,107564,1,8,0:0:0:0:
341,203,107726,6,0,B|278:197|260:138|195:125,1,155.999995239258,2|0,0:0|3:0,0:0:0:0:
118,77,108213,2,0,P|75:116|102:214,1,155.999995239258,2|8,0:2|0:0,0:0:0:0:
156,251,108699,1,2,0:2:0:0:
89,371,108861,1,8,0:0:0:0:
18,347,109023,2,0,P|10:309|0:272,1,77.999997619629,2|0,0:2|0:0,0:0:0:0:
173,333,109348,6,0,P|247:308|323:291,1,155.999995239258,6|8,3:2|0:0,0:0:0:0:
436,163,109834,1,0,3:0:0:0:
498,208,109996,2,0,P|482:243|474:281,1,77.999997619629,2|0,0:2|3:0,0:0:0:0:
338,157,110321,1,10,0:2:0:0:
475,58,110483,1,0,0:0:0:0:
390,1,110645,5,2,3:2:0:0:
390,1,110807,1,0,0:0:0:0:
390,1,110969,1,10,0:2:0:0:
213,158,111131,2,0,P|141:137|120:65,1,155.999995239258,2|0,3:2|3:0,0:0:0:0:
260,23,111618,2,0,L|273:99,1,77.999997619629,10|0,0:0|0:0,0:0:0:0:
317,311,111942,6,0,L|337:156,1,155.999995239258,4|8,0:3|0:0,0:0:0:0:
193,250,112429,2,0,B|112:225|146:183|33:153,1,155.999995239258,2|0,3:2|3:0,0:0:0:0:
3,206,112915,1,10,0:0:0:0:
45,269,113077,1,0,3:0:0:0:
206,160,113240,5,0,3:0:0:0:
206,160,113564,2,0,B|223:197|223:197|211:255,1,77.999997619629,2|8,0:0|0:0,0:0:0:0:
165,287,113888,1,2,0:0:0:0:
305,374,114050,1,10,0:2:0:0:
373,342,114213,1,2,0:0:0:0:
444,361,114375,1,0,0:0:0:0:
510,272,114537,6,0,P|434:255|358:233,1,155.999995239258,6|8,3:2|0:0,0:0:0:0:
320,168,115023,2,0,L|299:79,1,77.999997619629,0|0,3:0|0:0,0:0:0:0:
248,40,115348,1,2,3:2:0:0:
394,114,115510,2,0,P|432:106|468:92,1,77.999997619629,8|0,0:0|0:0,0:0:0:0:
370,26,115834,5,4,3:0:0:0:
214,146,115996,2,0,P|175:138|131:122,1,77.999997619629,0|8,0:0|0:0,0:0:0:0:
256,320,116321,2,0,P|294:312|330:299,1,77.999997619629,2|0,3:2|0:0,0:0:0:0:
77,218,116645,2,0,P|38:210|-6:194,1,77.999997619629,2|8,3:2|0:0,0:0:0:0:
142,380,116969,6,0,P|152:303|168:227,1,155.999995239258,2|0,0:2|0:0,0:0:0:0:
34,319,117456,1,8,0:0:0:0:
34,319,117618,1,2,3:2:0:0:
410,215,117942,5,10,0:2:0:0:
87,21,118267,5,2,3:2:0:0:
13,40,118429,2,0,B|76:58|86:94|153:110,1,155.999995239258,0|2,3:0|0:2,0:0:0:0:
213,72,118915,1,8,0:0:0:0:
348,167,119077,1,2,0:2:0:0:
410,215,119240,2,0,L|420:292,2,77.999997619629,8|2|0,0:0|0:0|0:0,0:0:0:0:
458,48,119726,6,0,P|506:103|474:170,1,155.999995239258,6|8,3:2|0:0,0:0:0:0:
420,292,120213,1,0,3:0:0:0:
368,347,120375,2,0,P|331:334|293:325,1,77.999997619629,2|0,0:2|3:0,0:0:0:0:
147,221,120699,2,0,P|166:297|179:378,1,155.999995239258,10|0,0:0|3:0,0:0:0:0:
250,246,121186,2,0,P|269:212|273:174,1,77.999997619629,2|8,0:0|0:0,0:0:0:0:
138,302,121510,5,0,3:0:0:0:
80,352,121672,2,0,P|43:341|-8:335,1,77.999997619629,2|0,0:0|3:0,0:0:0:0:
147,221,121996,2,0,P|135:183|130:145,1,77.999997619629,10|0,0:0|0:0,0:0:0:0:
288,27,122321,6,0,B|353:49|337:63|412:87,1,130,4|0,3:0|0:0,0:0:0:0:
434,156,122807,2,0,B|369:178|385:192|310:216,1,130,2|0,0:0|0:0,0:0:0:0:
255,179,123294,1,2,0:0:0:0:
255,179,123618,2,0,L|244:114,1,65,2|0,0:0|0:0,0:0:0:0:
192,60,123942,1,2,0:0:0:0:
57,220,124267,5,0,0:0:0:0:
57,220,124429,1,2,0:0:0:0:
57,220,124591,1,2,0:0:0:0:
63,319,124753,2,0,P|32:308|0:301,1,65,2|2,0:0|3:2,0:0:0:0:
201,351,125079,5,2,0:0:0:0:
270,373,125243,2,0,L|320:360,1,52
193,347,125572,2,0,L|177:275,1,52,2|0,0:0|0:0,0:0:0:0:
250,260,125901,2,0,P|273:271|297:280,1,52
414,362,126230,5,2,0:0:0:0:
436,327,126394,1,0,0:0:0:0:
425,286,126558,1,0,0:0:0:0:
393,266,126723,1,0,0:0:0:0:
498,139,126887,5,2,0:0:0:0:
437,181,127051,1,0,0:0:0:0:
364,178,127216,1,2,0:0:0:0:
307,132,127380,2,0,L|292:30,1,104,2|0,0:0|0:0,0:0:0:0:
199,93,127873,6,0,P|170:86|149:79,1,52,2|0,0:0|0:0,0:0:0:0:
78,55,128202,2,0,L|69:1,2,52,0|0|2,0:0|0:0|0:0,0:0:0:0:
24,115,128695,1,0,0:0:0:0:
24,115,128860,2,0,P|36:165|45:216,1,104,2|0,0:0|0:0,0:0:0:0:
112,252,129353,1,0,0:0:0:0:
180,223,129517,2,0,L|230:211,2,52,2|0|0,0:0|0:0|0:0,0:0:0:0:
112,252,130010,1,0,0:0:0:0:
43,332,130175,6,0,P|94:342|145:358,1,104,2|0,0:0|0:0,0:0:0:0:
211,384,130643,1,0,0:0:0:0:
266,327,130800,2,0,P|268:302|273:258,1,52
230,210,131112,2,0,P|233:184|235:155,1,52
265,128,131425,5,2,0:0:0:0:
337,118,131587,1,0,0:0:0:0:
410,106,131749,1,0,0:0:0:0:
484,95,131911,1,0,0:0:0:0:
305,32,132073,5,2,0:0:0:0:
336,100,132235,1,0,0:0:0:0:
410,128,132397,1,2,0:0:0:0:
488,116,132560,2,0,L|500:243,1,116.999996429443,2|0,0:0|0:0,0:0:0:0:
466,355,133046,6,0,P|437:348|408:343,1,58.4999982147217,2|0,0:0|0:0,0:0:0:0:
411,240,133370,2,0,P|382:246|353:251,1,58.4999982147217
341,384,133695,1,0,0:0:0:0:
269,361,133857,2,0,P|230:321|251:248,1,116.999996429443,2|0,0:0|0:0,0:0:0:0:
290,207,134343,5,2,0:0:0:0:
256,132,134500,1,0,0:0:0:0:
216,66,134658,1,2,0:0:0:0:
256,0,134816,5,2,0:0:0:0:
256,0,135132,1,2,0:0:0:0:
39,47,144533,5,2,0:0:0:0:
39,47,144857,2,0,P|70:38|100:27,1,65,2|0,0:0|0:0,0:0:0:0:
10,134,145181,2,0,P|21:164|29:195,1,65,2|0,0:0|0:0,0:0:0:0:
5,265,145506,1,2,0:0:0:0:
99,115,145668,6,0,P|166:132|250:161,1,143.000004364014,6|8,3:2|0:0,0:0:0:0:
311,97,146154,2,0,P|326:64|332:28,1,71.5000021820069,2|2,3:2|0:2,0:0:0:0:
331,29,146479,1,0,3:0:0:0:
235,155,146641,2,0,L|249:231,1,71.5000021820069,8|0,0:0|0:0,0:0:0:0:
184,296,146965,6,0,B|116:326|132:341|51:381,1,143.000004364014,2|8,3:2|0:0,0:0:0:0:
2,337,147452,1,2,3:2:0:0:
321,197,147776,5,0,3:0:0:0:
390,219,147938,1,10,0:0:0:0:
321,197,148100,1,2,0:0:0:0:
257,358,148262,2,0,P|327:335|393:316,1,143.000004364014,4|8,3:0|0:0,0:0:0:0:
467,340,148749,1,2,3:2:0:0:
268,268,148911,2,0,P|228:192|250:142,1,143.000004364014,2|2,0:2|0:0,0:0:0:0:
311,106,149398,1,0,3:0:0:0:
415,189,149560,5,2,3:2:0:0:
480,146,149722,1,2,0:2:0:0:
467,71,149884,1,2,0:2:0:0:
497,253,150046,1,10,0:2:0:0:
203,23,150371,5,8,0:0:0:0:
134,50,150533,1,2,0:0:0:0:
64,21,150695,1,2,0:0:0:0:
5,100,150857,2,0,B|7:160|19:175|26:241,1,143.000004364014,4|8,3:0|0:0,0:0:0:0:
0,311,151344,1,2,3:2:0:0:
181,384,151506,2,0,P|224:323|199:254,1,143.000004364014,2|8,0:2|0:0,0:0:0:0:
141,233,151992,1,0,0:0:0:0:
77,342,152154,2,0,L|7:327,2,71.5000021820069,2|0|8,3:2|0:0|0:0,0:0:0:0:
77,342,152641,1,2,3:2:0:0:
395,248,152965,5,0,3:0:0:0:
333,289,153127,2,0,P|325:324|319:360,1,71.5000021820069,10|0,0:0|0:0,0:0:0:0:
488,354,153452,2,0,P|453:345|417:339,1,71.5000021820069,4|0,3:0|0:0,0:0:0:0:
289,212,153776,1,10,0:0:0:0:
289,212,153938,1,0,3:0:0:0:
365,154,154100,2,0,L|459:137,2,71.5000021820069,2|8|0,0:0|0:0|0:0,0:0:0:0:
233,35,154587,5,0,3:0:0:0:
180,87,154749,2,0,B|120:108|107:134|54:152,1,143.000004364014,2|0,3:2|0:0,0:0:0:0:
0,92,155235,1,10,0:2:0:0:
61,23,155398,1,2,0:2:0:0:
256,236,155722,5,2,0:0:0:0:
289,303,155884,1,2,0:0:0:0:
246,366,156046,2,0,P|178:343|109:324,1,143.000004364014,6|8,3:2|0:0,0:0:0:0:
49,230,156533,1,2,3:2:0:0:
7,296,156695,2,0,P|19:330|27:365,1,71.5000021820069,2|0,0:0|3:0,0:0:0:0:
137,236,157019,2,0,P|125:202|117:167,1,71.5000021820069,8|0,0:0|0:0,0:0:0:0:
71,11,157344,5,2,3:2:0:0:
16,91,157506,1,0,0:0:0:0:
16,91,157668,1,10,0:2:0:0:
117,167,157830,2,0,B|174:142|186:122|246:99,1,143.000004364014,2|0,3:2|3:0,0:0:0:0:
436,56,158317,5,8,0:0:0:0:
375,9,158479,2,0,B|346:47|346:47|368:88|379:172,1,143.000004364014,2|0,0:0|0:0,0:0:0:0:
312,267,158965,1,8,0:0:0:0:
238,240,159127,1,2,3:2:0:0:
185,293,159290,2,0,P|195:327|203:361,1,71.5000021820069,2|8,0:2|0:0,0:0:0:0:
312,267,159614,2,0,P|378:269|421:366,1,143.000004364014,2|2,0:0|3:2,0:0:0:0:
372,381,160100,1,2,0:0:0:0:
422,326,160262,1,2,0:2:0:0:
302,185,160425,1,10,0:2:0:0:
487,13,160749,5,10,0:0:0:0:
506,109,160911,1,2,0:0:0:0:
487,13,161073,1,0,3:0:0:0:
423,59,161235,2,0,B|349:35|366:24|291:2,1,143.000004364014,4|8,3:0|0:0,0:0:0:0:
146,88,161722,1,2,3:2:0:0:
215,128,161884,2,0,P|226:93|240:61,1,71.5000021820069,2|0,0:2|3:0,0:0:0:0:
104,14,162208,1,8,0:0:0:0:
22,78,162371,5,0,0:0:0:0:
66,155,162533,2,0,P|100:162|135:172,2,71.5000021820069,2|0|8,3:2|0:0|0:0,0:0:0:0:
5,221,163019,2,0,B|7:274|27:301|28:376,1,143.000004364014,2|0,3:2|3:0,0:0:0:0:
27,361,163506,1,8,0:0:0:0:
298,253,163830,6,0,P|263:242|229:229,1,71.5000021820069,4|0,3:0|0:0,0:0:0:0:
198,338,164154,2,0,P|163:348|129:362,1,71.5000021820069,10|0,0:2|3:0,0:0:0:0:
285,139,164479,2,0,P|250:128|216:115,1,71.5000021820069,2|8,0:2|0:0,0:0:0:0:
332,367,164803,6,0,P|401:360|432:299,1,143.000004364014,2|0,0:2|3:0,0:0:0:0:
388,238,165290,1,0,0:0:0:0:
467,169,165452,1,2,0:0:0:0:
359,0,165614,1,8,0:0:0:0:
293,57,165776,1,2,0:2:0:0:
376,127,165938,5,10,0:2:0:0:
454,62,166100,1,2,0:2:0:0:
376,127,166262,1,0,0:0:0:0:
272,35,166425,6,0,B|201:17|201:17|155:42|178:100,1,155.999995239258,6|8,3:2|0:0,0:0:0:0:
137,219,166911,1,2,3:2:0:0:
75,259,167073,2,0,P|18:219|38:140,1,155.999995239258,2|8,0:2|0:0,0:0:0:0:
202,160,167560,6,0,P|241:172|293:195,1,77.999997619629,2|0,0:2|3:0,0:0:0:0:
132,330,167884,2,0,P|93:342|41:365,1,77.999997619629,2|8,0:2|0:0,0:0:0:0:
246,340,168208,2,0,P|234:302|219:266,1,77.999997619629,0|0,3:0|0:0,0:0:0:0:
110,131,168533,1,0,3:0:0:0:
53,205,168695,1,8,0:0:0:0:
131,251,168857,1,2,0:2:0:0:
20,66,169019,6,0,P|94:51|168:19,1,155.999995239258,4|8,3:0|0:0,0:0:0:0:
336,135,169506,2,0,P|261:149|187:181,1,155.999995239258,0|8,3:0|0:0,0:0:0:0:
110,131,169992,1,2,0:0:0:0:
110,131,170317,2,0,B|95:197|111:222|89:308,1,155.999995239258,2|0,3:2|0:0,0:0:0:0:
279,365,170803,2,0,P|326:307|304:235,1,155.999995239258,10|8,0:0|0:0,0:0:0:0:
236,204,171290,1,2,3:2:0:0:
182,256,171452,1,0,0:0:0:0:
24,153,171614,6,0,P|14:75|0:0,1,155.999995239258,6|8,3:2|0:0,0:0:0:0:
211,64,172100,1,2,3:2:0:0:
179,136,172262,2,0,P|140:146|105:161,2,77.999997619629,0|0|8,0:0|3:0|0:0,0:0:0:0:
322,153,172749,5,2,0:2:0:0:
405,201,172911,1,2,3:2:0:0:
487,159,173073,1,2,0:2:0:0:
374,68,173235,1,8,0:0:0:0:
245,194,173398,2,0,B|248:255|265:280|267:373,1,155.999995239258,2|0,3:2|3:0,0:0:0:0:
435,322,173884,6,0,P|397:312|363:293,1,77.999997619629,10|0,0:0|0:0,0:0:0:0:
78,368,174208,2,0,P|147:338|150:258,1,155.999995239258,4|8,3:0|0:0,0:0:0:0:
277,156,174695,2,0,B|266:221|277:238|264:311,1,155.999995239258,2|8,3:2|0:0,0:0:0:0:
43,184,175181,6,0,P|20:113|69:57,1,155.999995239258,2|0,0:0|3:0,0:0:0:0:
138,90,175668,1,2,0:2:0:0:
193,32,175992,1,10,0:2:0:0:
265,68,176317,5,10,0:0:0:0:
332,1,176479,1,2,0:2:0:0:
208,133,176641,1,0,0:0:0:0:
270,182,176803,2,0,B|360:212|323:227|413:259,1,155.999995239258,6|8,3:2|0:0,0:0:0:0:
470,217,177290,2,0,P|479:171|496:127,1,77.999997619629,2|0,3:2|0:0,0:0:0:0:
292,365,177614,6,0,P|283:319|266:275,1,77.999997619629,2|8,3:2|0:0,0:0:0:0:
393,145,177938,6,0,P|402:99|419:55,1,77.999997619629,2|0,0:2|3:0,0:0:0:0:
187,339,178262,6,0,P|178:293|161:249,1,77.999997619629,2|8,0:2|0:0,0:0:0:0:
308,83,178587,6,0,P|241:123|167:147,1,155.999995239258,2|0,3:2|3:0,0:0:0:0:
104,189,179073,1,8,0:0:0:0:
22,98,179235,6,0,P|23:59|49:31,1,77.999997619629,2|4,0:0|3:0,0:0:0:0:
195,81,179560,2,0,P|193:119|167:147,1,77.999997619629,2|8,0:0|0:0,0:0:0:0:
15,300,179884,6,0,P|16:338|42:366,1,77.999997619629,0|0,3:0|0:0,0:0:0:0:
187,317,180208,2,0,P|185:278|159:250,1,77.999997619629,10|0,0:0|0:0,0:0:0:0:
3,212,180533,6,0,B|73:197|86:162|161:143,1,155.999995239258,2|0,3:2|0:0,0:0:0:0:
252,218,181019,2,0,P|274:251|280:289,1,77.999997619629,2|8,0:0|0:0,0:0:0:0:
300,98,181344,5,2,0:0:0:0:
357,48,181506,1,8,0:0:0:0:
430,24,181668,1,2,0:0:0:0:
505,35,181830,1,0,0:0:0:0:
300,98,181992,6,0,P|215:81|177:14,1,155.999995239258,6|8,3:2|0:0,0:0:0:0:
179,26,182479,1,0,3:0:0:0:
144,147,182641,2,0,L|162:238,1,77.999997619629,2|0,0:0|3:0,0:0:0:0:
76,82,182965,2,0,L|0:97,1,77.999997619629,8|0,0:0|0:0,0:0:0:0:
252,193,183290,5,0,3:0:0:0:
252,193,183452,2,0,L|406:217,1,155.999995239258,2|0,0:0|3:0,0:0:0:0:
470,181,183938,2,0,P|495:135|463:90,1,77.999997619629,2|0,0:0|3:0,0:0:0:0:
324,243,184262,5,8,0:0:0:0:
357,314,184425,1,0,0:0:0:0:
309,375,184587,2,0,B|244:356|226:341|152:320,1,155.999995239258,4|8,3:0|0:0,0:0:0:0:
429,384,185073,2,0,P|484:333|469:260,1,155.999995239258,2|8,3:2|0:0,0:0:0:0:
275,88,185560,6,0,P|202:116|127:139,1,155.999995239258,2|0,0:0|3:0,0:0:0:0:
61,95,186046,1,0,0:0:0:0:
85,22,186208,1,2,0:0:0:0:
159,41,186371,1,8,0:0:0:0:
211,167,186533,5,2,0:0:0:0:
28,286,186695,5,10,0:0:0:0:
142,368,186857,1,2,0:0:0:0:
28,286,187019,1,0,0:0:0:0:
117,225,187181,6,0,B|200:258|176:271|273:304,1,155.999995239258,6|8,3:2|0:0,0:0:0:0:
321,368,187668,2,0,L|410:344,1,77.999997619629,2|0,3:2|0:0,0:0:0:0:
486,223,187992,1,0,3:0:0:0:
366,110,188154,5,8,0:0:0:0:
304,179,188317,2,0,P|317:217|324:256,1,77.999997619629,2|0,0:0|3:0,0:0:0:0:
155,101,188641,2,0,P|168:63|175:24,1,77.999997619629,2|8,0:0|0:0,0:0:0:0:
16,194,188965,2,0,P|90:209|137:270,1,155.999995239258,2|0,3:2|3:0,0:0:0:0:
94,333,189452,1,8,0:0:0:0:
321,368,189614,5,2,0:0:0:0:
244,384,189776,2,0,P|236:339|219:290,1,77.999997619629,4|0,3:0|0:0,0:0:0:0:
304,179,190100,1,8,0:0:0:0:
238,107,190262,2,0,B|158:85|177:76|92:51,1,155.999995239258,2|8,3:2|0:0,0:0:0:0:
304,179,190749,2,0,P|377:161|394:89,1,155.999995239258,2|0,0:0|3:0,0:0:0:0:
349,29,191235,1,2,0:0:0:0:
273,31,191560,1,8,0:0:0:0:
158,233,191884,5,8,0:0:0:0:
75,287,192046,2,0,P|37:296|1:313,1,77.999997619629,2|0,0:0|0:0,0:0:0:0:
226,298,192371,2,0,P|297:328|372:348,1,155.999995239258,6|8,3:2|0:0,0:0:0:0:
440,309,192857,1,2,3:2:0:0:
299,231,193019,1,0,0:0:0:0:
145,351,193181,1,0,3:0:0:0:
75,287,193344,2,0,P|57:253|58:210,1,77.999997619629,8|0,0:0|0:0,0:0:0:0:
170,93,193668,5,2,3:2:0:0:
212,163,193830,1,2,0:2:0:0:
102,147,193992,1,8,0:0:0:0:
85,15,194154,1,2,3:2:0:0:
229,0,194317,1,0,0:0:0:0:
229,0,194479,1,2,0:0:0:0:
378,186,194641,5,8,0:0:0:0:
505,95,194803,1,2,0:0:0:0:
437,32,194965,2,0,B|371:58|386:83|291:120,1,155.999995239258,4|8,3:0|0:0,0:0:0:0:
419,304,195452,2,0,P|340:265|243:233,1,155.999995239258,0|8,3:0|0:0,0:0:0:0:
128,317,195938,2,0,P|92:332|57:350,1,77.999997619629,2|0,0:0|3:0,0:0:0:0:
163,239,196262,1,0,3:0:0:0:
234,376,196425,2,0,B|246:311|231:291|257:219,1,155.999995239258,0|8,0:0|0:0,0:0:0:0:
214,156,196911,1,0,0:0:0:0:
103,171,197073,6,0,P|82:203|69:240,1,77.999997619629,8|0,0:2|0:0,0:0:0:0:
69,239,197398,1,2,0:0:0:0:
0,90,197560,2,0,P|76:68|161:34,1,155.999995239258,6|8,3:2|0:0,0:0:0:0:
298,0,198046,2,0,P|336:16|391:29,1,77.999997619629,2|0,3:2|0:0,0:0:0:0:
466,124,198371,2,0,P|450:160|436:216,1,77.999997619629,2|8,3:2|0:0,0:0:0:0:
263,371,198695,1,2,0:0:0:0:
205,315,198857,2,0,P|170:300|132:292,1,77.999997619629,0|0,3:0|0:0,0:0:0:0:
347,188,199181,5,8,0:0:0:0:
506,255,199344,2,0,P|508:293|494:330,1,77.999997619629,2|0,3:2|0:0,0:0:0:0:
425,364,199668,2,0,P|383:345|342:333,1,77.999997619629,0|8,3:0|0:0,0:0:0:0:
275,106,199992,6,0,P|311:96|351:76,1,77.999997619629,2|4,0:0|3:0,0:0:0:0:
144,203,200317,2,0,P|108:213|67:232,1,77.999997619629,2|8,0:0|0:0,0:0:0:0:
303,267,200641,2,0,P|372:238|389:165,1,155.999995239258,0|8,3:0|0:0,0:0:0:0:
150,36,201127,5,2,0:0:0:0:
82,74,201290,2,0,L|70:229,1,155.999995239258,0|0,3:0|0:0,0:0:0:0:
98,361,201776,2,0,P|62:345|18:329,1,77.999997619629,2|8,0:0|0:0,0:0:0:0:
216,244,202100,1,2,0:0:0:0:
315,344,202262,5,10,0:0:0:0:
235,381,202425,1,2,0:0:0:0:
167,318,202587,1,0,0:0:0:0:
392,376,202749,6,0,P|464:368|480:297,1,155.999995239258,6|8,3:2|0:0,0:0:0:0:
512,228,203235,1,0,3:0:0:0:
439,83,203398,2,0,L|426:159,1,77.999997619629,2|0,0:0|3:0,0:0:0:0:
365,198,203722,1,8,0:0:0:0:
266,85,203884,2,0,P|306:73|345:60,1,77.999997619629,0|0,0:0|3:0,0:0:0:0:
224,201,204208,2,0,P|283:254|289:367,1,155.999995239258,2|0,0:0|3:0,0:0:0:0:
479,295,204695,2,0,P|441:289|402:279,1,77.999997619629,2|0,0:0|0:0,0:0:0:0:
236,369,205019,2,0,P|198:378|159:384,1,77.999997619629,8|0,0:0|0:0,0:0:0:0:
38,271,205344,6,0,P|31:193|14:117,1,155.999995239258,4|8,3:0|0:0,0:0:0:0:
124,23,205830,1,2,3:2:0:0:
250,134,205992,1,0,0:0:0:0:
174,159,206154,5,8,0:0:0:0:
296,53,206317,1,0,0:0:0:0:
384,117,206479,1,0,3:0:0:0:
473,75,206641,2,0,P|486:38|488:0,1,77.999997619629,0|0,3:0|0:0,0:0:0:0:
401,206,206965,2,0,P|388:238|386:286,1,77.999997619629,2|8,0:2|0:0,0:0:0:0:
296,53,207290,2,0,P|264:40|216:38,1,77.999997619629,2|8,0:2|0:0,0:0:0:0:
0,146,207614,5,2,0:0:0:0:
0,146,207938,2,0,B|77:170|51:201|167:239,1,155.999995239258,6|8,3:2|0:0,0:0:0:0:
211,171,208425,1,0,3:0:0:0:
300,273,208587,2,0,L|286:396,1,77.999997619629,2|0,0:2|3:0,0:0:0:0:
41,362,208911,2,0,P|115:338|188:308,1,155.999995239258,8|0,0:0|3:0,0:0:0:0:
187,308,209560,5,8,0:0:0:0:
140,251,209722,1,0,3:0:0:0:
341,183,209884,5,2,0:0:0:0:
300,273,210046,1,0,3:0:0:0:
439,364,210208,5,8,0:0:0:0:
496,313,210371,1,2,0:0:0:0:
468,240,210533,2,0,B|395:218|416:197|311:157,1,155.999995239258,4|8,3:0|0:0,0:0:0:0:
264,103,211019,1,0,3:0:0:0:
264,103,211181,2,0,P|254:65|259:27,1,77.999997619629,2|8,0:0|0:0,0:0:0:0:
238,186,211506,2,0,P|200:197|163:210,1,77.999997619629,2|0,0:0|3:0,0:0:0:0:
352,81,211830,2,0,P|389:92|426:105,1,77.999997619629,2|0,3:2|0:0,0:0:0:0:
167,118,212154,2,0,P|94:89|31:18,1,155.999995239258,2|0,0:0|0:0,0:0:0:0:
0,198,212641,1,8,0:0:0:0:
0,198,212803,1,2,0:0:0:0:
0,198,213127,6,0,P|7:235|12:275,1,77.999997619629,4|0,3:0|0:0,0:0:0:0:
127,356,213452,2,0,P|90:363|49:368,1,77.999997619629,8|0,0:0|3:0,0:0:0:0:
99,225,213776,2,0,B|162:244|174:266|254:288,1,155.999995239258,0|8,0:0|0:0,0:0:0:0:
369,234,214262,1,2,0:0:0:0:
308,194,214425,1,0,3:0:0:0:
246,373,214587,2,0,L|420:335,1,155.999995239258,2|0,0:0|3:0,0:0:0:0:
480,178,215073,5,2,0:2:0:0:
480,178,215235,1,2,3:2:0:0:
379,251,215398,1,8,0:2:0:0:
478,277,215560,1,0,0:0:0:0:
410,116,215722,6,0,P|402:77|402:38,1,77.999997619629,4|0,3:0|0:0,0:0:0:0:
292,47,216046,2,0,P|299:85|299:124,1,77.999997619629,10|0,0:0|3:0,0:0:0:0:
200,257,216371,2,0,P|192:295|192:334,1,77.999997619629,2|8,0:0|0:0,0:0:0:0:
82,326,216695,2,0,P|89:287|89:248,1,77.999997619629,2|0,0:0|3:0,0:0:0:0:
0,167,217019,6,0,B|79:129|48:109|144:67,1,155.999995239258,0|2,3:0|0:0,0:0:0:0:
201,42,217506,2,0,B|216:78|216:78|201:113,1,77.999997619629,8|2,0:0|0:0,0:0:0:0:
137,167,217830,1,8,0:0:0:0:
313,364,218154,5,2,0:0:0:0:
381,334,218317,2,0,P|399:299|398:260,1,77.999997619629,6|0,3:2|0:0,0:0:0:0:
238,350,218641,2,0,P|164:325|87:311,1,155.999995239258,8|2,0:0|0:0,0:0:0:0:
17,337,219127,1,0,3:0:0:0:
208,252,219290,6,0,P|228:218|238:180,1,77.999997619629,10|0,0:0|0:0,0:0:0:0:
335,209,219614,2,0,L|312:54,1,155.999995239258,2|8,3:2|0:0,0:0:0:0:
247,16,220100,1,0,3:2:0:0:
125,143,220262,1,2,3:2:0:0:
57,88,220425,1,0,0:0:0:0:
95,9,220587,1,8,0:0:0:0:
161,64,220749,1,2,0:0:0:0:
38,182,220911,6,0,L|16:341,1,155.999995239258,4|8,3:0|0:0,0:0:0:0:
80,379,221398,1,0,3:0:0:0:
278,266,221560,1,0,0:0:0:0:
187,218,221722,1,8,0:0:0:0:
132,320,221884,2,0,P|168:307|206:297,1,77.999997619629,2|0,0:0|3:0,0:0:0:0:
292,155,222208,2,0,P|255:142|217:132,1,77.999997619629,2|0,3:2|0:0,0:0:0:0:
163,60,222533,1,2,0:0:0:0:
245,2,222695,1,8,0:0:0:0:
388,137,222857,2,0,B|370:193|386:227|369:294,1,155.999995239258,2|0,0:0|0:0,0:0:0:0:
425,353,223506,6,0,P|462:341|500:335,1,77.999997619629,4|0,3:0|0:0,0:0:0:0:
333,378,223830,2,0,P|295:366|257:360,1,77.999997619629,10|0,0:0|3:0,0:0:0:0:
457,265,224154,2,0,P|480:234|491:192,1,77.999997619629,2|0,0:0|3:0,0:0:0:0:
444,66,224479,1,8,0:0:0:0:
444,66,224803,2,0,B|359:46|385:14|297:-4,1,155.999995239258,0|8,3:0|0:0,0:0:0:0:
213,128,225290,5,2,3:2:0:0:
294,81,225452,1,2,0:2:0:0:
72,11,225614,1,0,3:2:0:0:
166,44,225776,1,8,0:0:0:0:
124,178,225938,5,2,0:0:0:0:
23,153,226100,2,0,P|13:115|0:78,1,77.999997619629,4|0,3:0|0:0,0:0:0:0:
236,202,226425,6,0,P|226:164|212:127,1,77.999997619629,10|0,0:0|3:0,0:0:0:0:
42,361,226749,6,0,P|32:323|18:286,1,77.999997619629,2|8,0:0|0:0,0:0:0:0:
330,328,227073,6,0,P|292:337|255:351,1,77.999997619629,2|0,0:0|3:0,0:0:0:0:
143,291,227398,1,2,3:2:0:0:
236,202,227560,1,2,0:0:0:0:
320,243,227884,5,8,0:0:0:0:
403,194,228046,1,2,0:0:0:0:
360,103,228208,1,8,0:0:0:0:
224,279,228371,1,2,0:2:0:0:
408,368,228533,5,2,0:2:0:0:
474,327,228695,2,0,L|499:96,1,214.500006546021,6|0,3:2|3:2,0:0:0:0:
419,36,229344,2,0,P|387:19|354:8,1,71.5000021820069,2|0,0:0|3:0,0:0:0:0:
269,64,229668,2,0,P|198:86|141:124,1,143.000004364014,10|0,0:0|3:0,0:0:0:0:
54,91,230154,2,0,L|39:20,1,71.5000021820069,2|8,0:0|0:0,0:0:0:0:
39,20,230479,1,0,3:0:0:0:
6,164,230641,5,2,0:2:0:0:
61,225,230803,1,2,0:2:0:0:
143,241,230965,1,10,0:2:0:0:
213,198,231127,1,0,0:0:0:0:
139,328,231290,6,0,P|67:350|5:378,1,143.000004364014,4|8,3:0|0:0,0:0:0:0:
218,342,231776,2,0,P|251:358|307:378,1,71.5000021820069,2|0,3:2|0:0,0:0:0:0:
370,324,232100,1,8,0:0:0:0:
315,134,232262,2,0,L|297:279,1,143.000004364014,2|0,0:0|3:0,0:0:0:0:
370,324,232749,2,0,P|403:310|470:290,1,71.5000021820069,0|2,0:0|0:0,0:0:0:0:
480,232,233073,1,8,0:0:0:0:
421,30,233235,5,2,0:2:0:0:
389,100,233398,1,10,0:2:0:0:
430,162,233560,2,0,P|463:150|498:140,1,71.5000021820069,2|0,0:2|0:0,0:0:0:0:
271,58,233884,5,4,3:0:0:0:
184,47,234046,1,2,0:0:0:0:
97,34,234208,1,10,0:0:0:0:
0,154,234533,5,2,0:0:0:0:
78,202,234695,1,2,3:2:0:0:
173,196,234857,1,10,0:0:0:0:
246,139,235019,1,0,0:0:0:0:
380,302,235181,5,0,3:0:0:0:
309,367,235344,2,0,B|246:352|235:334|171:316,1,143.000004364014,2|0,0:2|3:0,0:0:0:0:
47,370,235830,5,2,0:2:0:0:
78,202,235992,1,0,0:0:0:0:
18,283,236154,1,10,0:2:0:0:
50,106,236317,1,0,0:0:0:0:
159,236,236479,5,4,3:0:0:0:
241,252,236641,1,2,0:2:0:0:
321,219,236803,1,8,0:0:0:0:
389,279,236965,5,2,3:2:0:0:
461,220,237127,1,2,0:2:0:0:
460,127,237290,1,8,0:0:0:0:
254,5,237452,5,2,0:2:0:0:
212,63,237614,1,2,3:2:0:0:
247,126,237776,2,0,P|316:137|390:154,1,143.000004364014,2|0,3:2|0:0,0:0:0:0:
460,127,238262,2,0,B|477:93|477:93|451:36,1,71.5000021820069,8|0,0:0|0:0,0:0:0:0:
256,145,238587,5,10,0:2:0:0:
199,189,238749,1,2,0:2:0:0:
127,205,238911,1,2,0:2:0:0:
56,189,239073,2,0,P|45:116|-10:31,1,143.000004364014,6|8,3:2|0:0,0:0:0:0:
77,259,239560,2,0,P|66:294|64:329,1,71.5000021820069,2|0,3:2|0:0,0:0:0:0:
119,383,239884,1,0,3:0:0:0:
313,350,240046,2,0,P|319:259|288:196,1,143.000004364014,10|0,0:0|3:0,0:0:0:0:
165,16,240533,6,0,P|149:47|148:83,1,71.5000021820069,2|8,0:0|0:0,0:0:0:0:
189,145,240857,1,0,3:0:0:0:
348,145,241019,5,2,0:2:0:0:
396,87,241181,1,2,0:2:0:0:
365,21,241344,1,10,0:0:0:0:
290,12,241506,1,0,0:0:0:0:
189,145,241668,6,0,B|123:180|135:197|68:234,1,143.000004364014,4|8,3:0|0:0,0:0:0:0:
15,178,242154,2,0,P|8:144|-4:98,2,71.5000021820069,2|0|8,3:2|0:0|0:0,0:0:0:0:
115,304,242641,2,0,L|255:330,1,143.000004364014,2|0,0:0|3:0,0:0:0:0:
332,383,243290,6,0,P|335:347|344:312,1,71.5000021820069,2|8,0:0|0:0,0:0:0:0:
217,159,243614,2,0,P|213:194|204:229,1,71.5000021820069,2|8,0:0|0:0,0:0:0:0:
115,304,243938,2,0,P|79:299|44:290,1,71.5000021820069,2|0,0:0|0:0,0:0:0:0:
305,213,244262,5,4,3:0:0:0:
384,189,244425,1,2,0:2:0:0:
463,230,244587,1,10,0:2:0:0:
463,230,244911,5,2,0:2:0:0:
384,189,245073,1,2,0:0:0:0:
344,114,245235,1,10,0:0:0:0:
354,30,245398,1,0,0:0:0:0:
236,125,245560,5,2,3:2:0:0:
171,160,245722,2,0,P|116:118|116:49,1,143.000004364014,2|0,0:0|3:0,0:0:0:0:
335,271,246208,5,2,0:2:0:0:
285,196,246371,1,2,3:2:0:0:
335,271,246533,2,0,L|324:341,1,71.5000021820069,8|0,0:0|0:0,0:0:0:0:
138,361,246857,5,4,3:0:0:0:
72,304,247019,1,2,0:0:0:0:
108,224,247181,1,8,0:0:0:0:
236,125,247344,5,2,3:2:0:0:
290,54,247506,1,2,0:0:0:0:
216,0,247668,1,8,0:0:0:0:
51,24,247830,5,0,0:0:0:0:
21,89,247992,1,0,3:0:0:0:
76,138,248154,1,0,3:0:0:0:
146,82,248317,5,2,0:0:0:0:
146,82,248641,1,8,0:0:0:0:
146,82,248965,1,8,0:0:0:0:
160,175,249127,2,0,P|125:165|86:157,1,71.5000021820069,2|0,0:0|0:0,0:0:0:0:
27,229,249452,6,0,B|130:267|98:315|198:357,1,214.500006546021,6|0,3:2|3:2,0:0:0:0:
260,316,250100,2,0,L|273:222,2,71.5000021820069,2|0|10,0:0|0:0|0:0,0:0:0:0:
391,366,250749,2,0,P|425:355|459:345,1,71.5000021820069,2|2,3:2|0:0,0:0:0:0:
433,260,251073,2,0,P|398:270|364:280,1,71.5000021820069,8|0,0:0|3:0,0:0:0:0:
213,180,251398,1,2,0:0:0:0:
289,129,251560,1,0,3:0:0:0:
367,184,251722,1,8,0:0:0:0:
367,184,252046,6,0,P|421:142|394:56,1,143.000004364014,4|8,3:0|0:0,0:0:0:0:
339,12,252533,2,0,L|220:-8,1,71.5000021820069,2|0,3:2|0:0,0:0:0:0:
39,132,252857,1,8,0:0:0:0:
123,191,253019,2,0,L|144:49,1,143.000004364014,2|0,0:0|3:0,0:0:0:0:
89,0,253506,1,0,0:0:0:0:
222,110,253668,6,0,P|255:98|290:88,1,71.5000021820069,2|8,0:2|0:0,0:0:0:0:
98,265,253992,6,0,P|64:253|29:243,1,71.5000021820069,2|8,0:2|0:0,0:0:0:0:
250,187,254317,6,0,P|283:175|318:165,1,71.5000021820069,2|0,0:2|0:0,0:0:0:0:
100,176,254641,5,4,3:0:0:0:
44,122,254803,1,2,0:0:0:0:
41,48,254965,1,10,0:0:0:0:
250,187,255290,5,2,0:2:0:0:
248,267,255452,1,0,3:0:0:0:
201,332,255614,1,8,0:0:0:0:
133,367,255776,1,0,0:0:0:0:
20,266,255938,5,0,3:0:0:0:
100,176,256100,1,0,0:0:0:0:
20,266,256262,1,8,0:0:0:0:
297,378,256587,5,2,0:2:0:0:
398,353,256749,1,2,0:2:0:0:
367,224,256911,1,10,0:2:0:0:
497,190,257073,1,0,0:0:0:0:
450,270,257235,5,4,3:0:0:0:
419,148,257398,1,2,0:2:0:0:
389,28,257560,1,8,0:0:0:0:
314,77,257722,5,2,3:2:0:0:
297,170,257884,1,2,0:2:0:0:
282,260,258046,1,8,0:0:0:0:
203,229,258208,5,2,0:2:0:0:
193,156,258371,1,2,3:2:0:0:
183,83,258533,1,0,3:0:0:0:
108,94,258695,6,0,L|80:249,2,143.000004364014,0|8|8,0:0|0:0|0:0,0:0:0:0:
48,51,259506,1,2,0:0:0:0:
48,51,259668,1,2,0:0:0:0:
0,180,259830,6,0,P|100:203|126:306,1,214.500006546021,6|0,3:2|3:2,0:0:0:0:
70,355,260479,2,0,B|34:366|34:366|4:346,1,71.5000021820069,2|0,0:0|3:0,0:0:0:0:
180,368,260803,2,0,B|240:352|253:361|337:333,1,143.000004364014,8|0,0:0|3:0,0:0:0:0:
391,370,261290,2,0,P|443:327|409:258,1,143.000004364014,2|0,0:0|3:0,0:0:0:0:
284,153,261776,1,2,0:0:0:0:
252,232,261938,1,0,3:0:0:0:
335,263,262100,1,8,0:0:0:0:
368,182,262425,6,0,P|380:111|397:42,1,143.000004364014,4|8,3:0|0:0,0:0:0:0:
477,95,262911,2,0,P|468:129|463:164,1,71.5000021820069,2|0,3:2|0:0,0:0:0:0:
463,164,263235,1,8,0:0:0:0:
397,42,263398,2,0,P|362:33|327:28,1,71.5000021820069,2|0,0:0|3:0,0:0:0:0:
235,0,263722,2,0,L|255:141,1,143.000004364014,0|0,3:0|0:0,0:0:0:0:
185,205,264208,1,10,0:0:0:0:
185,205,264371,2,0,P|102:148|125:85,1,143.000004364014,2|2,0:0|0:0,0:0:0:0:
133,36,265019,5,4,3:0:0:0:
48,11,265181,1,2,0:0:0:0:
133,36,265344,1,10,0:0:0:0:
255,141,265668,5,2,0:2:0:0:
363,116,265830,1,2,3:2:0:0:
255,141,265992,1,10,0:0:0:0:
363,116,266154,1,0,0:0:0:0:
285,243,266317,5,0,3:0:0:0:
180,218,266479,1,2,0:0:0:0:
285,243,266641,1,10,0:0:0:0:
366,374,266965,5,2,0:2:0:0:
495,351,267127,1,2,3:2:0:0:
366,374,267290,1,10,0:2:0:0:
495,351,267452,1,0,0:0:0:0:
360,256,267614,5,4,3:0:0:0:
414,199,267776,1,0,0:0:0:0:
485,232,267938,1,8,0:0:0:0:
275,367,268100,5,0,3:2:0:0:
206,335,268262,1,2,0:0:0:0:
228,262,268425,1,8,0:0:0:0:
144,167,268587,5,2,0:2:0:0:
73,153,268749,1,2,3:2:0:0:
23,215,268911,1,0,3:2:0:0:
54,284,269073,1,2,0:0:0:0:
144,167,269398,5,10,0:2:0:0:
73,153,269560,1,2,0:2:0:0:
23,215,269722,1,8,0:0:0:0:
54,284,269884,1,0,0:0:0:0:
144,167,270208,6,0,B|213:137|215:122|280:91,1,155.999995239258,0|2,3:0|0:0,0:0:0:0:
279,91,271506,1,0,0:0:0:0:
340,148,271992,6,0,L|335:186,1,38.9999988098145,2|0,0:0|0:0,0:0:0:0:
391,243,272317,2,0,P|429:230|469:224,1,77.999997619629,0|2,0:0|0:0,0:0:0:0:
466,224,272803,2,0,L|485:63,1,155.999995239258
415,8,273776,1,2,0:0:0:0:
324,41,274749,1,2,0:0:0:0:
324,41,274911,1,0,0:0:0:0:
244,119,275398,6,0,B|167:96|197:65|101:35,1,155.999995239258,0|2,0:0|0:0,0:0:0:0:
14,18,276695,2,0,L|30:133,1,116.999996429443,0|2,0:0|0:0,0:0:0:0:
34,139,277344,2,0,L|71:151,1,38.9999988098145
123,223,277830,5,2,0:0:0:0:
123,223,277992,2,0,P|58:254|45:334,1,155.999995239258
103,376,278965,2,0,B|188:380|163:314|270:325,1,155.999995239258,2|0,0:0|0:0,0:0:0:0:
309,374,279938,1,2,0:0:0:0:
309,374,280100,1,0,0:0:0:0:
378,337,280587,6,0,L|356:161,1,155.999995239258,0|2,0:0|0:0,0:0:0:0:
358,182,281884,1,0,0:0:0:0:
288,218,282371,2,0,L|238:210,1,38.9999988098145,2|0,0:0|0:0,0:0:0:0:
186,253,282695,2,0,P|149:240|110:232,1,77.999997619629,0|2,0:0|0:0,0:0:0:0:
111,232,283181,2,0,L|90:62,1,155.999995239258
144,22,284154,2,0,P|223:19|239:84,1,155.999995239258,2|0,0:0|0:0,0:0:0:0:
182,131,285127,1,2,0:0:0:0:
182,131,285290,1,0,0:0:0:0:
263,216,285776,6,0,B|332:192|339:173|413:149,1,155.999995239258,0|2,0:0|0:0,0:0:0:0:
478,209,287073,2,0,L|454:327,1,116.999996429443,0|2,0:0|0:0,0:0:0:0:
458,329,287722,2,0,L|421:342,1,38.9999988098145
344,384,288208,5,2,0:0:0:0:
344,384,288371,2,0,L|323:224,1,155.999995239258
256,192,289344,2,0,P|200:184|125:270,1,155.999995239258,2|0,0:0|0:0,0:0:0:0:
121,322,290317,1,2,0:0:0:0:
121,322,290479,2,0,L|-8:355,1,116.999996429443
256,192,291614,5,2,0:2:0:0:
256,192,292755,1,2,0:2:0:0:
306,184,292918,1,2,0:2:0:0:
355,173,293081,1,2,0:2:0:0:
256,192,293407,1,2,0:2:0:0:
256,192,294534,1,2,0:2:0:0:
256,192,295472,5,2,0:2:0:0:
256,192,295659,1,2,0:2:0:0:
