osu file format v14

[General]
AudioFilename: audio.mp3
AudioLeadIn: 0
PreviewTime: 11519
Countdown: 0
SampleSet: Soft
StackLeniency: 1
Mode: 0
LetterboxInBreaks: 0
WidescreenStoryboard: 1

[Editor]
DistanceSpacing: 1.5
BeatDivisor: 4
GridSize: 4
TimelineZoom: 1

[Metadata]
Title:Shiki no Uta (TV Size)
TitleUnicode:四季ノ唄 (TV Size)
Artist:MINMI
ArtistUnicode:MINMI
Creator:deetz
Version:Normal
Source:サムライチャンプルー
Tags:nujabes samurai champloo
BeatmapID:1693516
BeatmapSetID:803234

[Difficulty]
HPDrainRate:4
CircleSize:3
OverallDifficulty:4
ApproachRate:5
SliderMultiplier:1.4
SliderTickRate:1

[Events]
//Background and Video events
0,0,"XsJ8bpk.jpg",0,0
//Break Periods
//Storyboard Layer 0 (Background)
//Storyboard Layer 1 (Fail)
//Storyboard Layer 2 (Pass)
//Storyboard Layer 3 (Foreground)
//Storyboard Sound Samples

[TimingPoints]
6898,648.648648648649,4,2,0,40,1,0
53600,-100,4,2,0,40,0,1
73384,-100,4,2,0,40,0,0
74357,-100,4,2,0,40,0,1
94789,-100,4,2,0,40,0,0
95114,-100,4,2,0,40,0,1
95762,-100,4,2,0,40,0,0

[Colours]
Combo1 : 255,94,55
Combo2 : 173,255,95
Combo3 : 17,254,176
Combo4 : 255,88,100

[HitObjects]
65,117,6897,6,0,P|109:103|162:109,1,70,4|8,0:1|0:1,0:0:0:0:
219,161,7546,2,0,L|279:171,1,35,0|8,0:1|0:1,0:0:0:0:
298,140,7870,1,8,0:1:0:0:
341,235,8195,6,0,P|391:215|432:194,1,70,0|8,0:0|0:1,0:0:0:0:
458,215,8681,1,2,0:0:0:0:
492,174,8843,2,0,P|479:141|465:109,1,70,2|8,0:2|0:1,0:0:0:0:
363,83,9492,5,4,0:3:0:0:
260,62,9816,2,0,L|153:79,1,105,8|8,0:1|0:1,0:0:0:0:
53,198,10789,6,0,L|64:240,1,35,4|2,0:3|0:1,0:0:0:0:
89,333,11276,2,0,P|153:343|177:349,1,70,2|2,0:1|0:2,0:0:0:0:
204,319,11762,1,2,0:2:0:0:
251,296,11925,1,2,0:2:0:0:
298,274,12087,6,0,P|335:235|391:220,2,105,4|4|8,0:1|0:3|0:1,0:0:0:0:
204,225,13384,2,0,P|213:168|233:133,1,70,4|8,0:3|0:1,0:0:0:0:
293,83,14033,2,0,P|350:92|385:112,1,70,0|8,0:0|0:1,0:0:0:0:
412,189,14681,6,0,P|425:264|433:321,2,105,4|4|0,0:3|0:3|0:1,0:0:0:0:
333,259,15979,2,0,L|285:260,1,35,4|2,0:3|0:1,0:0:0:0:
235,344,16465,1,2,0:1:0:0:
136,307,16789,2,0,L|88:308,2,35,2|2|2,0:2|0:2|0:2,0:0:0:0:
176,273,17276,6,0,P|201:224|188:151,1,105,4|4,0:2|0:3,0:0:0:0:
45,139,18249,2,0,P|34:122|25:96,1,35,8|4,0:1|0:3,0:3:0:0:
24,56,18573,2,0,P|81:53|101:59,1,70,4|8,0:3|0:1,0:0:0:0:
146,146,19222,2,0,P|203:149|223:143,1,70,0|8,0:0|0:1,0:0:0:0:
267,141,19708,1,0,0:1:0:0:
310,170,19870,6,0,P|364:160|430:155,2,105,4|4|0,0:3|0:3|0:1,0:0:0:0:
217,218,21168,2,0,L|211:262,1,35,4|2,0:3|0:1,0:0:0:0:
276,335,21654,1,2,0:1:0:0:
380,343,21979,2,0,L|386:299,1,35,2|2,0:2|0:2,0:0:0:0:
427,277,22303,1,2,0:2:0:0:
461,237,22465,6,0,P|479:187|480:128,2,105,4|4|8,0:2|0:3|0:1,0:0:0:0:
369,184,23762,2,0,P|371:131|389:82,1,105,4|4,0:3|0:3,0:0:0:0:
247,13,24735,1,8,0:1:0:0:
234,64,24898,1,4,0:3:0:0:
224,115,25060,6,0,P|175:124|150:122,1,70,4|8,0:3|0:1,0:0:0:0:
95,36,25708,2,0,P|60:35|26:43,1,70,0|0,0:1|0:1,0:0:0:0:
17,147,26357,2,0,L|10:186,1,35,4|2,0:3|0:1,0:0:0:0:
111,211,26843,1,2,0:1:0:0:
101,316,27168,2,0,L|108:355,2,35,2|2|2,0:2|0:2|0:2,0:0:0:0:
152,306,27654,6,0,P|200:303|269:306,2,105,4|4|8,0:2|0:3|0:1,0:0:0:0:
98,214,28952,1,4,0:3:0:0:
143,119,29276,1,0,0:1:0:0:
245,98,29600,2,0,P|324:90|341:93,1,70,8|4,0:1|0:3,0:0:0:0:
417,105,30249,6,0,P|438:143|440:178,1,70,8|0,0:1|0:1,0:0:0:0:
410,210,30735,2,0,P|388:248|386:283,1,70,8|8,0:1|0:1,0:0:0:0:
418,314,31222,1,4,0:3:0:0:
328,368,31546,2,0,L|284:381,2,35,4|2|2,0:3|0:2|0:2,0:0:0:0:
314,317,32033,1,2,0:2:0:0:
269,288,32195,2,0,L|256:244,2,35,2|2|2,0:2|0:2|0:0,0:0:0:0:
178,340,32843,6,0,P|152:300|146:191,1,140,4|0,0:2|0:1,0:0:0:0:
205,126,33816,1,8,0:1:0:0:
140,44,34141,2,0,P|88:45|52:65,1,70,4|8,0:3|0:1,0:0:0:0:
5,132,34789,2,0,P|6:184|26:220,1,70,0|8,0:1|0:1,0:0:0:0:
52,234,35276,1,0,0:1:0:0:
91,268,35438,6,0,L|196:323,2,105,4|4|0,0:3|0:3|0:1,0:0:0:0:
180,213,36735,2,0,L|221:200,1,35,4|2,0:3|0:1,0:0:0:0:
213,97,37222,1,2,0:1:0:0:
316,115,37546,2,0,L|357:102,2,35,8|0|2,0:1|0:1|0:3,0:0:0:0:
310,167,38033,6,0,P|302:214|310:252,1,70,4|8,0:0|0:1,0:0:0:0:
401,276,38681,2,0,P|403:310|395:344,1,70,0|8,0:1|0:1,0:0:0:0:
290,355,39330,1,4,0:3:0:0:
189,326,39654,1,8,0:1:0:0:
88,297,39979,1,0,0:1:0:0:
43,209,40303,5,8,0:1:0:0:
43,209,40465,2,0,P|55:150|65:118,1,70,2|0,0:3|0:3,0:0:0:0:
100,109,40952,1,8,0:1:0:0:
186,168,41276,2,0,P|245:156|277:146,1,70,4|0,0:3|0:0,0:0:0:0:
317,69,41925,2,0,L|359:84,1,35,4|2,0:3|0:1,0:0:0:0:
453,95,42411,1,2,0:1:0:0:
393,181,42735,2,0,L|399:236,1,35,8|0,0:1|0:1,0:0:0:0:
435,251,43060,1,2,0:3:0:0:
450,301,43222,6,0,P|421:330|362:343,1,70,4|8,0:2|0:1,0:0:0:0:
342,342,43708,1,4,0:3:0:0:
259,276,44033,2,0,L|207:291,1,35,8|8,0:1|0:1,0:0:0:0:
173,292,44357,6,0,P|155:252|164:198,1,70,0|0,0:1|0:1,0:0:0:0:
198,196,44843,1,8,0:1:0:0:
241,166,45006,2,0,P|258:126|249:72,1,70,4|8,0:3|0:1,0:0:0:0:
224,60,45492,1,8,0:1:0:0:
173,44,45654,2,0,P|106:48|71:53,1,70,0|8,0:1|0:1,0:0:0:0:
74,149,46303,2,0,P|141:145|176:140,1,70,4|8,0:3|0:1,0:0:0:0:
247,183,46952,1,4,0:3:0:0:
247,183,47114,6,0,L|285:201,1,35,4|2,0:3|0:1,0:0:0:0:
360,131,47600,2,0,L|398:199,1,70,2|8,0:1|0:1,0:0:0:0:
446,190,48087,2,0,P|465:236|462:268,1,70,4|4,0:3|0:2,0:0:0:0:
425,352,48735,1,8,0:1:0:0:
425,352,48898,2,0,P|379:371|347:368,1,70,4|8,0:3|0:1,0:0:0:0:
312,347,49384,1,8,0:1:0:0:
269,315,49546,6,0,P|218:310|167:312,1,70,0|0,0:1|0:1,0:0:0:0:
162,271,50033,1,8,0:1:0:0:
161,219,50195,2,0,P|212:214|263:216,1,70,4|8,0:3|0:1,0:0:0:0:
264,173,50681,1,8,0:1:0:0:
290,127,50843,2,0,P|279:71|274:26,1,70,0|8,0:1|0:1,0:0:0:0:
372,12,51492,2,0,P|383:68|388:113,1,70,4|8,0:3|0:1,0:0:0:0:
439,176,52141,1,4,0:3:0:0:
439,176,52303,6,0,L|444:220,1,35,4|2,0:3|0:1,0:0:0:0:
342,241,52789,1,2,0:1:0:0:
244,281,53114,2,0,L|249:325,1,35,2|2,0:2|0:2,0:0:0:0:
203,344,53438,1,2,0:2:0:0:
150,347,53600,6,0,P|85:343|55:333,1,70,4|8,0:1|0:1,0:0:0:0:
41,306,54087,1,4,0:3:0:0:
122,239,54411,1,8,0:1:0:0:
133,187,54573,1,8,0:1:0:0:
142,135,54735,2,0,P|137:74|133:46,1,70,4|4,0:3|0:3,0:0:0:0:
33,41,55384,2,0,P|38:102|42:130,1,70,0|8,0:1|0:1,0:0:0:0:
32,219,56033,1,4,0:3:0:0:
32,219,56195,6,0,P|62:256|114:279,2,105,4|4|0,0:3|0:3|0:1,0:0:0:0:
125,170,57492,2,0,P|153:172|186:167,1,35,4|2,0:3|0:1,0:0:0:0:
241,105,57979,1,2,0:1:0:0:
314,179,58303,2,0,P|342:181|375:176,1,35,2|2,0:2|0:2,0:0:0:0:
394,155,58627,1,2,0:2:0:0:
441,132,58789,6,0,P|469:182|472:218,1,70,4|8,0:1|0:1,0:0:0:0:
450,242,59276,2,0,P|464:297|457:333,1,70,4|8,0:3|0:1,0:0:0:0:
417,335,59762,2,0,L|370:348,1,35,8|4,0:1|0:3,0:0:0:0:
341,312,60087,2,0,P|290:294|211:291,2,105,4|0|8,0:3|0:1|0:1,0:0:0:0:
316,209,61384,6,0,P|303:145|305:125,1,70,4|8,0:3|0:1,0:0:0:0:
335,99,61870,1,4,0:3:0:0:
249,37,62195,2,0,L|218:53,1,35,8|0,0:1|0:0,0:0:0:0:
159,140,62681,5,4,0:3:0:0:
110,119,62843,2,0,P|85:169|79:201,1,70,2|2,0:1|0:1,0:0:0:0:
163,248,63492,2,0,L|184:302,1,35,2|2,0:0|0:0,0:0:0:0:
226,294,63816,1,2,0:0:0:0:
260,333,63979,6,0,P|208:355|149:367,2,105,4|0|8,0:1|0:1|0:1,0:0:0:0:
305,238,65276,2,0,P|352:248|386:262,1,70,4|8,0:3|0:1,0:0:0:0:
442,177,65925,2,0,P|395:167|361:153,1,70,0|8,0:1|0:1,0:0:0:0:
287,100,66573,5,4,0:3:0:0:
212,26,66898,1,8,0:1:0:0:
107,17,67222,1,0,0:1:0:0:
18,73,67546,1,0,0:1:0:0:
97,141,67870,6,0,L|107:183,1,35,4|2,0:3|0:1,0:0:0:0:
39,257,68357,1,2,0:1:0:0:
136,296,68681,2,0,L|126:338,1,35,2|2,0:0|0:0,0:0:0:0:
170,360,69006,1,2,0:0:0:0:
221,369,69168,6,0,P|272:362|332:346,2,105,4|4|8,0:1|0:3|0:1,0:0:0:0:
261,271,70465,2,0,P|302:261|336:258,1,70,4|8,0:3|0:1,0:0:0:0:
434,270,71114,1,8,0:1:0:0:
486,179,71438,1,0,0:1:0:0:
438,85,71762,6,0,P|404:56|341:34,2,105,4|4|0,0:0|0:3|0:3,0:0:0:0:
363,160,73060,1,4,0:3:0:0:
363,160,73222,2,0,P|327:175|289:179,1,70,2|2,0:1|0:1,0:0:0:0:
218,108,73870,1,2,0:3:0:0:
167,93,74033,1,8,0:3:0:0:
117,76,74195,1,4,0:3:0:0:
66,60,74357,6,0,P|43:115|35:154,1,70,4|8,0:1|0:1,0:0:0:0:
110,203,75006,2,0,P|133:258|141:297,1,70,2|8,0:3|0:1,0:0:0:0:
143,372,75654,1,4,0:3:0:0:
245,350,75979,1,8,0:1:0:0:
295,258,76303,2,0,P|334:247|394:239,1,70,0|8,0:1|0:1,0:0:0:0:
403,208,76789,1,0,0:1:0:0:
443,174,76952,6,0,P|449:122|453:57,2,105,4|4|0,0:3|0:3|0:1,0:0:0:0:
491,267,78249,2,0,P|487:322|484:348,1,70,4|0,0:3|0:0,0:0:0:0:
384,367,78898,2,0,P|388:312|391:286,1,70,0|2,0:0|0:2,0:0:0:0:
338,205,79546,5,4,0:2:0:0:
243,158,79870,1,8,0:1:0:0:
141,185,80195,1,2,0:3:0:0:
92,277,80519,1,8,0:1:0:0:
182,330,80843,6,0,P|211:300|224:187,1,140,4|0,0:3|0:0,0:0:0:0:
133,163,81816,1,8,0:1:0:0:
161,61,82141,6,0,P|208:55|272:55,2,105,4|4|0,0:3|0:3|0:1,0:0:0:0:
61,26,83438,2,0,P|15:49|0:73,1,70,4|0,0:3|0:0,0:0:0:0:
73,143,84087,2,0,P|56:191|63:219,1,70,0|2,0:0|0:2,0:0:0:0:
160,237,84735,5,4,0:2:0:0:
263,219,85060,1,8,0:1:0:0:
333,296,85384,1,2,0:3:0:0:
435,270,85709,1,8,0:1:0:0:
471,171,86033,6,0,P|475:113|471:80,1,70,4|8,0:3|0:1,0:0:0:0:
375,65,86681,2,0,P|371:123|375:156,1,70,0|8,0:1|0:1,0:0:0:0:
324,156,87168,1,0,0:1:0:0:
277,179,87330,6,0,P|222:171|161:167,2,105,4|4|0,0:3|0:3|0:1,0:0:0:0:
373,136,88627,2,0,P|428:140|454:143,1,70,4|0,0:3|0:0,0:0:0:0:
473,243,89276,2,0,P|418:239|392:236,1,70,0|2,0:0|0:2,0:0:0:0:
334,316,89924,5,4,0:2:0:0:
252,249,90248,1,8,0:1:0:0:
151,279,90573,1,2,0:3:0:0:
64,220,90897,1,8,0:1:0:0:
60,115,91221,6,0,P|90:86|203:73,1,140,4|0,0:3|0:0,0:0:0:0:
255,144,92194,1,8,0:1:0:0:
298,48,92519,6,0,P|345:42|409:42,2,105,4|4|0,0:3|0:3|0:1,0:0:0:0:
255,144,93816,2,0,P|218:165|203:176,1,35,4|2,0:3|0:1,0:0:0:0:
181,256,94303,2,0,P|135:259|87:257,1,70,2|2,0:1|0:2,0:0:0:0:
71,224,94789,2,0,P|68:178|70:130,1,70,2|4,0:2|0:2,0:0:0:0:
256,192,95438,12,0,97708,0:1:0:0:
