osu file format v14

[General]
AudioFilename: audio.mp3
AudioLeadIn: 0
PreviewTime: 160748
Countdown: 0
SampleSet: Soft
StackLeniency: 0.8
Mode: 0
LetterboxInBreaks: 0
WidescreenStoryboard: 0

[Editor]
Bookmarks: 21142,41568,61993,82419,102844,123270,143695,164121,184546,204972
DistanceSpacing: 1.4
BeatDivisor: 4
GridSize: 8
TimelineZoom: 1

[Metadata]
Title:Em Moi La Nguoi Yeu Anh (Acoustic Version)
TitleUnicode:Em Mới Là Người Yêu Anh (Acoustic Version)
Artist:MIN
ArtistUnicode:MIN
Creator:Smug Nanachi
Version:Unrequited Love
Source:
Tags:LMT SmugNa EMLNYA piano vietnamese
BeatmapID:1802962
BeatmapSetID:861890

[Difficulty]
HPDrainRate:5
CircleSize:5
OverallDifficulty:6
ApproachRate:7
SliderMultiplier:1.4
SliderTickRate:1

[Events]
//Background and Video events
0,0,"bg.jpg",0,0
//Break Periods
2,102839,122348
//Storyboard Layer 0 (Background)
//Storyboard Layer 1 (Fail)
//Storyboard Layer 2 (Pass)
//Storyboard Layer 3 (Foreground)
//Storyboard Sound Samples

[TimingPoints]
695,638.297872340426,4,2,1,30,1,0
21120,-133.333333333333,4,2,1,30,0,0
25429,-133.333333333333,4,2,1,5,0,0
25588,-133.333333333333,4,2,1,30,0,0
41546,-111.111111111111,4,2,1,40,0,0
50960,-111.111111111111,4,2,1,5,0,0
51120,-111.111111111111,4,2,1,40,0,0
56067,-111.111111111111,4,2,1,5,0,0
56226,-111.111111111111,4,2,1,40,0,0
61971,-90.9090909090909,4,2,1,60,0,0
123248,-133.333333333333,4,2,1,30,0,0
143673,-111.111111111111,4,2,1,50,0,0
164099,-90.9090909090909,4,2,1,60,0,0
203354,774.193548387097,4,2,1,60,1,0
203741,666.666666666667,4,2,1,40,1,0
204407,608.210846426761,4,2,1,40,1,0
205015,652.173913043478,4,2,1,30,1,0
205015,-133.333333333333,4,2,1,30,0,0
207297,633.245382585752,4,2,1,30,1,0
207297,-133.333333333333,4,2,1,30,0,0
207613,633.245382585752,4,2,1,30,1,0
209829,693.64161849711,4,2,1,30,1,0
210175,634.920634920635,4,2,1,30,1,0
210175,-133.333333333333,4,2,1,30,0,0
214936,683.760683760684,4,2,1,30,1,0
215277,641.711229946524,4,2,1,40,1,0
215277,-133.333333333333,4,2,1,40,0,0
216881,625,4,2,1,30,1,0
216881,-222.222222222222,4,2,1,30,0,0
217818,645.161290322581,4,2,1,30,1,0
219108,636.604774535809,4,2,1,30,1,0
219108,-153.846153846154,4,2,1,30,0,0
220381,681.818181818182,4,2,1,30,1,0
220381,-181.818181818182,4,2,1,30,0,0
221403,666.666666666667,4,2,1,30,1,0
222736,740.740740740741,4,2,1,30,1,0
223106,754.716981132075,4,2,1,30,1,0
223106,-181.818181818182,4,2,1,30,0,0
224615,759.493670886076,4,2,1,30,1,0
224615,-181.818181818182,4,2,1,30,0,0
225754,952.380952380952,4,2,1,30,1,0
226230,816.326530612245,4,2,1,30,1,0
227862,-100,4,2,1,25,0,0
229495,-100,4,2,1,20,0,0
231127,-100,4,2,1,15,0,0
231944,-100,4,2,1,10,0,0
232760,-100,4,2,1,5,0,0

[Colours]
Combo1 : 128,128,192
Combo2 : 255,128,128
Combo3 : 255,255,128
SliderBorder : 100,200,200

[HitObjects]
64,206,21120,6,0,P|115:213|162:237,1,105.000004005432,2|0,0:1|0:0,0:0:0:0:
162,237,22397,6,0,P|166:262|165:289,1,52.5000020027161,2|2,0:0|0:0,0:0:0:0:
229,207,23035,2,0,P|245:227|258:250,1,52.5000020027161,2|2,0:0|0:0,0:0:0:0:
272,147,23673,2,0,P|296:156|318:170,1,52.5000020027161,2|2,0:0|0:0,0:0:0:0:
279,73,24312,2,0,P|304:68|331:69,1,52.5000020027161,2|2,0:0|0:0,0:0:0:0:
406,112,24950,6,0,P|390:142|395:199,1,78.7500030040742,2|0,0:0|0:0,0:0:0:0:
392,221,25588,1,2,0:0:0:0:
392,221,26226,6,0,P|417:267|423:318,1,105.000004005432,2|0,0:1|0:0,0:0:0:0:
424,319,27503,6,0,P|398:326|378:342,1,52.5000020027161,2|2,0:0|0:0,0:0:0:0:
352,246,28141,2,0,P|333:264|323:289,1,52.5000020027161,2|2,0:0|0:0,0:0:0:0:
253,218,28780,2,0,P|246:243|250:269,1,52.5000020027161,2|2,0:0|0:0,0:0:0:0:
153,243,29418,2,0,P|160:268|176:288,1,52.5000020027161,2|2,0:0|0:0,0:0:0:0:
248,352,30056,5,2,0:0:0:0:
47,358,30695,1,2,0:0:0:0:
47,358,31333,6,0,P|22:325|47:257,1,105.000004005432,2|0,0:1|0:0,0:0:0:0:
35,266,32609,6,0,L|-13:214,1,52.5000020027161,2|2,0:0|0:0,0:0:0:0:
98,220,33248,2,0,L|82:150,1,52.5000020027161,2|2,0:0|0:0,0:0:0:0:
175,211,33886,2,0,L|196:143,1,52.5000020027161,2|2,0:0|0:0,0:0:0:0:
246,242,34524,2,0,L|298:194,1,52.5000020027161,2|2,0:0|0:0,0:0:0:0:
333,148,35163,5,2,0:0:0:0:
511,228,35801,1,2,0:0:0:0:
511,228,36439,6,0,P|471:229|437:248,4,78.7500030040742,2|2|2|2|2,0:1|0:0|0:0|0:0|0:0,0:0:0:0:
225,213,39950,6,0,P|230:134|257:60,1,157.500006008148,2|0,0:0|0:0,0:0:0:0:
257,61,41546,6,0,L|330:54,2,62.9999980773926,2|0|0,0:1|0:0|0:0,0:0:0:0:
257,61,42822,6,0,L|251:139,1,62.9999980773926,2|2,0:0|0:0,0:0:0:0:
181,192,43460,2,0,L|259:198,1,62.9999980773926,2|2,0:0|0:0,0:0:0:0:
312,268,44099,2,0,L|318:190,1,62.9999980773926,2|2,0:0|0:0,0:0:0:0:
388,137,44737,2,0,L|310:131,1,62.9999980773926,2|2,0:0|0:0,0:0:0:0:
257,60,45375,5,2,0:0:0:0:
312,268,46014,1,2,0:0:0:0:
312,268,46652,6,0,P|281:262|243:268,2,62.9999980773926,2|0|0,0:1|0:0|0:0,0:0:0:0:
312,268,47929,6,0,L|374:260,1,62.9999980773926,2|2,0:0|0:0,0:0:0:0:
452,195,48567,2,0,L|389:187,1,62.9999980773926,2|2,0:0|0:0,0:0:0:0:
271,140,49205,2,0,L|333:132,1,62.9999980773926,2|2,0:0|0:0,0:0:0:0:
411,67,49843,2,0,L|348:59,1,62.9999980773926,2|2,0:0|0:0,0:0:0:0:
214,42,50482,6,0,P|263:74|268:125,1,94.499997116089,2|0,0:0|0:0,0:0:0:0:
271,140,51120,2,0,L|258:216,1,62.9999980773926,2|0,0:0|0:0,0:0:0:0:
235,280,51758,6,0,P|210:260|181:247,2,62.9999980773926,2|0|0,0:1|0:0|0:0,0:0:0:0:
307,309,52716,5,2,0:0:0:0:
281,237,53035,2,0,L|218:294,1,62.9999980773926,2|2,0:0|0:0,0:0:0:0:
341,190,53673,2,0,L|267:147,1,62.9999980773926,2|2,0:0|0:0,0:0:0:0:
404,232,54312,2,0,L|421:148,1,62.9999980773926,2|2,0:0|0:0,0:0:0:0:
383,304,54950,2,0,L|467:294,1,62.9999980773926,2|2,0:0|0:0,0:0:0:0:
367,380,55588,6,0,L|268:369,1,94.499997116089,2|0,0:0|0:0,0:0:0:0:
233,364,56226,1,2,0:0:0:0:
206,160,56865,6,0,P|182:201|146:231,3,94.499997116089,2|2|2|2,0:1|0:0|0:0|0:0,0:0:0:0:
245,93,58780,6,0,P|286:134|315:203,1,125.999996154785,2|2,0:0|0:1,0:0:0:0:
313,195,60056,5,2,0:0:0:0:
285,270,60375,2,0,P|240:260|209:261,1,62.9999980773926,2|0,0:0|0:0,0:0:0:0:
388,167,61014,2,0,P|378:122|379:91,1,62.9999980773926,2|0,0:0|0:0,0:0:0:0:
377,105,61971,6,0,B|458:127,1,77.0000023498536,2|2,0:1|0:0,0:0:0:0:
354,205,62609,1,2,0:0:0:0:
217,100,62929,1,2,0:1:0:0:
147,178,63248,2,0,B|229:168|206:243|305:236,1,154.000004699707,2|0,0:0|0:0,0:0:0:0:
309,82,64205,6,0,P|292:116|289:162,1,77.0000023498536,2|2,0:0|0:1,0:0:0:0:
396,252,64843,1,2,0:0:0:0:
407,168,65163,1,2,0:0:0:0:
171,199,65482,2,0,P|125:182|73:175,1,77.0000023498536,2|2,0:1|0:0,0:0:0:0:
127,98,66120,1,2,0:0:0:0:
310,233,66439,2,0,P|272:241|236:255,1,77.0000023498536,2|2,0:1|0:0,0:0:0:0:
315,156,67077,6,0,P|317:117|328:81,2,77.0000023498536,2|2|2,0:1|0:0|0:0,0:0:0:0:
440,51,68035,1,2,0:1:0:0:
366,5,68354,2,0,B|280:-23|298:37|213:18,1,154.000004699707,2|0,0:0|0:0,0:0:0:0:
171,119,69312,6,0,P|218:98|258:96,1,77.0000023498536,2|2,0:0|0:1,0:0:0:0:
346,152,69950,1,2,0:0:0:0:
330,68,70269,1,2,0:0:0:0:
458,178,70588,2,0,P|472:220|473:269,1,77.0000023498536,2|2,0:1|0:0,0:0:0:0:
362,239,71226,1,2,0:0:0:0:
234,384,71546,1,2,0:1:0:0:
340,350,71865,1,2,0:0:0:0:
161,280,72184,6,0,P|128:300|50:323,2,115.50000352478,2|2|2,0:1|0:0|0:0,0:0:0:0:
340,350,73780,2,0,P|307:330|229:307,2,115.50000352478,2|2|2,0:0|0:0|0:1,0:0:0:0:
432,335,75056,1,0,0:0:0:0:
452,245,75375,1,0,0:1:0:0:
358,193,75695,1,0,0:1:0:0:
361,271,76014,6,0,P|323:261|293:238,1,77.0000023498536,2|2,0:0|0:0,0:0:0:0:
424,148,76652,2,0,P|393:124|356:115,1,77.0000023498536,2|2,0:0|0:0,0:0:0:0:
161,261,77290,6,0,P|139:208|144:151,2,115.50000352478,2|2|2,0:1|0:0|0:1,0:0:0:0:
161,261,79524,1,2,0:0:0:0:
400,384,79843,6,0,P|386:321|395:216,1,154.000004699707,2|2,0:1|0:0,0:0:0:0:
195,92,80801,1,2,0:1:0:0:
186,168,81120,2,0,P|151:184|114:193,2,77.0000023498536,2|2|2,0:0|0:0|0:0,0:0:0:0:
331,167,82397,6,0,P|296:150|258:142,1,77.0000023498536,2|2,0:1|0:0,0:0:0:0:
199,240,83035,1,2,0:0:0:0:
274,68,83354,1,2,0:1:0:0:
410,144,83673,2,0,P|400:213|306:246,1,154.000004699707,2|0,0:0|0:0,0:0:0:0:
512,295,84631,6,0,L|428:276,1,77.0000023498536,2|2,0:0|0:1,0:0:0:0:
330,250,85269,1,2,0:0:0:0:
298,326,85588,1,2,0:0:0:0:
258,133,85907,2,0,P|265:90|284:43,1,77.0000023498536,2|2,0:1|0:0,0:0:0:0:
358,93,86546,1,2,0:0:0:0:
229,276,86865,2,0,P|222:233|203:186,1,77.0000023498536,2|2,0:1|0:0,0:0:0:0:
74,244,87503,6,0,P|35:241|0:226,2,77.0000023498536,2|2|2,0:1|0:0|0:0,0:0:0:0:
197,128,88460,1,2,0:1:0:0:
114,119,88780,2,0,B|110:205|171:180|155:263,1,154.000004699707,2|0,0:0|0:0,0:0:0:0:
253,196,89737,6,0,P|276:146|302:123,1,77.0000023498536,2|2,0:0|0:1,0:0:0:0:
404,85,90375,1,2,0:0:0:0:
361,9,90695,1,2,0:0:0:0:
485,106,91014,2,0,P|493:143|493:181,1,77.0000023498536,2|2,0:1|0:0,0:0:0:0:
413,166,91652,1,2,0:0:0:0:
286,292,91971,1,2,0:0:0:0:
400,266,92290,1,2,0:0:0:0:
339,106,92609,6,0,P|324:182|292:235,2,115.50000352478,2|2|2,0:1|0:0|0:0,0:0:0:0:
224,13,94205,2,0,P|232:69|256:122,2,115.50000352478,2|2|2,0:0|0:0|0:1,0:0:0:0:
114,92,95482,1,0,0:0:0:0:
87,170,95801,1,0,0:1:0:0:
257,123,96120,1,2,0:1:0:0:
154,240,96439,6,0,P|160:202|182:171,1,77.0000023498536,2|2,0:0|0:0,0:0:0:0:
114,92,97077,2,0,P|149:78|187:82,1,77.0000023498536,2|2,0:0|0:0,0:0:0:0:
350,224,97716,6,0,B|286:202|294:241|224:229,2,115.50000352478,2|2|2,0:1|0:0|0:0,0:0:0:0:
196,62,99631,1,2,0:1:0:0:
156,131,99950,1,2,0:0:0:0:
350,224,100269,6,0,P|285:206|244:133,1,154.000004699707,2|0,0:1|0:0,0:0:0:0:
426,237,101226,1,2,0:1:0:0:
323,317,123248,6,0,P|272:306|220:304,1,105.000004005432,2|0,0:1|0:0,0:0:0:0:
220,304,124524,6,0,P|189:278|158:264,1,52.5000020027161,2|2,0:0|0:0,0:0:0:0:
240,224,125163,2,0,P|236:183|224:151,1,52.5000020027161,2|2,0:0|0:0,0:0:0:0:
310,181,125801,2,0,P|336:149|349:119,1,52.5000020027161,2|2,0:0|0:0,0:0:0:0:
389,200,126439,2,0,P|429:196|461:184,1,52.5000020027161,2|2,0:0|0:0,0:0:0:0:
508,250,127077,5,2,0:0:0:0:
471,67,127716,1,2,0:0:0:0:
471,67,128354,6,0,P|405:61|355:70,1,105.000004005432,2|0,0:1|0:0,0:0:0:0:
367,66,129631,6,0,P|366:98|376:131,1,52.5000020027161,2|0,0:0|0:0,0:0:0:0:
280,135,130269,2,0,P|301:158|332:174,1,52.5000020027161,2|2,0:0|0:0,0:0:0:0:
267,245,130907,2,0,P|299:246|332:235,1,52.5000020027161,2|2,0:0|0:0,0:0:0:0:
336,332,131546,2,0,P|359:310|375:279,1,52.5000020027161,2|2,0:0|0:0,0:0:0:0:
403,211,132184,5,2,0:0:0:0:
189,258,132822,1,2,0:0:0:0:
189,258,133460,6,0,P|154:206|140:157,1,105.000004005432,2|0,0:1|0:0,0:0:0:0:
167,92,134418,5,2,0:0:0:0:
258,87,134737,2,0,P|239:68|227:44,1,52.5000020027161,2|2,0:0|0:0,0:0:0:0:
281,174,135375,2,0,P|295:152|315:135,1,52.5000020027161,2|2,0:0|0:0,0:0:0:0:
210,231,136014,2,0,P|235:235|259:247,1,52.5000020027161,2|2,0:0|0:0,0:0:0:0:
133,181,136652,2,0,P|136:206|132:232,1,52.5000020027161,2|2,0:0|0:0,0:0:0:0:
147,90,137290,6,0,P|110:112|69:123,1,78.7500030040742,2|2,0:0|0:0,0:0:0:0:
41,134,137929,1,2,0:0:0:0:
218,77,138567,6,0,P|215:21|202:-14,3,78.7500030040742,2|2|2|0,0:0|0:0|0:0|0:0,0:0:0:0:
163,188,140482,2,0,P|230:151|276:153,1,105.000004005432,2|2,0:0|0:1,0:0:0:0:
373,135,141758,2,0,P|307:95|286:54,1,105.000004005432,2|2,0:0|0:1,0:0:0:0:
321,0,142716,5,2,0:0:0:0:
321,0,142875,1,2,0:0:0:0:
321,0,143035,1,2,0:0:0:0:
407,74,143354,1,2,0:0:0:0:
364,220,143673,6,0,P|316:225|229:180,1,125.999996154785,2|2,0:1|0:0,0:0:0:0:
177,62,144631,1,2,0:1:0:0:
240,10,144950,2,0,P|268:49|272:146,1,125.999996154785,2|0,0:0|0:0,0:0:0:0:
245,196,145907,5,2,0:0:0:0:
245,196,146546,2,0,P|234:225|230:256,2,62.9999980773926,2|2|2,0:0|0:0|0:0,0:0:0:0:
317,162,147503,2,0,P|337:185|362:205,1,62.9999980773926,2|2,0:1|0:0,0:0:0:0:
180,151,148141,2,0,P|149:156|120:168,1,62.9999980773926,2|2,0:1|0:0,0:0:0:0:
196,77,148780,6,0,P|198:45|188:15,2,62.9999980773926,2|2|2,0:1|0:0|0:0,0:0:0:0:
177,219,149737,1,2,0:1:0:0:
120,168,150056,2,0,P|100:111|124:53,1,125.999996154785,2|0,0:0|0:0,0:0:0:0:
189,14,151014,6,0,L|260:11,1,62.9999980773926,2|2,0:0|0:1,0:0:0:0:
294,99,151652,2,0,L|213:73,2,62.9999980773926,2|2|2,0:0|0:0|0:0,0:0:0:0:
371,214,152609,2,0,L|356:145,1,62.9999980773926,2|2,0:1|0:0,0:0:0:0:
225,211,153248,2,0,L|274:172,1,62.9999980773926,2|2,0:1|0:0,0:0:0:0:
372,303,153886,6,0,P|318:276|262:273,1,94.499997116089,2|2,0:1|0:0,0:0:0:0:
140,373,154843,2,0,B|257:396|222:316|321:357,1,188.999994232178,2|2,0:1|0:0,0:0:0:0:
172,203,156439,1,0,0:0:0:0:
172,203,157077,6,0,P|176:164|164:131,1,62.9999980773926,2|2,0:0|0:0,0:0:0:0:
240,251,157716,2,0,P|275:234|298:208,1,62.9999980773926,2|2,0:0|0:0,0:0:0:0:
167,282,158354,1,2,0:0:0:0:
249,157,158673,1,2,0:0:0:0:
344,371,158992,6,0,P|332:314|343:256,1,94.499997116089,2|2,0:1|0:0,0:0:0:0:
450,233,159950,2,0,B|392:235|398:193|332:198,1,125.999996154785,2|0,0:1|0:0,0:0:0:0:
123,161,160907,1,2,0:1:0:0:
177,105,161226,1,2,0:0:0:0:
188,349,161546,6,0,P|177:256|159:214,1,125.999996154785,2|0,0:1|0:1,0:0:0:0:
46,141,162503,1,2,0:0:0:0:
177,105,162822,5,0,0:1:0:0:
108,286,163141,1,0,0:1:0:0:
6,54,163460,5,2,0:1:0:0:
46,141,163780,1,0,0:1:0:0:
199,28,164099,6,0,P|238:53|254:101,1,77.0000023498536,2|2,0:1|0:0,0:0:0:0:
247,230,164737,1,2,0:0:0:0:
365,113,165056,1,2,0:1:0:0:
384,197,165375,2,0,B|301:206|313:138|206:154,1,154.000004699707,2|2,0:0|0:1,0:0:0:0:
100,246,166333,6,0,P|141:215|176:209,1,77.0000023498536,2|2,0:0|0:1,0:0:0:0:
286,308,166971,1,2,0:0:0:0:
247,230,167290,1,2,0:0:0:0:
195,383,167609,2,0,P|198:345|208:308,1,77.0000023498536,2|2,0:1|0:0,0:0:0:0:
327,245,168248,1,2,0:0:0:0:
442,350,168567,2,0,P|403:346|366:336,1,77.0000023498536,2|2,0:1|0:0,0:0:0:0:
407,145,169205,6,0,P|406:204|398:246,2,77.0000023498536,2|2|2,0:1|0:0|0:0,0:0:0:0:
230,60,170163,1,2,0:1:0:0:
217,148,170482,2,0,P|281:140|366:78,1,154.000004699707,2|2,0:0|0:1,0:0:0:0:
480,165,171439,6,0,P|430:147|399:145,1,77.0000023498536,2|2,0:0|0:1,0:0:0:0:
383,290,172077,1,2,0:0:0:0:
329,228,172397,1,2,0:0:0:0:
230,324,172716,2,0,L|133:313,1,77.0000023498536,2|2,0:1|0:0,0:0:0:0:
107,248,173354,1,2,0:0:0:0:
260,166,173673,1,2,0:0:0:0:
207,251,173992,1,2,0:0:0:0:
115,113,174312,6,0,P|121:43|135:-13,2,115.50000352478,2|2|2,0:1|0:0|0:0,0:0:0:0:
207,251,175907,2,0,P|201:181|187:125,2,115.50000352478,2|2|2,0:0|0:0|0:1,0:0:0:0:
118,231,177184,1,0,0:0:0:0:
3,294,177503,1,2,0:1:0:0:
211,332,177822,1,2,0:1:0:0:
82,299,178141,6,0,P|116:314|136:347,1,77.0000023498536,2|2,0:0|0:0,0:0:0:0:
243,257,178780,2,0,P|205:248|170:261,1,77.0000023498536,2|2,0:0|0:0,0:0:0:0:
342,384,179418,6,0,P|320:310|319:254,2,115.50000352478,2|2|2,0:1|0:0|0:1,0:0:0:0:
307,194,181333,1,2,0:1:0:0:
297,115,181652,1,2,0:0:0:0:
512,190,181971,6,0,P|414:169|363:133,1,154.000004699707,2|2,0:1|0:0,0:0:0:0:
512,0,182929,1,2,0:1:0:0:
496,76,183248,1,2,0:0:0:0:
292,40,183567,1,2,0:1:0:0:
512,0,183886,1,2,0:1:0:0:
297,115,184524,6,0,L|220:108,1,77.0000023498536,2|2,0:1|0:0,0:0:0:0:
135,220,185163,1,2,0:0:0:0:
48,25,185482,1,2,0:1:0:0:
134,0,185801,2,0,P|115:71|110:166,1,154.000004699707,2|2,0:0|0:1,0:0:0:0:
216,227,186758,6,0,L|314:213,1,77.0000023498536,2|2,0:0|0:1,0:0:0:0:
376,135,187397,1,2,0:0:0:0:
415,207,187716,1,2,0:0:0:0:
324,56,188035,2,0,P|301:86|270:110,1,77.0000023498536,2|2,0:1|0:0,0:0:0:0:
220,171,188673,1,2,0:0:0:0:
414,206,188992,2,0,P|383:230|361:261,1,77.0000023498536,2|2,0:1|0:0,0:0:0:0:
427,384,189631,6,0,P|433:346|432:307,2,77.0000023498536,2|2|2,0:1|0:0|0:0,0:0:0:0:
288,245,190588,1,2,0:1:0:0:
227,305,190907,2,0,P|140:283|64:282,1,154.000004699707,2|2,0:0|0:1,0:0:0:0:
22,206,191865,6,0,P|38:154|42:114,1,77.0000023498536,2|2,0:0|0:1,0:0:0:0:
82,0,192503,1,2,0:0:0:0:
16,52,192822,1,2,0:0:0:0:
126,158,193141,2,0,L|229:165,1,77.0000023498536,2|2,0:1|0:0,0:0:0:0:
251,102,193780,1,2,0:0:0:0:
204,262,194099,1,2,0:1:0:0:
282,194,194418,1,2,0:0:0:0:
134,0,194737,6,0,P|166:73|163:142,2,115.50000352478,2|2|2,0:1|0:0|0:0,0:0:0:0:
57,230,196333,2,0,P|89:157|86:88,2,115.50000352478,2|2|2,0:0|0:0|0:1,0:0:0:0:
126,268,197609,1,0,0:1:0:0:
15,101,197929,1,2,0:1:0:0:
167,183,198248,1,2,0:1:0:0:
96,45,198567,6,0,P|87:83|90:121,1,77.0000023498536,2|2,0:0|0:0,0:0:0:0:
171,0,199205,2,0,P|191:32|220:57,1,77.0000023498536,2|2,0:0|0:0,0:0:0:0:
411,0,199843,6,0,P|346:28|278:28,2,115.50000352478,2|2|2,0:1|0:0|0:1,0:0:0:0:
512,249,201758,1,2,0:1:0:0:
453,185,202077,1,2,0:0:0:0:
287,306,202397,6,0,L|456:258,1,154.000004699707,2|2,0:1|0:0,0:0:0:0:
214,325,203354,1,2,0:1:0:0:
252,75,205015,6,0,L|254:145,1,52.5000020027161,2|0,0:1|0:0,0:0:0:0:
258,204,205667,1,0,0:0:0:0:
188,170,205993,1,0,0:0:0:0:
258,204,206319,1,0,0:0:0:0:
258,204,207297,6,0,P|296:167|361:163,1,105.000004005432
433,169,208246,1,0,0:0:0:0:
375,226,208562,1,0,0:0:0:0:
433,169,208879,1,0,0:0:0:0:
258,204,209196,5,2,0:0:0:0:
450,252,209512,1,2,0:0:0:0:
258,204,209829,1,2,0:0:0:0:
167,308,210175,6,0,L|101:295,1,52.5000020027161,2|0,0:1|0:0,0:0:0:0:
52,256,210809,1,0,0:0:0:0:
116,213,211127,1,0,0:0:0:0:
52,256,211444,1,0,0:0:0:0:
52,256,212397,6,0,P|33:193|32:151,1,105.000004005432
101,111,213349,1,0,0:0:0:0:
248,156,213668,5,2,0:0:0:0:
248,156,213825,1,2,0:0:0:0:
248,156,213984,1,2,0:0:0:0:
172,179,214301,1,2,0:0:0:0:
101,111,214619,1,2,0:0:0:0:
167,0,214936,1,2,0:0:0:0:
322,153,215277,6,0,P|308:189|277:224,2,78.7500030040742,2|2|2,0:1|0:0|0:0,0:0:0:0:
406,267,216881,2,0,P|384:252|355:247,2,47.2499985580445
406,267,219108,6,0,L|397:326,1,45.4999979171754,2|2,0:0|0:0,0:0:0:0:
327,253,219744,2,0,L|318:312,1,45.4999979171754,2|2,0:0|0:0,0:0:0:0:
372,383,220381,2,0,L|308:369,2,57.7500017623902,2|2|2,0:0|0:0|0:0,0:0:0:0:
372,383,222736,5,2,0:0:0:0:
446,316,223106,2,0,P|460:270|462:227,1,77.0000023498536,2|2,0:0|0:0,0:0:0:0:
388,148,224615,5,2,0:0:0:0:
388,148,224994,1,2,0:0:0:0:
388,148,225374,2,0,L|379:192,1,38.5000011749268,2|2,0:0|0:0,0:0:0:0:
359,249,226230,5,2,0:1:0:0:
256,192,226434,12,0,232760,0:0:0:0:
