osu file format v14

[General]
AudioFilename: audio.mp3
AudioLeadIn: 0
PreviewTime: 160748
Countdown: 0
SampleSet: Soft
StackLeniency: 0.5
Mode: 0
LetterboxInBreaks: 0
WidescreenStoryboard: 1

[Editor]
Bookmarks: 21132,41558,61983,82409,102834,123260,143685,164111,184536,204962
DistanceSpacing: 1.4
BeatDivisor: 4
GridSize: 16
TimelineZoom: 1

[Metadata]
Title:Em Moi La Nguoi Yeu Anh (Acoustic Version)
TitleUnicode:Em Mới Là Người Yêu Anh (Acoustic Version)
Artist:MIN
ArtistUnicode:MIN
Creator:Smug Nanachi
Version:Normal
Source:
Tags:LMT SmugNa EMLNYA piano vietnamese
BeatmapID:1852602
BeatmapSetID:861890

[Difficulty]
HPDrainRate:4
CircleSize:4
OverallDifficulty:4
ApproachRate:5
SliderMultiplier:1
SliderTickRate:1

[Events]
//Background and Video events
0,0,"bg.jpg",0,0
//Break Periods
2,102839,122048
//Storyboard Layer 0 (Background)
//Storyboard Layer 1 (Fail)
//Storyboard Layer 2 (Pass)
//Storyboard Layer 3 (Foreground)
//Storyboard Sound Samples

[TimingPoints]
695,638.297872340426,4,2,1,30,1,0
21120,-100,4,2,1,30,0,0
25429,-100,4,2,1,5,0,0
25588,-100,4,2,1,30,0,0
41546,-100,4,2,1,40,0,0
50960,-100,4,2,1,5,0,0
51120,-100,4,2,1,40,0,0
56067,-100,4,2,1,5,0,0
56226,-100,4,2,1,40,0,0
61971,-100,4,2,1,60,0,0
123248,-100,4,2,1,30,0,0
143673,-100,4,2,1,50,0,0
164099,-100,4,2,1,60,0,0
203354,774.193548387097,4,2,1,60,1,0
203741,666.666666666667,4,2,1,40,1,0
204407,608.210846426761,4,2,1,40,1,0
205015,652.173913043478,4,2,1,30,1,0
205015,-100,4,2,1,30,0,0
207297,633.245382585752,4,2,1,30,1,0
207297,-100,4,2,1,30,0,0
207613,633.245382585752,4,2,1,30,1,0
209829,693.64161849711,4,2,1,30,1,0
210175,634.920634920635,4,2,1,30,1,0
210175,-100,4,2,1,30,0,0
214936,683.760683760684,4,2,1,30,1,0
215277,641.711229946524,4,2,1,40,1,0
215277,-100,4,2,1,40,0,0
216881,625,4,2,1,30,1,0
216881,-100,4,2,1,30,0,0
217818,645.161290322581,4,2,1,30,1,0
219108,636.604774535809,4,2,1,30,1,0
219108,-100,4,2,1,30,0,0
220381,681.818181818182,4,2,1,30,1,0
220381,-100,4,2,1,30,0,0
221403,666.666666666667,4,2,1,30,1,0
222736,740.740740740741,4,2,1,30,1,0
223106,754.716981132075,4,2,1,30,1,0
223106,-100,4,2,1,30,0,0
224615,759.493670886076,4,2,1,30,1,0
224615,-100,4,2,1,30,0,0
225754,952.380952380952,4,2,1,30,1,0
226230,816.326530612245,4,2,1,30,1,0
227862,-100,4,2,1,25,0,0
229495,-100,4,2,1,20,0,0
231127,-100,4,2,1,15,0,0
231944,-100,4,2,1,10,0,0
232760,-100,4,2,1,5,0,0

[Colours]
Combo1 : 128,128,192
Combo2 : 255,128,128
Combo3 : 255,255,128
SliderBorder : 100,200,200

[HitObjects]
86,272,21120,6,0,L|202:259,1,100,2|0,0:1|0:0,0:0:0:0:
256,155,22397,5,2,0:0:0:0:
361,226,23035,1,2,0:0:0:0:
290,331,23673,1,2,0:0:0:0:
185,260,24312,1,2,0:0:0:0:
256,155,24950,6,0,L|362:127,1,100,2|2,0:0|0:0,0:0:0:0:
482,128,26226,6,0,P|484:177|474:226,1,100,2|0,0:1|0:0,0:0:0:0:
348,192,27503,5,2,0:0:0:0:
314,318,28141,1,2,0:0:0:0:
440,352,28780,1,2,0:0:0:0:
474,226,29418,1,2,0:0:0:0:
348,192,30056,5,2,0:0:0:0:
314,318,30695,1,2,0:0:0:0:
186,293,31333,6,0,B|166:257|166:257|187:173,1,100,2|0,0:1|0:0,0:0:0:0:
192,71,32609,5,2,0:0:0:0:
321,82,33248,1,2,0:0:0:0:
310,211,33886,1,2,0:0:0:0:
181,200,34524,1,2,0:0:0:0:
191,70,35163,5,2,0:0:0:0:
321,82,35801,1,2,0:0:0:0:
310,211,36439,6,0,L|290:288,1,75,2|2,0:1|0:0,0:0:0:0:
212,341,37397,2,0,L|193:268,1,75,2|2,0:0|0:0,0:0:0:0:
226,176,38354,1,2,0:0:0:0:
226,176,39950,6,0,P|301:164|326:94,1,150,2|0,0:0|0:0,0:0:0:0:
447,76,41546,6,0,L|433:184,1,100,2|0,0:1|0:0,0:0:0:0:
512,315,42822,6,0,L|443:326,1,50,2|2,0:0|0:0,0:0:0:0:
406,260,43460,2,0,L|337:249,1,50,2|2,0:0|0:0,0:0:0:0:
301,326,44099,2,0,L|232:337,1,50,2|2,0:0|0:0,0:0:0:0:
195,271,44737,2,0,L|126:260,1,50,2|2,0:0|0:0,0:0:0:0:
51,290,45375,5,2,0:0:0:0:
100,162,46014,1,2,0:0:0:0:
47,24,46652,6,0,L|153:26,1,100,2|0,0:1|0:0,0:0:0:0:
286,0,47929,6,0,P|290:24|288:49,1,50,2|2,0:0|0:0,0:0:0:0:
368,84,48567,2,0,P|354:104|334:120,1,50,2|2,0:0|0:0,0:0:0:0:
366,201,49205,2,0,P|341:205|316:203,1,50,2|2,0:0|0:0,0:0:0:0:
282,283,49843,2,0,P|261:269|245:249,1,50,2|2,0:0|0:0,0:0:0:0:
213,164,50482,6,0,L|110:169,1,100,2|2,0:0|0:0,0:0:0:0:
0,296,51758,6,0,P|43:277|102:303,1,100,2|0,0:1|0:0,0:0:0:0:
159,357,52716,1,2,0:0:0:0:
231,305,53035,6,0,L|286:294,1,50,2|2,0:0|0:0,0:0:0:0:
331,222,53673,2,0,L|276:211,1,50,2|2,0:0|0:0,0:0:0:0:
220,144,54312,2,0,L|275:133,1,50,2|2,0:0|0:0,0:0:0:0:
320,61,54950,2,0,L|265:50,1,50,2|2,0:0|0:0,0:0:0:0:
150,0,55588,6,0,P|109:5|76:67,1,100,2|2,0:0|0:0,0:0:0:0:
51,193,56865,6,0,L|68:277,1,75,2|2,0:1|0:0,0:0:0:0:
164,281,57822,2,0,L|181:197,1,75,2|2,0:0|0:0,0:0:0:0:
170,111,58780,2,0,P|225:112|271:80,1,100,2|2,0:0|0:1,0:0:0:0:
392,186,60056,5,2,0:0:0:0:
339,257,60375,2,0,L|330:369,1,100,2|2,0:0|0:0,0:0:0:0:
331,357,61971,6,0,B|353:343|395:339|452:352,1,100,2|2,0:1|0:0,0:0:0:0:
512,282,62929,1,2,0:1:0:0:
439,208,63248,2,0,B|422:175|422:175|417:95,1,100,2|0,0:0|0:0,0:0:0:0:
300,38,64524,6,0,L|188:25,1,100,2|2,0:1|0:0,0:0:0:0:
110,62,65482,2,0,P|93:91|99:171,1,100,2|2,0:1|0:0,0:0:0:0:
127,248,66439,1,2,0:1:0:0:
276,153,67077,6,0,P|281:178|277:203,2,50,2|2|2,0:1|0:0|0:0,0:0:0:0:
212,72,68035,1,2,0:1:0:0:
301,27,68354,2,0,L|417:43,1,100,2|0,0:0|0:0,0:0:0:0:
473,167,69631,6,0,B|484:203|484:203|471:285,1,100,2|2,0:1|0:0,0:0:0:0:
405,336,70588,2,0,B|348:330|348:330|296:346,1,100,2|2,0:1|0:0,0:0:0:0:
220,289,71546,1,2,0:1:0:0:
131,117,72184,6,0,L|115:32,2,75,2|2|2,0:1|0:0|0:0,0:0:0:0:
101,294,73780,2,0,L|117:379,2,75,2|2|2,0:0|0:0|0:1,0:0:0:0:
13,172,75375,2,0,P|50:170|77:181,1,50,0|0,0:1|0:1,0:0:0:0:
143,220,76014,2,0,B|206:238|206:238|253:224,1,100,2|2,0:0|0:0,0:0:0:0:
398,126,77290,6,0,P|402:88|397:51,2,75,2|2|2,0:1|0:0|0:1,0:0:0:0:
398,126,79843,6,0,L|384:236,1,100,2|2,0:1|0:0,0:0:0:0:
372,316,80801,1,2,0:1:0:0:
372,316,82397,6,0,P|321:299|267:308,1,100,2|2,0:1|0:0,0:0:0:0:
178,295,83354,1,2,0:1:0:0:
156,203,83673,2,0,L|160:93,1,100,2|0,0:0|0:0,0:0:0:0:
337,9,84950,6,0,L|328:108,1,100,2|2,0:1|0:0,0:0:0:0:
316,205,85907,2,0,B|269:196|269:196|203:209,1,100,2|2,0:1|0:0,0:0:0:0:
138,270,86865,1,2,0:1:0:0:
129,94,87503,6,0,L|80:105,2,50,2|2|2,0:1|0:0|0:0,0:0:0:0:
211,39,88460,1,2,0:1:0:0:
309,62,88780,2,0,L|306:161,1,100,2|0,0:0|0:0,0:0:0:0:
332,321,90056,6,0,B|363:308|363:308|436:319,1,100,2|2,0:1|0:0,0:0:0:0:
481,234,91014,2,0,L|482:123,1,100,2|2,0:1|0:0,0:0:0:0:
402,62,91971,1,2,0:0:0:0:
234,19,92609,6,0,B|199:8|199:8|160:12,2,75,2|2|2,0:1|0:0|0:0,0:0:0:0:
170,199,94205,2,0,B|205:210|205:210|243:205,2,75,2|2|2,0:0|0:0|0:1,0:0:0:0:
14,140,95801,2,0,L|18:74,1,50,0|2,0:1|0:1,0:0:0:0:
88,29,96439,2,0,L|200:10,1,100,2|2,0:0|0:0,0:0:0:0:
331,76,97716,6,0,B|320:37|320:37|331:5,2,75,2|2|2,0:1|0:0|0:0,0:0:0:0:
331,76,99631,2,0,L|326:133,1,50,2|2,0:1|0:0,0:0:0:0:
283,217,100269,6,0,L|181:230,1,100,2|0,0:1|0:0,0:0:0:0:
96,186,101226,1,2,0:1:0:0:
172,74,123248,6,0,L|184:184,1,100,2|0,0:1|0:0,0:0:0:0:
87,261,124524,5,2,0:0:0:0:
175,356,125163,1,2,0:0:0:0:
270,268,125801,1,2,0:0:0:0:
182,173,126439,1,2,0:0:0:0:
87,261,127077,5,2,0:0:0:0:
175,357,127716,1,2,0:0:0:0:
270,268,128354,6,0,B|315:249|315:249|372:261,1,100,2|0,0:1|0:0,0:0:0:0:
495,259,129631,5,2,0:0:0:0:
495,129,130269,1,2,0:0:0:0:
365,129,130907,1,2,0:0:0:0:
365,259,131546,1,2,0:0:0:0:
495,259,132184,5,2,0:0:0:0:
495,129,132822,1,2,0:0:0:0:
365,129,133460,6,0,L|265:149,1,100,2|0,0:1|0:0,0:0:0:0:
189,111,134418,1,2,0:0:0:0:
125,179,134737,5,2,0:0:0:0:
156,320,135375,1,2,0:0:0:0:
297,289,136014,1,2,0:0:0:0:
266,148,136652,1,2,0:0:0:0:
125,179,137290,6,0,P|121:121|156:72,1,100,2|2,0:0|0:0,0:0:0:0:
277,23,138567,6,0,L|362:28,1,75,2|2,0:0|0:0,0:0:0:0:
410,114,139524,2,0,L|325:119,1,75,2|0,0:0|0:0,0:0:0:0:
285,213,140482,2,0,L|311:326,1,100,2|2,0:0|0:1,0:0:0:0:
307,310,142397,5,2,0:1:0:0:
396,262,142716,2,0,L|429:281,2,25,2|2|2,0:0|0:0|0:0,0:0:0:0:
416,179,143354,1,2,0:0:0:0:
390,91,143673,6,0,L|281:109,1,100,2|2,0:1|0:0,0:0:0:0:
219,47,144631,1,2,0:1:0:0:
155,118,144950,1,2,0:0:0:0:
155,118,145907,6,0,L|166:239,1,100,2|2,0:0|0:0,0:0:0:0:
217,295,146865,1,2,0:0:0:0:
88,384,147503,1,2,0:1:0:0:
4,246,148141,1,2,0:1:0:0:
137,160,148780,6,0,P|198:150|244:151,1,100,2|2,0:1|0:0,0:0:0:0:
329,179,149737,1,2,0:1:0:0:
324,82,150056,1,2,0:0:0:0:
324,82,151014,6,0,L|443:84,1,100,2|2,0:0|0:0,0:0:0:0:
495,146,151971,1,2,0:0:0:0:
475,316,152609,1,2,0:1:0:0:
361,188,153248,1,2,0:1:0:0:
221,270,153886,6,0,P|227:323|217:354,2,75,2|2|2,0:1|0:0|0:1,0:0:0:0:
221,270,155801,2,0,P|179:264|113:275,1,100,2|0,0:0|0:0,0:0:0:0:
59,159,157077,5,2,0:0:0:0:
210,86,157716,1,2,0:0:0:0:
316,204,158354,1,2,0:0:0:0:
445,116,158992,6,0,L|440:41,2,75,2|2|2,0:1|0:0|0:1,0:0:0:0:
445,116,160907,1,2,0:1:0:0:
378,212,161546,6,0,L|383:332,1,100,2|0,0:1|0:1,0:0:0:0:
207,287,162822,6,0,L|158:287,1,50,0|0,0:1|0:1,0:0:0:0:
204,202,163460,2,0,L|155:202,1,50,2|0,0:1|0:1,0:0:0:0:
69,203,164099,6,0,L|72:91,1,100,2|2,0:1|0:0,0:0:0:0:
94,3,165056,1,2,0:1:0:0:
180,66,165375,2,0,B|217:69|217:69|246:57|246:57|280:59,1,100,2|2,0:0|0:1,0:0:0:0:
429,66,166652,6,0,P|470:96|488:147,1,100,2|2,0:1|0:0,0:0:0:0:
457,247,167609,2,0,B|435:284|474:310|453:348,1,100,2|2,0:1|0:0,0:0:0:0:
366,384,168567,1,2,0:1:0:0:
167,241,169205,6,0,L|171:291,2,50,2|2|2,0:1|0:0|0:0,0:0:0:0:
237,165,170163,1,2,0:1:0:0:
166,97,170482,2,0,P|132:88|70:117,1,100,2|2,0:0|0:1,0:0:0:0:
68,261,171758,6,0,P|78:316|78:374,1,100,2|2,0:1|0:0,0:0:0:0:
184,384,172716,2,0,L|295:368,1,100,2|2,0:1|0:0,0:0:0:0:
348,307,173673,1,2,0:0:0:0:
262,157,174312,6,0,L|248:66,2,75,2|2|2,0:1|0:0|0:0,0:0:0:0:
416,178,175907,2,0,L|430:87,2,75,2|2|2,0:0|0:0|0:1,0:0:0:0:
411,349,177503,1,2,0:1:0:0:
246,369,178141,2,0,B|231:331|231:331|243:268,1,100,2|2,0:0|0:0,0:0:0:0:
245,119,179418,6,0,B|284:127|284:127|319:122,2,75,2|2|2,0:1|0:0|0:1,0:0:0:0:
245,119,181333,1,2,0:1:0:0:
88,136,181971,6,0,B|75:171|75:171|80:246,1,100,2|2,0:1|0:0,0:0:0:0:
156,298,182929,1,2,0:1:0:0:
309,243,183567,2,0,L|368:246,1,50,2|2,0:1|0:1,0:0:0:0:
443,97,184524,6,0,P|401:124|352:128,1,100,2|2,0:1|0:0,0:0:0:0:
270,57,185482,1,2,0:1:0:0:
200,134,185801,2,0,B|190:165|190:165|199:243,1,100,2|2,0:0|0:1,0:0:0:0:
237,374,187077,6,0,L|177:373,1,50,2|2,0:1|0:0,0:0:0:0:
88,384,187716,1,2,0:0:0:0:
32,296,188035,2,0,P|22:253|21:186,1,100,2|2,0:1|0:0,0:0:0:0:
50,103,188992,1,2,0:1:0:0:
230,60,189631,6,0,L|280:64,2,50,2|2|2,0:1|0:0|0:0,0:0:0:0:
131,33,190588,1,2,0:1:0:0:
147,133,190907,2,0,B|144:158|157:183|157:183|136:201|131:232,1,100,2|2,0:0|0:1,0:0:0:0:
230,348,192184,6,0,P|278:337|351:345,1,100,2|2,0:1|0:0,0:0:0:0:
416,293,193141,2,0,B|431:237|431:237|420:196,1,100,2|2,0:1|0:0,0:0:0:0:
349,129,194099,1,2,0:1:0:0:
206,54,194737,6,0,P|167:53|111:44,2,75,2|2|2,0:1|0:0|0:0,0:0:0:0:
143,196,196333,2,0,P|182:197|238:206,2,75,2|2|2,0:0|0:0|0:1,0:0:0:0:
0,160,197929,2,0,L|2:224,1,50,2|2,0:1|0:1,0:0:0:0:
7,298,198567,2,0,B|36:311|36:311|124:288,1,100,2|2,0:0|0:0,0:0:0:0:
267,312,199843,6,0,B|265:351|265:351|282:394,2,75,2|2|2,0:1|0:0|0:1,0:0:0:0:
267,312,201758,1,2,0:1:0:0:
350,166,202397,6,0,P|297:193|277:250,1,100,2|2,0:1|0:0,0:0:0:0:
377,270,203354,1,2,0:1:0:0:
377,270,205015,6,0,L|369:150,2,100,2|0|0,0:1|0:0|0:0,0:0:0:0:
377,270,207297,5,0,0:0:0:0:
308,374,207929,2,0,L|203:348,1,100,0|0,0:0|0:0,0:0:0:0:
71,312,209196,2,0,P|43:318|6:308,2,50,2|2|2,0:0|0:0|0:0,0:0:0:0:
45,227,210175,6,0,L|43:114,2,100,2|0|0,0:1|0:0|0:0,0:0:0:0:
45,227,212397,6,0,B|90:212|97:246|152:237,1,100,0|0,0:0|0:0,0:0:0:0:
271,162,213667,2,0,L|277:123,2,25,2|2|2,0:0|0:0|0:0,0:0:0:0:
318,294,214619,1,2,0:0:0:0:
204,381,215277,6,0,P|153:369|114:370,2,75,2|2|2,0:1|0:0|0:0,0:0:0:0:
126,229,216881,2,0,P|177:217|216:218,2,75,0|0|0,0:0|0:0|0:0,0:0:0:0:
126,229,219108,6,0,L|129:121,1,100,2|2,0:0|0:0,0:0:0:0:
234,33,220381,2,0,B|244:64|244:64|238:115,2,75,2|2|2,0:0|0:0|0:0,0:0:0:0:
234,33,222736,5,2,0:0:0:0:
317,96,223106,2,0,P|329:152|322:209,1,100,2|2,0:0|0:0,0:0:0:0:
225,288,224615,2,0,P|223:239|234:190,1,100,2|2,0:0|0:0,0:0:0:0:
256,192,226230,12,0,232760,0:0:0:0:
