osu file format v14

[General]
AudioFilename: audio.mp3
AudioLeadIn: 0
PreviewTime: 160748
Countdown: 0
SampleSet: Soft
StackLeniency: 0.5
Mode: 0
LetterboxInBreaks: 0
WidescreenStoryboard: 1

[Editor]
Bookmarks: 21132,41558,61983,82409,102834,123260,143685,164111,184536,204962
DistanceSpacing: 1.4
BeatDivisor: 4
GridSize: 32
TimelineZoom: 0.5999999

[Metadata]
Title:Em Moi La Nguoi Yeu Anh (Acoustic Version)
TitleUnicode:Em Mới Là Người Yêu Anh (Acoustic Version)
Artist:MIN
ArtistUnicode:MIN
Creator:Smug Nanachi
Version:LMT's Easy
Source:
Tags:LMT SmugNa EMLNYA piano vietnamese
BeatmapID:1808632
BeatmapSetID:861890

[Difficulty]
HPDrainRate:3
CircleSize:3
OverallDifficulty:2
ApproachRate:3
SliderMultiplier:1
SliderTickRate:1

[Events]
//Background and Video events
0,0,"bg.jpg",0,0
//Break Periods
2,103022,121808
//Storyboard Layer 0 (Background)
//Storyboard Layer 1 (Fail)
//Storyboard Layer 2 (Pass)
//Storyboard Layer 3 (Foreground)
//Storyboard Sound Samples

[TimingPoints]
695,638.297872340426,4,2,1,30,1,0
21120,-100,4,2,1,30,0,0
25429,-100,4,2,1,5,0,0
25588,-100,4,2,1,30,0,0
41546,-100,4,2,1,40,0,0
50960,-100,4,2,1,5,0,0
51120,-100,4,2,1,40,0,0
56067,-100,4,2,1,5,0,0
56226,-100,4,2,1,40,0,0
61971,-100,4,2,1,60,0,0
123248,-100,4,2,1,30,0,0
143673,-100,4,2,1,50,0,0
164099,-100,4,2,1,60,0,0
203354,774.193548387097,4,2,1,60,1,0
203741,666.666666666667,4,2,1,40,1,0
204407,608.210846426761,4,2,1,40,1,0
205015,652.173913043478,4,2,1,30,1,0
205015,-100,4,2,1,30,0,0
207297,633.245382585752,4,2,1,30,1,0
207297,-100,4,2,1,30,0,0
207613,633.245382585752,4,2,1,30,1,0
209829,693.64161849711,4,2,1,30,1,0
210175,634.920634920635,4,2,1,30,1,0
210175,-100,4,2,1,30,0,0
214936,683.760683760684,4,2,1,30,1,0
215277,641.711229946524,4,2,1,40,1,0
215277,-100,4,2,1,40,0,0
216881,625,4,2,1,30,1,0
216881,-100,4,2,1,30,0,0
217818,645.161290322581,4,2,1,30,1,0
219108,636.604774535809,4,2,1,30,1,0
219108,-100,4,2,1,30,0,0
220381,681.818181818182,4,2,1,30,1,0
220381,-100,4,2,1,30,0,0
221403,666.666666666667,4,2,1,30,1,0
222736,740.740740740741,4,2,1,30,1,0
223106,754.716981132075,4,2,1,30,1,0
223106,-100,4,2,1,30,0,0
224615,759.493670886076,4,2,1,30,1,0
224615,-100,4,2,1,30,0,0
225754,952.380952380952,4,2,1,30,1,0
226230,816.326530612245,4,2,1,30,1,0
227862,-100,4,2,1,25,0,0
229495,-100,4,2,1,20,0,0
231127,-100,4,2,1,15,0,0
231944,-100,4,2,1,10,0,0
232760,-100,4,2,1,5,0,0

[Colours]
Combo1 : 128,128,192
Combo2 : 255,128,128
Combo3 : 255,255,128
SliderBorder : 100,200,200

[HitObjects]
192,54,21120,5,2,0:1:0:0:
192,54,22397,2,0,B|249:137|249:137|169:225,1,200,2|2,0:0|0:0,0:0:0:0:
98,263,24312,1,2,0:0:0:0:
87,163,24950,1,2,0:0:0:0:
283,116,26226,5,2,0:1:0:0:
283,116,27503,2,0,B|348:120|348:120|379:273,1,200,2|2,0:0|0:0,0:0:0:0:
281,316,29418,1,2,0:0:0:0:
260,217,30056,1,2,0:0:0:0:
378,53,31333,5,2,0:1:0:0:
378,53,32609,2,0,L|271:59,2,100,2|2|2,0:0|0:0|0:0,0:0:0:0:
472,87,34524,1,2,0:0:0:0:
394,148,35163,1,2,0:0:0:0:
302,331,36439,6,0,L|227:338,1,75,2|2,0:1|0:0,0:0:0:0:
173,279,37397,2,0,L|76:284,1,75,2|2,0:0|0:0,0:0:0:0:
35,334,38354,1,2,0:0:0:0:
35,334,40269,1,0,0:0:0:0:
12,135,41546,6,0,L|123:129,1,100,2|0,0:1|0:0,0:0:0:0:
156,151,42503,1,0,0:0:0:0:
333,37,44099,1,2,0:0:0:0:
346,136,44737,1,2,0:0:0:0:
429,80,45375,1,2,0:0:0:0:
496,268,46652,6,0,L|374:278,1,100,2|0,0:1|0:0,0:0:0:0:
361,311,47609,1,0,0:0:0:0:
116,362,49205,1,2,0:0:0:0:
49,287,49843,1,2,0:0:0:0:
147,266,50482,1,2,0:0:0:0:
331,190,51758,6,0,L|433:204,1,100,2|0,0:1|0:0,0:0:0:0:
466,238,52716,1,2,0:0:0:0:
274,77,54312,1,2,0:0:0:0:
225,164,54950,1,2,0:0:0:0:
185,72,55588,2,0,L|82:60,1,100,2|2,0:0|0:0,0:0:0:0:
122,153,56865,6,0,B|145:239,1,75,2|2,0:1|0:0,0:0:0:0:
219,255,57822,2,0,L|205:335,1,75,2|2,0:0|0:0,0:0:0:0:
145,384,58780,1,2,0:0:0:0:
235,151,61971,6,0,L|120:136,1,100,2|2,0:1|0:0,0:0:0:0:
119,102,62929,1,2,0:1:0:0:
318,92,64205,2,0,L|333:207,1,100,2|2,0:0|0:0,0:0:0:0:
378,206,65163,2,0,L|390:156,1,50,2|2,0:0|0:1,0:0:0:0:
389,7,66439,1,2,0:1:0:0:
313,78,67077,6,0,L|213:85,1,100,2|2,0:1|0:0,0:0:0:0:
178,121,68035,1,2,0:1:0:0:
12,232,69312,2,0,L|155:236,1,100,2|2,0:0|0:0,0:0:0:0:
158,253,70269,2,0,L|143:302,1,50,2|2,0:0|0:1,0:0:0:0:
288,340,71546,1,2,0:1:0:0:
374,290,72184,6,0,L|364:192,1,75,2|2,0:1|0:0,0:0:0:0:
323,146,73141,1,2,0:0:0:0:
237,205,73780,2,0,L|146:216,1,75,2|2,0:0|0:0,0:0:0:0:
121,282,74737,1,2,0:1:0:0:
29,62,76014,1,2,0:0:0:0:
116,13,76652,1,2,0:0:0:0:
197,70,77290,6,0,L|279:79,1,75,2|2,0:1|0:0,0:0:0:0:
330,134,78248,1,2,0:1:0:0:
486,306,79843,2,0,L|376:293,1,100,2|2,0:1|0:0,0:0:0:0:
346,324,80801,1,2,0:1:0:0:
201,282,81758,1,2,0:0:0:0:
188,182,82397,6,0,L|172:70,1,100,2|2,0:1|0:0,0:0:0:0:
192,36,83354,1,2,0:1:0:0:
390,57,84631,2,0,L|373:169,1,100,2|2,0:0|0:0,0:0:0:0:
336,187,85588,2,0,L|337:241,1,50,2|2,0:0|0:1,0:0:0:0:
252,361,86865,1,2,0:1:0:0:
181,290,87503,6,0,L|75:279,1,100,2|2,0:1|0:0,0:0:0:0:
51,239,88460,1,2,0:1:0:0:
151,66,89737,2,0,L|174:171,1,100,2|2,0:0|0:0,0:0:0:0:
221,171,90695,2,0,L|285:181,1,50,2|2,0:0|0:1,0:0:0:0:
419,196,91971,1,2,0:0:0:0:
385,290,92609,6,0,L|290:297,1,75,2|2,0:1|0:0,0:0:0:0:
254,355,93567,1,2,0:0:0:0:
186,280,94205,2,0,L|103:271,1,75,2|2,0:0|0:0,0:0:0:0:
48,221,95163,1,2,0:1:0:0:
163,57,96439,1,2,0:0:0:0:
229,131,97077,1,2,0:0:0:0:
260,35,97716,6,0,L|351:26,1,75,2|2,0:1|0:0,0:0:0:0:
400,78,98673,1,2,0:0:0:0:
215,246,100269,2,0,L|106:232,1,100,2|0,0:1|0:0,0:0:0:0:
82,196,101226,1,2,0:1:0:0:
330,168,102822,1,2,0:1:0:0:
138,122,123248,5,2,0:1:0:0:
138,122,124524,2,0,B|188:96|233:128|233:128|272:154|332:129,1,200,2|2,0:0|0:0,0:0:0:0:
384,47,126439,1,2,0:0:0:0:
284,41,127077,1,2,0:0:0:0:
452,148,128354,5,2,0:1:0:0:
452,148,129631,2,0,B|401:141|365:170|365:170|334:224|252:213,1,200,2|2,0:0|0:0,0:0:0:0:
178,182,131546,1,2,0:0:0:0:
200,279,132184,1,2,0:0:0:0:
17,360,133460,5,2,0:1:0:0:
17,360,134737,2,0,B|50:323|121:321|121:321|152:361|205:351,1,200,2|2,0:0|0:0,0:0:0:0:
289,316,136652,1,2,0:0:0:0:
295,216,137290,1,2,0:0:0:0:
487,161,138567,6,0,P|451:131|417:120,1,75,2|2,0:0|0:0,0:0:0:0:
357,75,139524,2,0,P|325:83|284:84,1,75,2|0,0:0|0:0,0:0:0:0:
208,118,140482,1,2,0:0:0:0:
208,118,142397,1,2,0:1:0:0:
257,311,143673,6,0,L|267:212,1,100,2|2,0:1|0:0,0:0:0:0:
306,181,144631,1,2,0:1:0:0:
176,28,145907,2,0,L|183:150,1,100,2|2,0:0|0:0,0:0:0:0:
143,159,146865,1,2,0:0:0:0:
59,104,147503,1,2,0:1:0:0:
11,191,148141,1,2,0:1:0:0:
75,276,148780,6,0,P|132:281|185:293,1,100,2|2,0:1|0:0,0:0:0:0:
209,324,149737,1,2,0:1:0:0:
377,216,151014,2,0,P|327:208|259:220,1,100,2|2,0:0|0:0,0:0:0:0:
232,193,151971,1,2,0:0:0:0:
212,94,152609,1,2,0:1:0:0:
306,61,153248,1,2,0:1:0:0:
380,127,153886,6,0,L|466:136,1,75,2|2,0:1|0:0,0:0:0:0:
500,200,154843,1,2,0:1:0:0:
434,323,157077,2,0,L|319:301,1,100,2|2,0:0|0:0,0:0:0:0:
244,345,158354,1,2,0:0:0:0:
195,257,158992,6,0,L|188:172,1,75,2|2,0:1|0:0,0:0:0:0:
238,118,159950,1,2,0:1:0:0:
351,216,160907,1,2,0:1:0:0:
444,179,161546,2,0,L|460:68,1,100,2|0,0:1|0:1,0:0:0:0:
358,88,162822,2,0,B|341:50|341:50|278:33,1,100,0|2,0:1|0:1,0:0:0:0:
191,70,164099,6,0,L|80:72,1,100,2|2,0:1|0:0,0:0:0:0:
53,105,165056,1,2,0:1:0:0:
165,270,166333,2,0,B|193:238|193:238|274:233,1,100,2|2,0:0|0:0,0:0:0:0:
300,233,167290,2,0,L|310:289,1,50,2|2,0:0|0:1,0:0:0:0:
458,276,168567,1,2,0:1:0:0:
487,180,169205,6,0,B|475:140|475:140|414:120,1,100,2|2,0:1|0:0,0:0:0:0:
372,103,170163,1,2,0:1:0:0:
209,219,171439,2,0,L|94:228,1,100,2|2,0:0|0:0,0:0:0:0:
70,195,172397,2,0,L|54:137,1,50,2|2,0:0|0:1,0:0:0:0:
197,95,173673,1,2,0:0:0:0:
271,28,174312,6,0,L|349:34,1,75,2|2,0:1|0:0,0:0:0:0:
407,88,175269,1,2,0:0:0:0:
352,172,175907,2,0,L|341:254,1,75,2|2,0:0|0:0,0:0:0:0:
389,314,176865,1,2,0:1:0:0:
193,354,178141,1,2,0:0:0:0:
117,288,178780,1,2,0:0:0:0:
183,213,179418,6,0,L|195:120,1,75,2|2,0:1|0:0,0:0:0:0:
251,82,180375,1,2,0:1:0:0:
455,58,181971,2,0,L|439:174,1,100,2|2,0:1|0:0,0:0:0:0:
422,255,183248,1,2,0:0:0:0:
322,241,183886,1,2,0:1:0:0:
264,322,184524,6,0,B|223:323|223:323|168:273,1,100,2|2,0:1|0:0,0:0:0:0:
147,244,185482,1,2,0:1:0:0:
268,85,186758,2,0,L|249:191,1,100,2|2,0:0|0:0,0:0:0:0:
286,218,187716,2,0,L|344:227,1,50,2|2,0:0|0:1,0:0:0:0:
381,368,188992,1,2,0:1:0:0:
458,304,189631,6,0,L|474:197,1,100,2|2,0:1|0:0,0:0:0:0:
455,158,190588,1,2,0:1:0:0:
299,32,191865,2,0,B|253:51|253:51|241:119,1,100,2|2,0:0|0:0,0:0:0:0:
239,150,192822,2,0,L|167:151,1,50,2|2,0:0|0:1,0:0:0:0:
40,173,194099,1,2,0:1:0:0:
53,272,194737,6,0,L|144:286,1,75,2|2,0:1|0:0,0:0:0:0:
185,340,195695,1,2,0:0:0:0:
276,288,196333,2,0,L|289:205,1,75,2|2,0:0|0:0,0:0:0:0:
356,170,197290,1,2,0:1:0:0:
209,33,198567,1,2,0:0:0:0:
111,10,199205,1,2,0:0:0:0:
41,82,199843,6,0,L|46:172,1,75,2|2,0:1|0:0,0:0:0:0:
103,216,200801,1,2,0:1:0:0:
318,343,202397,2,0,L|333:239,1,100,2|2,0:1|0:0,0:0:0:0:
410,190,203741,2,0,B|414:122|414:122|456:97,1,100,0|0,0:0|0:0,0:0:0:0:
508,26,205015,5,2,0:1:0:0:
158,49,207297,1,0,0:0:0:0:
389,311,209512,1,2,0:0:0:0:
287,307,210175,5,2,0:1:0:0:
265,108,212397,1,0,0:0:0:0:
88,227,213984,1,2,0:0:0:0:
134,315,214619,1,2,0:0:0:0:
181,227,215277,6,0,L|256:222,2,75,2|2|2,0:1|0:0|0:0,0:0:0:0:
297,340,219108,1,2,0:0:0:0:
325,243,219744,1,2,0:0:0:0:
421,259,220381,2,0,L|432:337,2,75,2|2|2,0:0|0:0|0:0,0:0:0:0:
336,88,223106,5,2,0:0:0:0:
336,88,224615,1,2,0:0:0:0:
498,24,226230,5,2,0:1:0:0:
256,192,227046,12,0,232760,0:0:0:0:
