osu file format v14

[General]
AudioFilename: audio.ogg
AudioLeadIn: 0
PreviewTime: 48876
Countdown: 0
SampleSet: Soft
StackLeniency: 0.7
Mode: 0
LetterboxInBreaks: 0
WidescreenStoryboard: 1

[Editor]
Bookmarks: 63767,77990
DistanceSpacing: 1
BeatDivisor: 4
GridSize: 4
TimelineZoom: 1.2

[Metadata]
Title:Nemurenai feat. Kusunoki Tomori (TV Size)
TitleUnicode:眠れない feat. 楠木ともり (TV Size)
Artist:MIMiNARI
ArtistUnicode:MIMiNARI
Creator:Kyle73
Version:Bitter Memories
Source:ひきこまり吸血姫の悶々
Tags:The Vexations of a Shut-In Vampire Princess The Shut-In Vampire Princess' Worries Hikikomari Kyuuketsuki no Monmon Little Cloudsplash16 Doormat Lafayla Terakomari Kanui Anime Japanese Pop Ending
BeatmapID:4348353
BeatmapSetID:2076821

[Difficulty]
HPDrainRate:6
CircleSize:4
OverallDifficulty:7.5
ApproachRate:8
SliderMultiplier:1.73
SliderTickRate:1

[Events]
//Background and Video events
0,0,"edbackgrounddd.png",0,0
Video,-159,"hikikomariED.mp4"
//Break Periods
//Storyboard Layer 0 (Background)
//Storyboard Layer 1 (Fail)
//Storyboard Layer 2 (Pass)
//Storyboard Layer 3 (Foreground)
//Storyboard Layer 4 (Overlay)
//Storyboard Sound Samples

[TimingPoints]
-3787,444.444444444444,4,2,1,50,1,0
6879,444.444444444444,6,2,1,50,1,0
12212,-125,6,2,1,55,0,0
20212,444.444444444444,4,2,1,55,1,0
20212,-125,4,2,1,55,0,0
23767,444.444444444444,6,2,1,65,1,0
23767,-100,6,2,1,65,0,0
31766,444.444444444444,4,2,1,65,1,0
35321,444.444444444444,4,2,1,65,1,0
35321,-125,4,2,1,55,0,0
36210,-250,4,2,1,55,0,0
36877,-125,4,2,1,55,0,0
37988,-250,4,2,1,55,0,0
38654,-125,4,2,1,55,0,0
41765,-166.666666666667,4,2,1,40,0,0
49543,-90.9090909090909,4,2,1,70,0,0
59765,-80,4,2,1,70,0,0
60210,-90.9090909090909,4,2,1,70,0,0
67321,-80,4,2,1,70,0,0
67765,-90.9090909090909,4,2,1,70,0,0
77988,444.444444444444,6,2,1,70,1,0
77988,-100,6,2,1,70,0,0
79765,-125,6,2,1,70,0,0
80654,444.444444444444,4,2,1,70,1,0
80654,-500,4,2,1,70,0,0
83542,-136.986301369863,4,2,1,40,0,0
84210,500,4,2,1,40,1,0
84210,-136.986301369863,4,2,1,40,0,0
84710,428.571428571429,4,2,1,40,1,0
85138,571.428571428571,4,2,1,40,1,0
85423,530.973451327434,4,2,1,40,1,0
85688,495.867768595041,4,2,1,40,1,0
85935,428.571428571429,4,2,1,40,1,0

[Colours]
Combo1 : 241,198,255
Combo2 : 250,232,126
Combo3 : 251,185,140
Combo4 : 247,164,179

[HitObjects]
35,207,879,5,2,0:0:0:0:
0,114,1101,1,2,0:0:0:0:
93,79,1323,1,2,0:0:0:0:
128,172,1546,1,2,0:0:0:0:
69,144,1990,6,0,B|176:151|127:189|230:193,1,173,2|2,0:0|0:0,0:0:0:0:
231,193,2878,6,0,B|128:189|177:151|70:144,1,173,2|2,0:0|0:0,0:0:0:0:
215,91,3767,5,2,0:0:0:0:
95,238,4212,1,2,0:0:0:0:
282,270,4656,1,2,0:0:0:0:
195,208,4879,5,2,0:0:0:0:
195,208,4990,1,2,0:0:0:0:
195,208,5101,2,0,P|193:190|191:173,2,34.6,2|2|2,0:0|0:0|0:0,0:0:0:0:
221,178,5368,2,0,P|225:144|227:110,1,69.2,2|2,0:0|0:0,0:0:0:0:
42,262,6879,5,0,1:0:0:0:
260,204,7324,2,0,P|217:199|175:189,1,86.5,10|0,0:0|0:0,0:0:0:0:
42,262,7768,2,0,P|85:267|127:277,1,86.5,2|2,1:2|0:0,0:0:0:0:
94,138,8212,1,8,0:0:0:0:
166,0,8434,6,0,P|170:42|175:86,1,86.5,2|0,0:0|1:0,0:0:0:0:
333,252,8878,1,2,0:0:0:0:
162,204,9101,1,8,0:0:0:0:
423,145,9545,6,0,P|466:141|508:135,1,86.5,0|0,1:0|0:0,0:0:0:0:
407,54,9990,2,0,P|347:75|327:134,1,129.75,10|0,0:0|0:0,0:0:0:0:
335,164,10434,5,2,1:2:0:0:
500,358,10656,1,2,0:0:0:0:
500,358,10878,2,0,B|516:312|516:312|506:275,1,86.5,8|2,0:0|0:0,0:0:0:0:
344,195,11323,1,0,1:0:0:0:
446,137,11545,1,2,0:0:0:0:
446,137,11767,2,0,P|440:179|433:222,1,86.5,10|0,0:0|0:0,0:0:0:0:
415,307,12212,5,4,1:3:0:0:
415,307,12656,2,0,P|380:312|346:317,1,69.2,10|2,0:0|0:0,0:0:0:0:
159,226,13101,2,0,P|225:230|259:287,1,138.4,2|8,1:2|0:0,0:0:0:0:
187,356,13767,1,2,0:0:0:0:
63,310,13989,5,2,1:2:0:0:
95,152,14211,1,2,0:0:0:0:
158,247,14434,1,8,0:0:0:0:
0,215,14656,1,2,0:0:0:0:
81,232,14878,1,0,1:0:0:0:
205,23,15322,5,10,0:0:0:0:
290,39,15545,1,2,0:0:0:0:
343,107,15767,2,0,B|430:116|384:142|469:156,1,138.4,2|8,1:2|0:0,0:0:0:0:
345,199,16434,1,2,0:0:0:0:
507,53,16656,2,0,P|472:48|438:45,1,69.2,2|2,1:2|0:0,0:0:0:0:
345,7,17100,1,8,0:0:0:0:
233,94,17322,1,2,0:0:0:0:
343,107,17545,1,0,1:0:0:0:
76,33,17990,5,10,0:0:0:0:
135,118,18212,1,2,0:0:0:0:
28,258,18434,2,0,P|34:189|39:120,1,138.4,2|8,1:2|0:0,0:0:0:0:
172,24,19101,1,2,0:0:0:0:
217,169,19323,5,2,1:2:0:0:
135,118,19546,1,2,0:0:0:0:
255,84,19768,1,8,0:0:0:0:
318,192,19990,1,2,0:0:0:0:
217,169,20212,1,0,1:0:0:0:
471,296,20657,5,10,0:0:0:0:
383,344,20879,1,2,0:0:0:0:
428,198,21101,5,2,1:2:0:0:
384,260,21323,1,2,0:0:0:0:
290,178,21546,5,10,0:0:0:0:
299,215,21768,1,2,0:0:0:0:
237,276,21990,6,0,B|193:276|193:276|165:304|165:304|111:315,2,138.4,2|8|0,1:2|0:0|1:0,0:0:0:0:
43,200,23100,5,2,0:0:0:0:
76,211,23322,1,14,0:0:0:0:
109,221,23544,1,2,0:0:0:0:
26,368,23767,6,0,P|15:326|19:283,1,86.5,2|2,1:2|0:0,0:0:0:0:
123,133,24212,1,10,0:0:0:0:
199,183,24434,1,2,0:0:0:0:
55,52,24656,6,0,B|21:111|18:167|18:167|59:196,1,173,2|8,1:2|0:0,0:0:0:0:
206,282,25323,1,2,0:0:0:0:
99,362,25545,2,0,P|106:319|114:276,1,86.5,2|2,1:2|0:0,0:0:0:0:
230,193,25990,2,0,P|222:150|214:107,1,86.5,10|2,0:0|0:0,0:0:0:0:
351,32,26434,6,0,P|433:38|468:113,1,173,0|10,1:0|0:0,0:0:0:0:
332,190,27101,1,2,0:0:0:0:
507,252,27323,2,0,B|462:241|429:208|429:208|416:250|377:269,1,173,2|8,1:2|0:0,0:0:0:0:
448,334,27990,1,2,0:0:0:0:
285,291,28212,5,2,1:2:0:0:
181,246,28434,1,2,0:0:0:0:
99,329,28656,1,8,0:0:0:0:
199,355,28878,1,2,0:0:0:0:
199,355,29101,1,0,1:0:0:0:
0,159,29545,5,10,0:0:0:0:
77,120,29767,1,2,0:0:0:0:
3,74,29990,2,0,B|108:85|54:120|162:131,1,173,2|8,1:2|0:0,0:0:0:0:
301,165,30656,1,2,0:0:0:0:
251,13,30878,2,0,P|235:53|241:95,1,86.5,2|2,1:2|0:0,0:0:0:0:
380,221,31323,2,0,P|395:180|389:138,1,86.5,10|2,0:0|0:0,0:0:0:0:
238,231,31766,6,0,B|176:240|176:240|146:277|146:277|84:289,1,173,0|10,1:0|0:0,0:0:0:0:
231,329,32432,1,2,0:0:0:0:
88,191,32654,2,0,P|44:187|1:182,1,86.5,2|2,1:2|0:0,0:0:0:0:
82,29,33099,1,8,0:0:0:0:
150,101,33321,1,2,0:0:0:0:
322,154,33543,5,2,1:2:0:0:
322,154,33765,1,0,1:0:0:0:
407,189,33988,1,12,0:0:0:0:
495,355,34321,5,8,0:0:0:0:
485,336,34432,1,8,0:0:0:0:
398,297,34654,1,8,3:0:0:0:
495,218,34876,1,8,3:0:0:0:
402,154,35099,1,8,3:0:0:0:
421,227,35321,6,0,P|423:261|426:295,1,69.2,6|2,1:2|0:0,0:0:0:0:
343,358,35765,2,0,P|311:342|280:328,1,69.2,2|2,1:2|0:0,0:0:0:0:
268,224,36210,2,0,P|296:204|325:184,1,69.2,8|2,1:2|0:0,0:0:0:0:
346,272,36876,5,2,1:2:0:0:
280,328,37099,2,0,P|245:329|210:331,1,69.2,2|10,1:2|1:2,0:0:0:0:
166,204,37543,2,0,P|156:237|147:270,1,69.2,2|2,0:0|1:2,0:0:0:0:
12,274,37988,2,0,P|40:292|69:312,1,69.2,8|0,1:2|0:0,0:0:0:0:
135,363,38654,5,2,1:2:0:0:
289,295,38876,2,0,P|254:297|219:299,1,69.2,2|10,1:2|1:2,0:0:0:0:
166,204,39320,2,0,P|131:201|96:199,1,69.2,2|2,0:0|1:2,0:0:0:0:
23,136,39765,5,10,0:0:0:0:
93,59,39988,1,2,0:0:0:0:
210,72,40210,1,10,0:0:0:0:
256,191,40432,1,6,0:0:0:0:
245,208,41765,5,2,0:0:0:0:
245,173,41988,1,2,0:0:0:0:
274,190,42210,1,2,0:0:0:0:
352,176,42432,6,0,P|403:170|455:165,1,103.799996832275,2|2,0:0|0:0,0:0:0:0:
160,176,43321,2,0,P|108:170|56:165,1,103.799996832275,2|2,0:0|0:0,0:0:0:0:
190,95,44210,5,2,0:0:0:0:
322,287,44654,1,2,0:0:0:0:
322,95,45099,1,2,0:0:0:0:
190,287,45543,1,2,0:0:0:0:
250,166,45988,6,0,P|255:191|261:216,3,51.8999984161377,2|2|2|2,0:0|0:0|0:0|0:0,0:0:0:0:
322,287,46876,6,0,P|316:312|310:337,3,51.8999984161377,2|2|2|2,0:0|0:0|0:0|0:0,0:0:0:0:
210,352,47765,5,2,0:0:0:0:
186,338,47988,1,2,0:0:0:0:
200,316,48210,1,2,0:0:0:0:
222,328,48432,1,2,0:0:0:0:
500,72,49543,6,0,P|452:67|405:62,1,95.1500029037476,6|2,0:0|0:0,0:0:0:0:
219,104,49988,2,0,P|307:102|333:186,1,190.300005807495,10|2,1:2|1:2,0:0:0:0:
282,284,50654,1,2,0:0:0:0:
366,361,50876,1,8,1:2:0:0:
483,255,51099,5,2,0:0:0:0:
483,255,51210,1,2,0:0:0:0:
483,255,51321,2,0,P|435:261|388:266,1,95.1500029037476,2|0,1:2|0:0,0:0:0:0:
188,341,51765,2,0,P|174:295|177:248,1,95.1500029037476,8|2,1:2|0:0,0:0:0:0:
309,67,52210,2,0,P|322:112|319:159,1,95.1500029037476,2|0,1:2|0:0,0:0:0:0:
166,80,52654,1,8,1:2:0:0:
235,159,52876,5,2,0:0:0:0:
235,159,52988,1,2,0:0:0:0:
235,159,53099,2,0,P|187:163|140:168,1,95.1500029037476,6|2,1:2|0:0,0:0:0:0:
8,318,53543,1,8,0:0:0:0:
129,359,53765,1,2,0:0:0:0:
129,359,53876,1,2,0:0:0:0:
129,359,53988,2,0,B|140:311|140:311|126:267,1,95.1500029037476,2|2,1:2|0:0,0:0:0:0:
18,94,54432,1,8,1:2:0:0:
0,207,54654,5,2,0:0:0:0:
33,194,54765,1,2,0:0:0:0:
66,181,54876,1,0,1:0:0:0:
99,168,54988,1,2,0:0:0:0:
132,155,55099,1,2,0:0:0:0:
280,51,55321,2,0,P|232:46|185:40,1,95.1500029037476,8|2,1:2|0:0,0:0:0:0:
185,40,55654,1,2,0:0:0:0:
185,40,55765,1,2,1:2:0:0:
273,155,55988,1,2,0:0:0:0:
379,114,56209,1,8,0:0:0:0:
477,272,56432,5,2,0:0:0:0:
477,272,56543,1,2,0:0:0:0:
476,272,56654,2,0,P|483:225|474:178,1,95.1500029037476,6|2,1:2|0:0,0:0:0:0:
286,27,57099,2,0,B|251:70|251:70|273:155,1,142.725004355621,8|0,1:2|0:0,0:0:0:0:
285,184,57543,2,0,P|238:195|192:206,1,95.1500029037476,2|2,1:2|0:0,0:0:0:0:
12,347,57988,2,0,B|65:342|85:294|85:294|61:252,1,142.725004355621,8|0,0:0|0:0,0:0:0:0:
50,224,58432,6,0,P|54:176|58:129,1,95.1500029037476,2|2,1:2|0:0,0:0:0:0:
23,31,58876,1,8,0:0:0:0:
58,17,58988,1,2,0:0:0:0:
95,21,59099,1,2,0:0:0:0:
126,42,59210,1,2,0:0:0:0:
144,76,59321,1,0,1:0:0:0:
162,110,59432,1,2,0:0:0:0:
193,131,59543,1,2,0:0:0:0:
230,135,59654,1,2,0:0:0:0:
265,121,59765,6,0,P|291:114|317:107,3,54.0625,8|2|2|2,0:0|0:0|0:0|0:0,0:0:0:0:
257,39,60210,6,0,B|372:77|306:102|416:137,1,190.300005807495,6|8,1:2|1:2,0:0:0:0:
504,267,60876,1,2,0:0:0:0:
511,239,60988,1,2,0:0:0:0:
500,211,61099,1,0,1:0:0:0:
321,300,61321,1,2,0:0:0:0:
314,328,61432,1,2,0:0:0:0:
325,356,61543,1,8,1:2:0:0:
434,353,61765,1,2,0:0:0:0:
368,220,61988,5,2,0:0:0:0:
208,290,62210,1,2,0:0:0:0:
323,313,62432,1,14,1:2:0:0:
26,140,63099,5,2,0:0:0:0:
141,207,63321,1,10,1:2:0:0:
3,271,63543,1,8,0:0:0:0:
20,248,63654,1,8,0:0:0:0:
37,224,63765,6,0,P|84:229|131:235,1,95.1500029037476,6|2,1:2|0:0,0:0:0:0:
83,328,64210,1,8,0:0:0:0:
231,242,64432,1,2,0:0:0:0:
159,85,64654,2,0,B|116:129|116:129|141:207,1,142.725004355621,2|0,1:2|0:0,0:0:0:0:
131,235,65099,2,0,P|84:241|37:246,1,95.1500029037476,8|2,1:2|0:0,0:0:0:0:
25,20,65543,6,0,B|90:36|90:36|122:82|122:82|186:100,1,190.300005807495,4|10,1:2|1:2,0:0:0:0:
421,104,66210,1,2,0:0:0:0:
385,86,66321,1,2,0:0:0:0:
346,86,66432,1,2,1:2:0:0:
311,104,66543,1,2,0:0:0:0:
287,135,66654,1,2,0:0:0:0:
280,174,66765,1,2,0:0:0:0:
290,212,66876,1,8,0:0:0:0:
481,331,67099,5,2,0:0:0:0:
498,295,67210,1,2,0:0:0:0:
478,258,67321,2,0,P|451:263|425:268,2,54.0625,2|2|2,1:2|0:0|0:0,0:0:0:0:
375,183,67765,2,0,P|327:179|280:173,1,95.1500029037476,10|2,1:2|0:0,0:0:0:0:
280,173,68099,1,2,0:0:0:0:
280,173,68210,1,2,1:2:0:0:
141,287,68432,1,2,0:0:0:0:
177,273,68543,1,2,0:0:0:0:
213,259,68654,1,10,1:2:0:0:
141,75,68877,1,2,0:0:0:0:
177,89,68988,1,2,0:0:0:0:
213,103,69099,6,0,B|228:61|228:61|212:12,1,95.1500029037476,6|2,1:2|0:0,0:0:0:0:
6,140,69542,2,0,B|-9:182|-9:182|6:230,1,95.1500029037476,8|2,1:2|0:0,0:0:0:0:
6,230,69876,1,2,0:0:0:0:
6,230,69988,1,0,1:0:0:0:
141,287,70209,1,2,0:0:0:0:
13,350,70431,1,8,0:0:0:0:
109,191,70653,1,2,0:0:0:0:
109,191,70765,1,2,0:0:0:0:
109,191,70876,6,0,P|156:192|204:195,1,95.1500029037476,6|2,1:2|0:0,0:0:0:0:
454,314,71321,2,0,P|366:316|340:232,1,190.300005807495,10|2,1:2|1:2,0:0:0:0:
295,136,71988,1,2,0:0:0:0:
346,50,72210,1,8,0:0:0:0:
491,122,72432,5,2,0:0:0:0:
491,122,72543,1,2,0:0:0:0:
491,122,72654,2,0,P|444:128|397:133,1,95.1500029037476,2|2,1:2|0:0,0:0:0:0:
207,182,73099,2,0,P|194:136|204:90,1,95.1500029037476,10|2,0:0|0:0,0:0:0:0:
451,222,73543,2,0,P|464:268|454:314,1,95.1500029037476,2|2,1:2|0:0,0:0:0:0:
365,369,73988,1,8,1:2:0:0:
270,284,74210,5,2,0:0:0:0:
270,284,74321,1,2,0:0:0:0:
270,284,74432,2,0,P|317:278|364:273,1,95.1500029037476,6|2,1:2|0:0,0:0:0:0:
194,212,74876,2,0,B|138:219|138:219|110:255|110:255|22:267,1,190.300005807495,8|0,0:0|1:0,0:0:0:0:
173,360,75543,1,2,0:0:0:0:
184,331,75654,1,2,0:0:0:0:
195,302,75765,2,0,P|242:307|289:313,1,95.1500029037476,8|2,1:2|0:0,0:0:0:0:
105,140,76210,6,0,P|57:145|10:151,1,95.1500029037476,2|2,1:2|0:0,0:0:0:0:
152,10,76654,2,0,P|201:59|203:128,1,142.725004355621,8|0,0:0|0:0,0:0:0:0:
191,155,77099,5,8,0:0:0:0:
220,158,77210,1,8,0:0:0:0:
249,166,77321,1,8,3:0:0:0:
275,179,77432,1,8,3:0:0:0:
296,200,77543,1,4,3:0:0:0:
320,217,77654,1,4,3:0:0:0:
348,226,77765,1,4,3:0:0:0:
378,231,77876,1,4,3:0:0:0:
407,233,77988,6,0,B|465:194|465:194|439:293,1,173,6|0,0:0|0:0,0:0:0:0:
105,233,78876,6,0,B|47:194|47:194|72:293,1,173,6|8,1:2|3:0,0:0:0:0:
256,357,79543,5,8,3:0:0:0:
256,357,79654,1,8,3:0:0:0:
256,357,79765,2,0,B|237:276|266:311|253:220,1,138.4,6|0,1:2|0:0,0:0:0:0:
257,9,80654,6,0,B|238:90|267:55|254:145,1,138.4,6|2,0:0|0:0,0:0:0:0:
254,145,83542,6,0,P|222:150|191:156,2,63.1450017343293,2|2|2,0:0|0:0|0:0,0:0:0:0:
286,58,84210,2,0,P|337:92|351:152,1,126.290003468659,2|2,0:0|0:0,0:0:0:0:
288,233,85138,5,2,0:0:0:0:
214,268,85423,1,2,0:0:0:0:
143,247,85688,1,2,0:0:0:0:
135,207,85935,1,2,0:0:0:0:
