osu file format v14

[General]
AudioFilename: audio.ogg
AudioLeadIn: 0
PreviewTime: 47631
Countdown: 0
SampleSet: Soft
StackLeniency: 0.7
Mode: 3
LetterboxInBreaks: 0
SpecialStyle: 0
WidescreenStoryboard: 1

[Editor]
DistanceSpacing: 1.5
BeatDivisor: 1
GridSize: 4
TimelineZoom: 0.7000002

[Metadata]
Title:10 Things I Hate About Ai no Sukima
TitleUnicode:10 Things I Hate About 哀の隙間
Artist:MIMI vs. Leah Kate
ArtistUnicode:MIMI vs. Leah Kate
Creator:MocaLoca
Version:6 - Only 6 Easies and I had to fake it
Source:
Tags:revelsix visionary english pop sped up novelty mashup sorrow's gap kibitz ainer
BeatmapID:3971252
BeatmapSetID:1921755

[Difficulty]
HPDrainRate:6
CircleSize:4
OverallDifficulty:6
ApproachRate:5
SliderMultiplier:1.4
SliderTickRate:1

[Events]
//Background and Video events
0,0,"leah miku.jpg",0,0
//Break Periods
//Storyboard Layer 0 (Background)
//Storyboard Layer 1 (Fail)
//Storyboard Layer 2 (Pass)
//Storyboard Layer 3 (Foreground)
//Storyboard Layer 4 (Overlay)
//Storyboard Sound Samples

[TimingPoints]
573,294.117645263672,4,2,1,35,1,0

[HitObjects]
64,192,573,5,0,0:0:0:0:
192,192,867,1,0,0:0:0:0:
448,192,1161,1,0,0:0:0:0:
320,192,1455,1,0,0:0:0:0:
64,192,1749,1,0,0:0:0:0:
192,192,2043,1,0,0:0:0:0:
64,192,2337,1,0,0:0:0:0:
448,192,2631,1,0,0:0:0:0:
192,192,2925,1,0,0:0:0:0:
320,192,3220,1,0,0:0:0:0:
192,192,3514,1,0,0:0:0:0:
448,192,3808,1,0,0:0:0:0:
64,192,4102,1,0,0:0:0:0:
320,192,4396,1,0,0:0:0:0:
192,192,4690,1,0,0:0:0:0:
64,192,5278,1,0,0:0:0:0:
192,192,5572,1,0,0:0:0:0:
448,192,5867,1,0,0:0:0:0:
192,192,6161,1,0,0:0:0:0:
320,192,6455,1,0,0:0:0:0:
64,192,6749,1,0,0:0:0:0:
192,192,7043,1,0,0:0:0:0:
320,192,7337,1,0,0:0:0:0:
192,192,7631,1,0,0:0:0:0:
448,192,7925,1,0,0:0:0:0:
192,192,8220,1,0,0:0:0:0:
320,192,8514,1,0,0:0:0:0:
64,192,8808,1,0,0:0:0:0:
448,192,9102,1,0,0:0:0:0:
64,192,9396,1,0,0:0:0:0:
320,192,9984,1,0,0:0:0:0:
64,192,10278,1,0,0:0:0:0:
448,192,10278,1,0,0:0:0:0:
192,192,10572,1,0,0:0:0:0:
320,192,10867,1,0,0:0:0:0:
448,192,10867,1,0,0:0:0:0:
192,192,11161,1,0,0:0:0:0:
64,192,11455,1,0,0:0:0:0:
448,192,11455,1,0,0:0:0:0:
320,192,11749,1,0,0:0:0:0:
192,192,12043,1,0,0:0:0:0:
64,192,12043,1,0,0:0:0:0:
320,192,12337,1,0,0:0:0:0:
448,192,12631,1,0,0:0:0:0:
192,192,12631,1,0,0:0:0:0:
64,192,12925,1,0,0:0:0:0:
320,192,13220,1,0,0:0:0:0:
448,192,13220,1,0,0:0:0:0:
192,192,13514,1,0,0:0:0:0:
64,192,13808,1,0,0:0:0:0:
320,192,13808,1,0,0:0:0:0:
448,192,14102,1,0,0:0:0:0:
64,192,14396,1,0,0:0:0:0:
192,192,14396,1,0,0:0:0:0:
448,192,14690,1,0,0:0:0:0:
192,192,14984,1,0,0:0:0:0:
320,192,14984,1,0,0:0:0:0:
64,192,15278,1,0,0:0:0:0:
448,192,15572,1,0,0:0:0:0:
320,192,15572,1,0,0:0:0:0:
64,192,15867,1,0,0:0:0:0:
192,192,16161,1,0,0:0:0:0:
320,192,16161,1,0,0:0:0:0:
448,192,16455,1,0,0:0:0:0:
192,192,16749,1,0,0:0:0:0:
64,192,16749,1,0,0:0:0:0:
448,192,17043,1,0,0:0:0:0:
320,192,17337,1,0,0:0:0:0:
192,192,17337,1,0,0:0:0:0:
64,192,17631,1,0,0:0:0:0:
448,192,17925,1,0,0:0:0:0:
320,192,17925,1,0,0:0:0:0:
192,192,18220,1,0,0:0:0:0:
448,192,18514,1,0,0:0:0:0:
64,192,18514,1,0,0:0:0:0:
320,192,18808,1,0,0:0:0:0:
64,192,19102,1,0,0:0:0:0:
192,192,19102,1,0,0:0:0:0:
448,192,19396,1,0,0:0:0:0:
192,192,19690,1,0,0:0:0:0:
64,192,19690,1,0,0:0:0:0:
320,192,19984,1,0,0:0:0:0:
192,192,20278,1,0,0:0:0:0:
448,192,20278,1,0,0:0:0:0:
64,192,20572,1,0,0:0:0:0:
320,192,20867,1,0,0:0:0:0:
448,192,20867,1,0,0:0:0:0:
192,192,21161,1,0,0:0:0:0:
64,192,21455,1,0,0:0:0:0:
448,192,21455,1,0,0:0:0:0:
320,192,21749,1,0,0:0:0:0:
192,192,22043,1,0,0:0:0:0:
64,192,22043,1,0,0:0:0:0:
448,192,22337,1,0,0:0:0:0:
320,192,22631,1,0,0:0:0:0:
192,192,22631,1,0,0:0:0:0:
64,192,22925,1,0,0:0:0:0:
448,192,23220,1,0,0:0:0:0:
320,192,23220,1,0,0:0:0:0:
192,192,23514,1,0,0:0:0:0:
448,192,23808,1,0,0:0:0:0:
64,192,23808,1,0,0:0:0:0:
192,192,24102,1,0,0:0:0:0:
320,192,24396,1,0,0:0:0:0:
448,192,24396,1,0,0:0:0:0:
192,192,24690,1,0,0:0:0:0:
64,192,24984,1,0,0:0:0:0:
320,192,24984,1,0,0:0:0:0:
448,192,25278,1,0,0:0:0:0:
192,192,25572,1,0,0:0:0:0:
64,192,25572,1,0,0:0:0:0:
320,192,25867,1,0,0:0:0:0:
448,192,26161,1,0,0:0:0:0:
64,192,26161,1,0,0:0:0:0:
192,192,26455,1,0,0:0:0:0:
320,192,26749,1,0,0:0:0:0:
448,192,26749,1,0,0:0:0:0:
64,192,27043,1,0,0:0:0:0:
192,192,27337,1,0,0:0:0:0:
320,192,27337,1,0,0:0:0:0:
448,192,27631,1,0,0:0:0:0:
192,192,27925,1,0,0:0:0:0:
64,192,27925,1,0,0:0:0:0:
320,192,28220,1,0,0:0:0:0:
448,192,28514,1,0,0:0:0:0:
64,192,28514,1,0,0:0:0:0:
320,192,28808,1,0,0:0:0:0:
192,192,29102,1,0,0:0:0:0:
448,192,29396,1,0,0:0:0:0:
64,192,29984,1,0,0:0:0:0:
192,192,30278,1,0,0:0:0:0:
448,192,30572,1,0,0:0:0:0:
320,192,31161,1,0,0:0:0:0:
448,192,31455,1,0,0:0:0:0:
192,192,31749,1,0,0:0:0:0:
320,192,32337,1,0,0:0:0:0:
192,192,32631,1,0,0:0:0:0:
64,192,32925,1,0,0:0:0:0:
448,192,33514,1,0,0:0:0:0:
192,192,33808,1,0,0:0:0:0:
320,192,34102,1,0,0:0:0:0:
64,192,34690,1,0,0:0:0:0:
192,192,34984,1,0,0:0:0:0:
448,192,35278,1,0,0:0:0:0:
64,192,35867,1,0,0:0:0:0:
320,192,36161,1,0,0:0:0:0:
192,192,36455,1,0,0:0:0:0:
448,192,37043,1,0,0:0:0:0:
448,192,38220,1,0,0:0:0:0:
64,192,38220,1,0,0:0:0:0:
320,192,38514,1,0,0:0:0:0:
192,192,38808,1,0,0:0:0:0:
64,192,39102,1,0,0:0:0:0:
320,192,39396,1,0,0:0:0:0:
448,192,39690,1,0,0:0:0:0:
192,192,39984,1,0,0:0:0:0:
320,192,40278,1,0,0:0:0:0:
64,192,40572,1,0,0:0:0:0:
192,192,40867,1,0,0:0:0:0:
448,192,41161,1,0,0:0:0:0:
320,192,41455,1,0,0:0:0:0:
192,192,41749,1,0,0:0:0:0:
64,192,42043,1,0,0:0:0:0:
320,192,42337,1,0,0:0:0:0:
192,192,42631,1,0,0:0:0:0:
448,192,42925,1,0,0:0:0:0:
64,192,43220,1,0,0:0:0:0:
192,192,43514,1,0,0:0:0:0:
320,192,43808,1,0,0:0:0:0:
448,192,44102,1,0,0:0:0:0:
192,192,44396,1,0,0:0:0:0:
64,192,44690,1,0,0:0:0:0:
320,192,44984,1,0,0:0:0:0:
192,192,45278,1,0,0:0:0:0:
64,192,45572,1,0,0:0:0:0:
448,192,45867,1,0,0:0:0:0:
320,192,46161,1,0,0:0:0:0:
64,192,46455,1,0,0:0:0:0:
448,192,46749,1,0,0:0:0:0:
192,192,47043,1,0,0:0:0:0:
320,192,47337,1,0,0:0:0:0:
448,192,47631,1,0,0:0:0:0:
64,192,47631,1,0,0:0:0:0:
192,192,47925,1,0,0:0:0:0:
320,192,48220,1,0,0:0:0:0:
448,192,48514,1,0,0:0:0:0:
192,192,48808,1,0,0:0:0:0:
64,192,48808,1,0,0:0:0:0:
320,192,49102,1,0,0:0:0:0:
192,192,49396,1,0,0:0:0:0:
64,192,49690,1,0,0:0:0:0:
320,192,49984,1,0,0:0:0:0:
448,192,49984,1,0,0:0:0:0:
192,192,50278,1,0,0:0:0:0:
64,192,50572,1,0,0:0:0:0:
320,192,50867,1,0,0:0:0:0:
192,192,51161,1,0,0:0:0:0:
448,192,51455,1,0,0:0:0:0:
320,192,51749,1,0,0:0:0:0:
192,192,52043,1,0,0:0:0:0:
64,192,52337,1,0,0:0:0:0:
448,192,52337,1,0,0:0:0:0:
192,192,52631,1,0,0:0:0:0:
320,192,52925,1,0,0:0:0:0:
448,192,53220,1,0,0:0:0:0:
64,192,53514,1,0,0:0:0:0:
320,192,53808,1,0,0:0:0:0:
192,192,54102,1,0,0:0:0:0:
448,192,54396,1,0,0:0:0:0:
192,192,54690,1,0,0:0:0:0:
64,192,54984,1,0,0:0:0:0:
320,192,54984,1,0,0:0:0:0:
448,192,55278,1,0,0:0:0:0:
192,192,55572,1,0,0:0:0:0:
64,192,55867,1,0,0:0:0:0:
320,192,56161,1,0,0:0:0:0:
192,192,56455,1,0,0:0:0:0:
448,192,56749,1,0,0:0:0:0:
320,192,57043,1,0,0:0:0:0:
192,192,57043,1,0,0:0:0:0:
64,192,57337,1,0,0:0:0:0:
448,192,57631,1,0,0:0:0:0:
192,192,57925,1,0,0:0:0:0:
320,192,58220,1,0,0:0:0:0:
448,192,58220,1,0,0:0:0:0:
64,192,58514,1,0,0:0:0:0:
192,192,58808,1,0,0:0:0:0:
320,192,59102,1,0,0:0:0:0:
192,192,59396,1,0,0:0:0:0:
64,192,59396,1,0,0:0:0:0:
448,192,59690,1,0,0:0:0:0:
320,192,59984,1,0,0:0:0:0:
192,192,60278,1,0,0:0:0:0:
64,192,60572,1,0,0:0:0:0:
320,192,60867,1,0,0:0:0:0:
448,192,61161,1,0,0:0:0:0:
64,192,61455,1,0,0:0:0:0:
192,192,61749,1,0,0:0:0:0:
320,192,61749,1,0,0:0:0:0:
448,192,62043,1,0,0:0:0:0:
320,192,62337,1,0,0:0:0:0:
192,192,62631,1,0,0:0:0:0:
64,192,62925,1,0,0:0:0:0:
320,192,63220,1,0,0:0:0:0:
192,192,63514,1,0,0:0:0:0:
448,192,63808,1,0,0:0:0:0:
320,192,64102,1,0,0:0:0:0:
64,192,64102,1,0,0:0:0:0:
192,192,64396,1,0,0:0:0:0:
320,192,64690,1,0,0:0:0:0:
448,192,64984,1,0,0:0:0:0:
64,192,65278,1,0,0:0:0:0:
320,192,65572,1,0,0:0:0:0:
192,192,65867,1,0,0:0:0:0:
448,192,66161,1,0,0:0:0:0:
320,192,66455,1,0,0:0:0:0:
64,192,66455,1,0,0:0:0:0:
