osu file format v14

[General]
AudioFilename: audio.ogg
AudioLeadIn: 0
PreviewTime: 47631
Countdown: 0
SampleSet: Soft
StackLeniency: 0.7
Mode: 3
LetterboxInBreaks: 0
SpecialStyle: 0
WidescreenStoryboard: 1

[Editor]
DistanceSpacing: 1.5
BeatDivisor: 4
GridSize: 4
TimelineZoom: 0.7999998

[Metadata]
Title:10 Things I Hate About Ai no Sukima
TitleUnicode:10 Things I Hate About 哀の隙間
Artist:MIMI vs. Leah Kate
ArtistUnicode:MIMI vs. Leah Kate
Creator:MocaLoca
Version:3 - You still got Hard mommy issues
Source:
Tags:revelsix visionary english pop sped up novelty mashup sorrow's gap kibitz ainer
BeatmapID:3982724
BeatmapSetID:1921755

[Difficulty]
HPDrainRate:7
CircleSize:4
OverallDifficulty:7
ApproachRate:5
SliderMultiplier:1.4
SliderTickRate:1

[Events]
//Background and Video events
0,0,"leah miku.jpg",0,0
//Break Periods
//Storyboard Layer 0 (Background)
//Storyboard Layer 1 (Fail)
//Storyboard Layer 2 (Pass)
//Storyboard Layer 3 (Foreground)
//Storyboard Layer 4 (Overlay)
//Storyboard Sound Samples

[TimingPoints]
573,294.117645263672,4,2,1,35,1,0

[HitObjects]
448,192,573,5,0,0:0:0:0:
64,192,573,1,0,0:0:0:0:
192,192,720,1,0,0:0:0:0:
320,192,867,1,0,0:0:0:0:
448,192,1161,1,0,0:0:0:0:
192,192,1308,1,0,0:0:0:0:
320,192,1455,1,0,0:0:0:0:
64,192,1602,1,0,0:0:0:0:
320,192,1749,1,0,0:0:0:0:
448,192,1749,1,0,0:0:0:0:
192,192,2043,1,0,0:0:0:0:
192,192,2337,1,0,0:0:0:0:
64,192,2484,1,0,0:0:0:0:
320,192,2631,1,0,0:0:0:0:
448,192,2778,1,0,0:0:0:0:
192,192,2925,1,0,0:0:0:0:
64,192,2925,1,0,0:0:0:0:
448,192,3220,1,0,0:0:0:0:
64,192,3514,1,0,0:0:0:0:
192,192,3661,1,0,0:0:0:0:
448,192,3808,1,0,0:0:0:0:
320,192,4102,1,0,0:0:0:0:
64,192,4102,1,0,0:0:0:0:
192,192,4249,1,0,0:0:0:0:
448,192,4396,1,0,0:0:0:0:
320,192,4690,1,0,0:0:0:0:
192,192,4690,1,0,0:0:0:0:
64,192,5278,1,0,0:0:0:0:
448,192,5278,1,0,0:0:0:0:
192,192,5425,1,0,0:0:0:0:
320,192,5572,1,0,0:0:0:0:
448,192,5867,1,0,0:0:0:0:
320,192,6014,1,0,0:0:0:0:
64,192,6161,1,0,0:0:0:0:
192,192,6308,1,0,0:0:0:0:
448,192,6455,1,0,0:0:0:0:
320,192,6455,1,0,0:0:0:0:
192,192,6749,1,0,0:0:0:0:
192,192,7043,1,0,0:0:0:0:
64,192,7190,1,0,0:0:0:0:
320,192,7337,1,0,0:0:0:0:
448,192,7484,1,0,0:0:0:0:
64,192,7631,1,0,0:0:0:0:
192,192,7631,1,0,0:0:0:0:
320,192,7925,1,0,0:0:0:0:
192,192,8220,1,0,0:0:0:0:
320,192,8367,1,0,0:0:0:0:
448,192,8514,1,0,0:0:0:0:
320,192,8808,1,0,0:0:0:0:
192,192,8955,1,0,0:0:0:0:
64,192,9102,1,0,0:0:0:0:
64,192,9396,1,0,0:0:0:0:
320,192,9984,1,0,0:0:0:0:
64,192,9984,1,0,0:0:0:0:
192,192,10131,1,0,0:0:0:0:
320,192,10131,1,0,0:0:0:0:
192,192,10278,1,0,0:0:0:0:
448,192,10278,1,0,0:0:0:0:
64,192,10425,1,0,0:0:0:0:
320,192,10572,1,0,0:0:0:0:
448,192,10572,1,0,0:0:0:0:
320,192,10720,1,0,0:0:0:0:
192,192,10720,1,0,0:0:0:0:
192,192,10867,1,0,0:0:0:0:
64,192,10867,1,0,0:0:0:0:
448,192,11014,1,0,0:0:0:0:
64,192,11014,1,0,0:0:0:0:
320,192,11161,1,0,0:0:0:0:
448,192,11161,1,0,0:0:0:0:
192,192,11308,1,0,0:0:0:0:
64,192,11455,1,0,0:0:0:0:
320,192,11455,1,0,0:0:0:0:
448,192,11602,1,0,0:0:0:0:
192,192,11749,1,0,0:0:0:0:
64,192,11749,1,0,0:0:0:0:
192,192,11896,1,0,0:0:0:0:
320,192,11896,1,0,0:0:0:0:
320,192,12043,1,0,0:0:0:0:
448,192,12043,1,0,0:0:0:0:
448,192,12190,1,0,0:0:0:0:
64,192,12190,1,0,0:0:0:0:
192,192,12337,1,0,0:0:0:0:
64,192,12337,1,0,0:0:0:0:
320,192,12484,1,0,0:0:0:0:
448,192,12631,1,0,0:0:0:0:
192,192,12631,1,0,0:0:0:0:
64,192,12778,1,0,0:0:0:0:
320,192,12925,1,0,0:0:0:0:
448,192,12925,1,0,0:0:0:0:
320,192,13072,1,0,0:0:0:0:
192,192,13072,1,0,0:0:0:0:
192,192,13220,1,0,0:0:0:0:
64,192,13220,1,0,0:0:0:0:
448,192,13367,1,0,0:0:0:0:
320,192,13514,1,0,0:0:0:0:
192,192,13514,1,0,0:0:0:0:
320,192,13661,1,0,0:0:0:0:
64,192,13661,1,0,0:0:0:0:
192,192,13808,1,0,0:0:0:0:
64,192,13808,1,0,0:0:0:0:
320,192,13955,1,0,0:0:0:0:
448,192,14102,1,0,0:0:0:0:
64,192,14102,1,0,0:0:0:0:
192,192,14249,1,0,0:0:0:0:
320,192,14396,1,0,0:0:0:0:
448,192,14396,1,0,0:0:0:0:
64,192,14543,1,0,0:0:0:0:
320,192,14690,1,0,0:0:0:0:
448,192,14690,1,0,0:0:0:0:
320,192,14837,1,0,0:0:0:0:
192,192,14837,1,0,0:0:0:0:
192,192,14984,1,0,0:0:0:0:
64,192,14984,1,0,0:0:0:0:
320,192,15131,1,0,0:0:0:0:
448,192,15278,1,0,0:0:0:0:
64,192,15278,1,0,0:0:0:0:
64,192,15425,1,0,0:0:0:0:
192,192,15425,1,0,0:0:0:0:
192,192,15572,1,0,0:0:0:0:
320,192,15572,1,0,0:0:0:0:
320,192,15720,1,0,0:0:0:0:
448,192,15720,1,0,0:0:0:0:
448,192,15867,1,0,0:0:0:0:
64,192,15867,1,0,0:0:0:0:
192,192,16014,1,0,0:0:0:0:
320,192,16161,1,0,0:0:0:0:
448,192,16161,1,0,0:0:0:0:
64,192,16308,1,0,0:0:0:0:
448,192,16455,1,0,0:0:0:0:
320,192,16455,1,0,0:0:0:0:
320,192,16602,1,0,0:0:0:0:
192,192,16602,1,0,0:0:0:0:
192,192,16749,1,0,0:0:0:0:
64,192,16749,1,0,0:0:0:0:
64,192,16896,1,0,0:0:0:0:
448,192,16896,1,0,0:0:0:0:
448,192,17043,1,0,0:0:0:0:
320,192,17043,1,0,0:0:0:0:
192,192,17190,1,0,0:0:0:0:
64,192,17337,1,0,0:0:0:0:
448,192,17337,1,0,0:0:0:0:
320,192,17484,1,0,0:0:0:0:
64,192,17631,1,0,0:0:0:0:
192,192,17631,1,0,0:0:0:0:
192,192,17778,1,0,0:0:0:0:
448,192,17778,1,0,0:0:0:0:
320,192,17925,1,0,0:0:0:0:
448,192,17925,1,0,0:0:0:0:
64,192,18072,1,0,0:0:0:0:
320,192,18220,1,0,0:0:0:0:
448,192,18220,1,0,0:0:0:0:
320,192,18367,1,0,0:0:0:0:
64,192,18367,1,0,0:0:0:0:
192,192,18514,1,0,0:0:0:0:
64,192,18514,1,0,0:0:0:0:
448,192,18661,1,0,0:0:0:0:
320,192,18808,1,0,0:0:0:0:
192,192,18808,1,0,0:0:0:0:
64,192,18955,1,0,0:0:0:0:
320,192,19102,1,0,0:0:0:0:
448,192,19102,1,0,0:0:0:0:
192,192,19249,1,0,0:0:0:0:
64,192,19396,1,0,0:0:0:0:
448,192,19396,1,0,0:0:0:0:
320,192,19543,1,0,0:0:0:0:
64,192,19543,1,0,0:0:0:0:
192,192,19690,1,0,0:0:0:0:
320,192,19690,1,0,0:0:0:0:
448,192,19837,1,0,0:0:0:0:
64,192,19984,1,0,0:0:0:0:
192,192,19984,1,0,0:0:0:0:
192,192,20131,1,0,0:0:0:0:
320,192,20131,1,0,0:0:0:0:
320,192,20278,1,0,0:0:0:0:
448,192,20278,1,0,0:0:0:0:
448,192,20425,1,0,0:0:0:0:
64,192,20425,1,0,0:0:0:0:
64,192,20572,1,0,0:0:0:0:
192,192,20572,1,0,0:0:0:0:
320,192,20720,1,0,0:0:0:0:
448,192,20867,1,0,0:0:0:0:
64,192,20867,1,0,0:0:0:0:
192,192,21014,1,0,0:0:0:0:
320,192,21161,1,0,0:0:0:0:
448,192,21161,1,0,0:0:0:0:
320,192,21308,1,0,0:0:0:0:
192,192,21308,1,0,0:0:0:0:
192,192,21455,1,0,0:0:0:0:
64,192,21455,1,0,0:0:0:0:
448,192,21602,1,0,0:0:0:0:
64,192,21602,1,0,0:0:0:0:
320,192,21749,1,0,0:0:0:0:
448,192,21749,1,0,0:0:0:0:
192,192,21896,1,0,0:0:0:0:
64,192,22043,1,0,0:0:0:0:
448,192,22043,1,0,0:0:0:0:
320,192,22190,1,0,0:0:0:0:
192,192,22337,1,0,0:0:0:0:
64,192,22337,1,0,0:0:0:0:
192,192,22484,1,0,0:0:0:0:
320,192,22484,1,0,0:0:0:0:
448,192,22631,1,0,0:0:0:0:
320,192,22631,1,0,0:0:0:0:
64,192,22778,1,0,0:0:0:0:
192,192,22925,1,0,0:0:0:0:
320,192,22925,1,0,0:0:0:0:
192,192,23072,1,0,0:0:0:0:
448,192,23072,1,0,0:0:0:0:
320,192,23220,1,0,0:0:0:0:
448,192,23220,1,0,0:0:0:0:
192,192,23367,1,0,0:0:0:0:
64,192,23514,1,0,0:0:0:0:
448,192,23514,1,0,0:0:0:0:
320,192,23661,1,0,0:0:0:0:
192,192,23808,1,0,0:0:0:0:
64,192,23808,1,0,0:0:0:0:
448,192,23955,1,0,0:0:0:0:
320,192,24102,1,0,0:0:0:0:
192,192,24102,1,0,0:0:0:0:
320,192,24249,1,0,0:0:0:0:
64,192,24249,1,0,0:0:0:0:
64,192,24396,1,0,0:0:0:0:
192,192,24396,1,0,0:0:0:0:
448,192,24543,1,0,0:0:0:0:
320,192,24690,1,0,0:0:0:0:
192,192,24690,1,0,0:0:0:0:
320,192,24837,1,0,0:0:0:0:
64,192,24837,1,0,0:0:0:0:
64,192,24984,1,0,0:0:0:0:
448,192,24984,1,0,0:0:0:0:
192,192,25131,1,0,0:0:0:0:
448,192,25131,1,0,0:0:0:0:
320,192,25278,1,0,0:0:0:0:
192,192,25278,1,0,0:0:0:0:
448,192,25425,1,0,0:0:0:0:
192,192,25572,1,0,0:0:0:0:
64,192,25572,1,0,0:0:0:0:
320,192,25720,1,0,0:0:0:0:
448,192,25867,1,0,0:0:0:0:
64,192,25867,1,0,0:0:0:0:
320,192,26014,1,0,0:0:0:0:
64,192,26014,1,0,0:0:0:0:
192,192,26161,1,0,0:0:0:0:
320,192,26161,1,0,0:0:0:0:
192,192,26308,1,0,0:0:0:0:
448,192,26308,1,0,0:0:0:0:
320,192,26455,1,0,0:0:0:0:
448,192,26455,1,0,0:0:0:0:
64,192,26602,1,0,0:0:0:0:
192,192,26749,1,0,0:0:0:0:
320,192,26749,1,0,0:0:0:0:
448,192,26896,1,0,0:0:0:0:
192,192,27043,1,0,0:0:0:0:
64,192,27043,1,0,0:0:0:0:
192,192,27190,1,0,0:0:0:0:
320,192,27190,1,0,0:0:0:0:
320,192,27337,1,0,0:0:0:0:
448,192,27337,1,0,0:0:0:0:
64,192,27484,1,0,0:0:0:0:
192,192,27631,1,0,0:0:0:0:
320,192,27631,1,0,0:0:0:0:
448,192,27778,1,0,0:0:0:0:
192,192,27778,1,0,0:0:0:0:
448,192,27925,1,0,0:0:0:0:
320,192,27925,1,0,0:0:0:0:
192,192,28072,1,0,0:0:0:0:
64,192,28220,1,0,0:0:0:0:
448,192,28220,1,0,0:0:0:0:
320,192,28367,1,0,0:0:0:0:
192,192,28514,1,0,0:0:0:0:
64,192,28514,1,0,0:0:0:0:
448,192,28661,1,0,0:0:0:0:
64,192,28808,1,0,0:0:0:0:
192,192,29102,1,0,0:0:0:0:
320,192,29396,1,0,0:0:0:0:
64,192,29984,1,0,0:0:0:0:
192,192,30278,1,0,0:0:0:0:
448,192,30572,1,0,0:0:0:0:
64,192,31161,1,0,0:0:0:0:
320,192,31455,1,0,0:0:0:0:
192,192,31749,1,0,0:0:0:0:
448,192,32337,1,0,0:0:0:0:
320,192,32631,1,0,0:0:0:0:
64,192,32925,1,0,0:0:0:0:
448,192,33514,1,0,0:0:0:0:
192,192,33808,1,0,0:0:0:0:
320,192,34102,1,0,0:0:0:0:
64,192,34690,1,0,0:0:0:0:
192,192,34984,1,0,0:0:0:0:
448,192,35278,1,0,0:0:0:0:
64,192,35867,1,0,0:0:0:0:
320,192,36161,1,0,0:0:0:0:
192,192,36455,1,0,0:0:0:0:
448,192,37043,1,0,0:0:0:0:
448,192,38220,1,0,0:0:0:0:
64,192,38220,1,0,0:0:0:0:
320,192,38514,1,0,0:0:0:0:
192,192,38661,1,0,0:0:0:0:
448,192,38808,1,0,0:0:0:0:
64,192,38955,1,0,0:0:0:0:
192,192,39102,1,0,0:0:0:0:
320,192,39249,1,0,0:0:0:0:
448,192,39396,1,0,0:0:0:0:
192,192,39543,1,0,0:0:0:0:
64,192,39690,1,0,0:0:0:0:
320,192,39837,1,0,0:0:0:0:
448,192,39984,1,0,0:0:0:0:
192,192,40131,1,0,0:0:0:0:
64,192,40278,1,0,0:0:0:0:
320,192,40425,1,0,0:0:0:0:
192,192,40572,1,0,0:0:0:0:
448,192,40720,1,0,0:0:0:0:
64,192,40867,1,0,0:0:0:0:
192,192,41014,1,0,0:0:0:0:
320,192,41161,1,0,0:0:0:0:
448,192,41308,1,0,0:0:0:0:
64,192,41455,1,0,0:0:0:0:
320,192,41602,1,0,0:0:0:0:
192,192,41749,1,0,0:0:0:0:
448,192,41896,1,0,0:0:0:0:
320,192,42043,1,0,0:0:0:0:
64,192,42190,1,0,0:0:0:0:
192,192,42337,1,0,0:0:0:0:
448,192,42484,1,0,0:0:0:0:
320,192,42631,1,0,0:0:0:0:
192,192,42778,1,0,0:0:0:0:
64,192,42925,1,0,0:0:0:0:
320,192,43072,1,0,0:0:0:0:
448,192,43220,1,0,0:0:0:0:
192,192,43367,1,0,0:0:0:0:
64,192,43514,1,0,0:0:0:0:
320,192,43661,1,0,0:0:0:0:
192,192,43808,1,0,0:0:0:0:
64,192,43955,1,0,0:0:0:0:
320,192,44102,1,0,0:0:0:0:
448,192,44249,1,0,0:0:0:0:
192,192,44396,1,0,0:0:0:0:
64,192,44543,1,0,0:0:0:0:
320,192,44690,1,0,0:0:0:0:
192,192,44837,1,0,0:0:0:0:
448,192,44984,1,0,0:0:0:0:
64,192,45131,1,0,0:0:0:0:
192,192,45278,1,0,0:0:0:0:
320,192,45425,1,0,0:0:0:0:
448,192,45572,1,0,0:0:0:0:
64,192,45720,1,0,0:0:0:0:
320,192,45867,1,0,0:0:0:0:
192,192,46014,1,0,0:0:0:0:
64,192,46161,1,0,0:0:0:0:
448,192,46308,1,0,0:0:0:0:
192,192,46455,1,0,0:0:0:0:
320,192,46602,1,0,0:0:0:0:
448,192,46749,1,0,0:0:0:0:
64,192,46896,1,0,0:0:0:0:
320,192,47043,1,0,0:0:0:0:
192,192,47190,1,0,0:0:0:0:
64,192,47337,1,0,0:0:0:0:
448,192,47484,1,0,0:0:0:0:
192,192,47631,1,0,0:0:0:0:
320,192,47631,1,0,0:0:0:0:
64,192,47778,1,0,0:0:0:0:
320,192,47925,1,0,0:0:0:0:
448,192,47925,1,0,0:0:0:0:
192,192,48072,1,0,0:0:0:0:
64,192,48220,1,0,0:0:0:0:
320,192,48220,1,0,0:0:0:0:
448,192,48367,1,0,0:0:0:0:
192,192,48514,1,0,0:0:0:0:
64,192,48514,1,0,0:0:0:0:
320,192,48661,1,0,0:0:0:0:
448,192,48808,1,0,0:0:0:0:
192,192,48808,1,0,0:0:0:0:
64,192,48955,1,0,0:0:0:0:
320,192,49102,1,0,0:0:0:0:
448,192,49102,1,0,0:0:0:0:
192,192,49249,1,0,0:0:0:0:
64,192,49396,1,0,0:0:0:0:
448,192,49396,1,0,0:0:0:0:
320,192,49543,1,0,0:0:0:0:
192,192,49690,1,0,0:0:0:0:
64,192,49690,1,0,0:0:0:0:
320,192,49837,1,0,0:0:0:0:
192,192,49984,1,0,0:0:0:0:
448,192,49984,1,0,0:0:0:0:
64,192,50131,1,0,0:0:0:0:
320,192,50278,1,0,0:0:0:0:
448,192,50278,1,0,0:0:0:0:
192,192,50425,1,0,0:0:0:0:
64,192,50572,1,0,0:0:0:0:
320,192,50572,1,0,0:0:0:0:
448,192,50720,1,0,0:0:0:0:
192,192,50867,1,0,0:0:0:0:
320,192,50867,1,0,0:0:0:0:
64,192,51014,1,0,0:0:0:0:
320,192,51161,1,0,0:0:0:0:
448,192,51161,1,0,0:0:0:0:
192,192,51308,1,0,0:0:0:0:
64,192,51455,1,0,0:0:0:0:
320,192,51455,1,0,0:0:0:0:
448,192,51602,1,0,0:0:0:0:
192,192,51749,1,0,0:0:0:0:
64,192,51749,1,0,0:0:0:0:
448,192,51896,1,0,0:0:0:0:
192,192,52043,1,0,0:0:0:0:
320,192,52043,1,0,0:0:0:0:
64,192,52190,1,0,0:0:0:0:
448,192,52337,1,0,0:0:0:0:
320,192,52337,1,0,0:0:0:0:
192,192,52484,1,0,0:0:0:0:
320,192,52484,1,0,0:0:0:0:
192,192,52631,1,0,0:0:0:0:
64,192,52631,1,0,0:0:0:0:
64,192,52778,1,0,0:0:0:0:
448,192,52778,1,0,0:0:0:0:
192,192,52925,1,0,0:0:0:0:
448,192,52925,1,0,0:0:0:0:
320,192,53072,1,0,0:0:0:0:
192,192,53220,1,0,0:0:0:0:
448,192,53220,1,0,0:0:0:0:
64,192,53367,1,0,0:0:0:0:
320,192,53514,1,0,0:0:0:0:
448,192,53514,1,0,0:0:0:0:
192,192,53661,1,0,0:0:0:0:
64,192,53808,1,0,0:0:0:0:
448,192,53808,1,0,0:0:0:0:
320,192,53955,1,0,0:0:0:0:
192,192,54102,1,0,0:0:0:0:
64,192,54102,1,0,0:0:0:0:
448,192,54249,1,0,0:0:0:0:
320,192,54396,1,0,0:0:0:0:
192,192,54396,1,0,0:0:0:0:
64,192,54543,1,0,0:0:0:0:
320,192,54690,1,0,0:0:0:0:
448,192,54690,1,0,0:0:0:0:
320,192,54837,1,0,0:0:0:0:
192,192,54837,1,0,0:0:0:0:
64,192,54984,1,0,0:0:0:0:
192,192,54984,1,0,0:0:0:0:
448,192,55131,1,0,0:0:0:0:
192,192,55278,1,0,0:0:0:0:
64,192,55278,1,0,0:0:0:0:
192,192,55425,1,0,0:0:0:0:
320,192,55425,1,0,0:0:0:0:
320,192,55572,1,0,0:0:0:0:
448,192,55572,1,0,0:0:0:0:
64,192,55720,1,0,0:0:0:0:
448,192,55720,1,0,0:0:0:0:
320,192,55867,1,0,0:0:0:0:
192,192,55867,1,0,0:0:0:0:
448,192,56014,1,0,0:0:0:0:
192,192,56161,1,0,0:0:0:0:
320,192,56161,1,0,0:0:0:0:
64,192,56308,1,0,0:0:0:0:
192,192,56455,1,0,0:0:0:0:
448,192,56455,1,0,0:0:0:0:
320,192,56602,1,0,0:0:0:0:
448,192,56749,1,0,0:0:0:0:
64,192,56749,1,0,0:0:0:0:
192,192,56896,1,0,0:0:0:0:
320,192,57043,1,0,0:0:0:0:
448,192,57043,1,0,0:0:0:0:
192,192,57190,1,0,0:0:0:0:
64,192,57337,1,0,0:0:0:0:
320,192,57337,1,0,0:0:0:0:
448,192,57484,1,0,0:0:0:0:
192,192,57631,1,0,0:0:0:0:
64,192,57631,1,0,0:0:0:0:
320,192,57778,1,0,0:0:0:0:
448,192,57925,1,0,0:0:0:0:
64,192,57925,1,0,0:0:0:0:
192,192,58072,1,0,0:0:0:0:
320,192,58220,1,0,0:0:0:0:
448,192,58220,1,0,0:0:0:0:
192,192,58367,1,0,0:0:0:0:
64,192,58514,1,0,0:0:0:0:
320,192,58514,1,0,0:0:0:0:
448,192,58661,1,0,0:0:0:0:
192,192,58808,1,0,0:0:0:0:
320,192,58808,1,0,0:0:0:0:
64,192,58955,1,0,0:0:0:0:
320,192,59102,1,0,0:0:0:0:
448,192,59102,1,0,0:0:0:0:
192,192,59249,1,0,0:0:0:0:
64,192,59396,1,0,0:0:0:0:
320,192,59396,1,0,0:0:0:0:
448,192,59543,1,0,0:0:0:0:
192,192,59690,1,0,0:0:0:0:
320,192,59690,1,0,0:0:0:0:
64,192,59837,1,0,0:0:0:0:
192,192,59984,1,0,0:0:0:0:
448,192,59984,1,0,0:0:0:0:
320,192,60131,1,0,0:0:0:0:
448,192,60278,1,0,0:0:0:0:
64,192,60278,1,0,0:0:0:0:
192,192,60425,1,0,0:0:0:0:
320,192,60572,1,0,0:0:0:0:
448,192,60572,1,0,0:0:0:0:
64,192,60720,1,0,0:0:0:0:
192,192,60867,1,0,0:0:0:0:
320,192,60867,1,0,0:0:0:0:
448,192,61014,1,0,0:0:0:0:
192,192,61161,1,0,0:0:0:0:
64,192,61161,1,0,0:0:0:0:
320,192,61308,1,0,0:0:0:0:
448,192,61455,1,0,0:0:0:0:
192,192,61455,1,0,0:0:0:0:
64,192,61602,1,0,0:0:0:0:
448,192,61749,1,0,0:0:0:0:
320,192,61749,1,0,0:0:0:0:
320,192,61896,1,0,0:0:0:0:
192,192,61896,1,0,0:0:0:0:
64,192,62043,1,0,0:0:0:0:
192,192,62043,1,0,0:0:0:0:
448,192,62190,1,0,0:0:0:0:
64,192,62190,1,0,0:0:0:0:
192,192,62337,1,0,0:0:0:0:
320,192,62337,1,0,0:0:0:0:
448,192,62484,1,0,0:0:0:0:
320,192,62631,1,0,0:0:0:0:
192,192,62631,1,0,0:0:0:0:
64,192,62778,1,0,0:0:0:0:
320,192,62925,1,0,0:0:0:0:
448,192,62925,1,0,0:0:0:0:
192,192,63072,1,0,0:0:0:0:
320,192,63220,1,0,0:0:0:0:
64,192,63220,1,0,0:0:0:0:
448,192,63367,1,0,0:0:0:0:
192,192,63514,1,0,0:0:0:0:
320,192,63514,1,0,0:0:0:0:
64,192,63661,1,0,0:0:0:0:
320,192,63808,1,0,0:0:0:0:
448,192,63808,1,0,0:0:0:0:
192,192,63955,1,0,0:0:0:0:
320,192,64102,1,0,0:0:0:0:
64,192,64102,1,0,0:0:0:0:
448,192,64249,1,0,0:0:0:0:
320,192,64249,1,0,0:0:0:0:
192,192,64396,1,0,0:0:0:0:
64,192,64396,1,0,0:0:0:0:
192,192,64543,1,0,0:0:0:0:
320,192,64543,1,0,0:0:0:0:
64,192,64690,1,0,0:0:0:0:
448,192,64690,1,0,0:0:0:0:
320,192,64837,1,0,0:0:0:0:
192,192,64984,1,0,0:0:0:0:
64,192,64984,1,0,0:0:0:0:
64,192,65131,1,0,0:0:0:0:
448,192,65131,1,0,0:0:0:0:
192,192,65278,1,0,0:0:0:0:
320,192,65278,1,0,0:0:0:0:
448,192,65425,1,0,0:0:0:0:
192,192,65572,1,0,0:0:0:0:
64,192,65572,1,0,0:0:0:0:
320,192,65720,1,0,0:0:0:0:
448,192,65867,1,0,0:0:0:0:
64,192,65867,1,0,0:0:0:0:
192,192,66014,1,0,0:0:0:0:
448,192,66161,1,0,0:0:0:0:
320,192,66161,1,0,0:0:0:0:
64,192,66308,1,0,0:0:0:0:
448,192,66455,1,0,0:0:0:0:
192,192,66455,1,0,0:0:0:0:
320,192,66455,1,0,0:0:0:0:
