osu file format v14

[General]
AudioFilename: audio.ogg
AudioLeadIn: 0
PreviewTime: 47558
Countdown: 0
SampleSet: Soft
StackLeniency: 0.7
Mode: 0
LetterboxInBreaks: 0
WidescreenStoryboard: 1

[Editor]
DistanceSpacing: 1.5
BeatDivisor: 4
GridSize: 32
TimelineZoom: 2.2

[Metadata]
Title:10 Things I Hate About Ai no Sukima
TitleUnicode:10 Things I Hate About 哀の隙間
Artist:MIMI vs. Leah Kate
ArtistUnicode:MIMI vs. Leah Kate
Creator:Log Off Now
Version:8 - Least Advanced Guy I Dated
Source:
Tags:revelsix visionary english pop sped up novelty mashup sorrow's gap sytho
BeatmapID:3997419
BeatmapSetID:1919786

[Difficulty]
HPDrainRate:3.8
CircleSize:3.3
OverallDifficulty:5
ApproachRate:6.5
SliderMultiplier:1.2
SliderTickRate:1

[Events]
//Background and Video events
0,0,"leah miku.jpg",0,0
//Break Periods
//Storyboard Layer 0 (Background)
//Storyboard Layer 1 (Fail)
//Storyboard Layer 2 (Pass)
//Storyboard Layer 3 (Foreground)
//Storyboard Layer 4 (Overlay)
//Storyboard Sound Samples

[TimingPoints]
569,294.117647058824,4,2,1,35,1,0
569,-111.111111111111,4,2,1,35,0,0
9980,-100,4,2,1,50,0,0
28804,-111.111111111111,4,2,1,40,0,0
28808,-111.111111111111,4,2,1,40,0,0
29098,-111.111111111111,4,2,1,40,0,0
35863,-111.111111111111,4,2,1,40,0,0
36451,-111.111111111111,4,2,1,40,0,0
37039,-111.111111111111,4,2,1,40,0,0
37627,-111.111111111111,4,2,1,40,0,0
38216,-100,4,2,1,40,0,0
45274,-100,4,2,1,40,0,0
45862,-100,4,2,1,40,0,0
46450,-100,4,2,1,40,0,0
46498,-100,4,2,1,45,0,0
46792,-100,4,2,1,50,0,0
47038,-100,4,2,1,50,0,0
47086,-100,4,2,1,55,0,0
47380,-100,4,2,1,60,0,0
47627,-90.9090909090909,4,2,1,60,0,1
47674,-90.9090909090909,4,2,1,65,0,1
66451,-100,4,2,1,65,0,0

[Colours]
Combo1 : 243,221,143
Combo2 : 202,241,163
Combo3 : 118,208,216
Combo4 : 251,142,142

[HitObjects]
58,151,569,6,0,P|94:162|131:169,1,53.9999983520508,2|0,0:0|0:0,0:0:0:0:
164,225,863,2,0,P|207:214|286:197,1,107.999996704102,0|2,0:0|0:0,0:0:0:0:
322,139,1304,1,0,0:0:0:0:
322,139,1451,1,0,0:0:0:0:
449,238,1745,6,0,P|471:277|445:348,1,107.999996704102,2|0,0:0|0:0,0:0:0:0:
298,304,2333,2,0,P|260:317|242:323,2,53.9999983520508,2|0|0,0:0|0:0|0:0,0:0:0:0:
344,237,2774,1,0,0:0:0:0:
344,237,2921,2,0,P|359:188|380:120,1,107.999996704102,2|0,0:0|0:0,0:0:0:0:
230,61,3510,6,0,P|217:23|211:5,2,53.9999983520508,2|0|0,0:0|0:0|0:0,0:0:0:0:
146,199,4098,2,0,P|133:237|127:255,2,53.9999983520508,2|0|0,0:0|0:0|0:0,0:0:0:0:
58,62,4686,1,2,0:0:0:0:
79,83,5274,6,0,L|52:155,1,53.9999983520508,2|0,0:0|0:0,0:0:0:0:
32,210,5569,2,0,P|58:251|133:243,1,107.999996704102,0|2,0:0|0:0,0:0:0:0:
182,212,6010,1,0,0:0:0:0:
182,212,6157,1,0,0:0:0:0:
265,350,6451,6,0,P|281:299|301:234,1,107.999996704102,2|0,0:0|0:0,0:0:0:0:
434,161,7039,2,0,P|472:148|490:142,2,53.9999983520508,2|0|0,0:0|0:0|0:0,0:0:0:0:
371,118,7480,1,0,0:0:0:0:
371,118,7627,2,0,P|319:133|267:149,1,107.999996704102,2|0,0:0|0:0,0:0:0:0:
131,235,8216,6,0,P|93:222|75:216,2,53.9999983520508,2|0|0,0:0|0:0|0:0,0:0:0:0:
262,329,8804,2,0,P|300:316|318:310,2,53.9999983520508,2|0|0,0:0|0:0|0:0,0:0:0:0:
104,367,9392,1,2,0:0:0:0:
84,352,9980,6,0,P|59:294|91:235,1,120,6|8,1:2|0:0,0:0:0:0:
219,150,10569,2,0,P|207:191|200:214,1,60,2|2,1:2|0:0,0:0:0:0:
266,269,10863,1,10,0:0:0:0:
266,269,11010,1,0,1:2:0:0:
330,215,11157,2,0,P|365:193|455:219,1,120,2|8,0:0|0:0,0:0:0:0:
404,369,11745,6,0,P|389:311|383:291,1,60,0|2,1:0|0:0,0:0:0:0:
314,273,12039,2,0,P|329:215|335:195,1,60,8|2,0:0|0:0,0:0:0:0:
395,163,12333,2,0,P|380:105|361:26,1,120,2|8,1:2|0:0,0:0:0:0:
215,120,12921,6,0,P|174:108|149:101,2,60,0|2|10,1:2|0:0|0:0,0:0:0:0:
378,159,13510,1,2,0:0:0:0:
438,217,13657,1,2,1:2:0:0:
392,287,13804,1,10,0:0:0:0:
250,196,14098,2,0,P|228:127|266:87,1,120,2|8,1:2|0:0,0:0:0:0:
405,22,14686,6,0,P|388:74|384:87,1,60,2|2,1:2|0:0,0:0:0:0:
339,148,14980,2,0,P|357:199|382:273,1,120,10|2,0:0|1:2,0:0:0:0:
453,308,15421,1,2,0:0:0:0:
453,308,15569,2,0,P|422:342|398:349,1,60,10|0,0:0|1:0,0:0:0:0:
326,339,15863,2,0,B|274:325|244:318|244:318|223:337|205:347,1,120,2|8,0:0|0:0,0:0:0:0:
124,199,16451,6,0,L|186:217,1,60,0|2,1:0|0:0,0:0:0:0:
263,232,16745,2,0,P|297:213|315:184,1,60,10|2,0:0|0:0,0:0:0:0:
320,113,17039,2,0,P|293:77|206:83,1,120,2|8,1:2|0:0,0:0:0:0:
95,182,17627,6,0,L|113:244,2,60,0|2|10,1:0|0:0|0:0,0:0:0:0:
207,56,18216,2,0,L|225:-6,2,60,2|2|10,0:0|1:2|0:0,0:0:0:0:
295,198,18804,1,2,1:2:0:0:
396,64,19098,2,0,P|442:81|460:88,1,60,8|0,0:0|0:0,0:0:0:0:
502,159,19392,5,2,1:2:0:0:
502,159,19539,1,2,0:0:0:0:
452,227,19686,2,0,P|405:245|322:286,1,120,10|2,0:0|1:2,0:0:0:0:
279,228,20127,1,2,0:0:0:0:
279,228,20274,1,10,0:0:0:0:
171,358,20569,2,0,P|116:331|61:310,1,120,2|8,0:0|0:0,0:0:0:0:
14,148,21157,6,0,P|49:161|74:170,1,60,0|2,1:0|0:0,0:0:0:0:
125,232,21451,2,0,P|153:221|181:211,1,60,10|2,0:0|0:0,0:0:0:0:
255,172,21745,2,0,P|235:226|209:308,1,120,2|8,1:2|0:0,0:0:0:0:
380,315,22333,6,0,P|393:347|405:379,2,60,0|2|10,1:0|0:0|0:0,0:0:0:0:
448,161,22921,1,2,0:0:0:0:
392,97,23069,1,2,1:2:0:0:
315,130,23216,1,10,0:0:0:0:
281,294,23510,2,0,P|247:335|167:320,1,120,2|8,1:2|0:0,0:0:0:0:
83,199,24098,6,0,L|26:180,2,60,2|2|10,1:2|0:0|0:0,0:0:0:0:
194,73,24686,1,2,1:2:0:0:
142,7,24833,1,2,0:0:0:0:
71,53,24980,2,0,P|85:94|92:114,1,60,10|0,0:0|1:0,0:0:0:0:
160,155,25274,2,0,P|209:167|285:186,1,120,2|8,0:0|0:0,0:0:0:0:
413,86,25863,6,0,P|427:131|439:171,1,60,0|2,1:0|0:0,0:0:0:0:
495,196,26157,2,0,P|481:241|469:281,1,60,10|2,0:0|0:0,0:0:0:0:
421,316,26451,2,0,P|399:290|307:297,1,120,2|8,1:2|0:0,0:0:0:0:
167,215,27039,6,0,L|107:238,2,60,0|2|10,1:0|0:0|0:0,0:0:0:0:
296,108,27627,2,0,L|358:126,2,60,2|2|10,0:0|1:2|0:0,0:0:0:0:
152,20,28215,1,2,1:2:0:0:
45,150,28510,1,8,0:0:0:0:
174,227,28804,6,0,B|139:121,2,107.999996704102,4|2|2,0:0|0:0|0:0,0:0:0:0:
366,281,29980,2,0,B|331:387,2,107.999996704102,0|0|2,0:0|0:0|0:0,0:0:0:0:
427,97,31157,6,0,B|324:130,2,107.999996704102,0|0|2,0:0|0:0|0:0,0:0:0:0:
283,222,32333,1,0,0:0:0:0:
219,137,32627,1,0,0:0:0:0:
282,52,32921,1,2,0:0:0:0:
383,250,33510,6,0,B|489:285,2,107.999996704102,0|0|2,0:0|0:0|0:0,0:0:0:0:
240,112,34686,2,0,B|205:6,2,107.999996704102,0|0|2,0:0|0:0|0:0,0:0:0:0:
151,288,35863,6,0,P|104:305|108:185,1,215.999993408203,2|2,0:0|0:0,0:0:0:0:
295,144,37039,2,0,P|278:205|236:372,1,215.999993408203,2|2,0:0|0:0,0:0:0:0:
164,127,38216,6,0,P|149:80|123:10,1,120,4|2,3:2|1:2,0:0:0:0:
292,78,38804,1,2,1:2:0:0:
459,12,39098,2,0,L|439:74,1,60,2|2,1:2|3:2,0:0:0:0:
381,136,39392,2,0,P|397:182|423:259,1,120,2|0,1:2|1:0,0:0:0:0:
288,372,39980,6,0,P|301:329|308:307,1,60,2|2,1:2|3:2,0:0:0:0:
263,235,40274,1,2,1:2:0:0:
189,287,40421,2,0,P|150:303|52:345,1,120,2|0,3:2|3:0,0:0:0:0:
12,270,40863,2,0,P|-3:229|49:165,1,120,2|2,1:2|1:2,0:0:0:0:
208,117,41451,6,0,L|185:187,1,60,2|2,1:2|3:2,0:0:0:0:
263,224,41745,2,0,L|303:96,1,120,2|0,1:2|1:2,0:0:0:0:
330,25,42186,1,2,3:2:0:0:
330,25,42333,1,2,1:2:0:0:
461,148,42627,5,2,1:2:0:0:
461,148,42774,2,0,P|433:186|358:185,1,120,2|0,3:2|3:0,0:0:0:0:
279,156,43216,2,0,P|246:164|217:176,1,60,2|0,1:2|3:0,0:0:0:0:
161,240,43510,1,2,1:2:0:0:
296,369,43804,5,2,1:2:0:0:
296,369,43951,2,0,P|276:300|262:243,1,120,2|0,3:2|3:0,0:0:0:0:
221,173,44392,2,0,P|236:124|240:105,1,60,2|2,1:2|3:2,0:0:0:0:
190,39,44686,1,2,1:2:0:0:
51,154,44980,1,2,1:2:0:0:
173,286,45274,6,0,P|234:262|313:239,1,120,10|0,1:2|1:0,0:0:0:0:
343,175,45716,1,0,3:0:0:0:
343,175,45863,2,0,P|388:191|471:211,1,120,10|0,1:2|3:0,0:0:0:0:
411,382,46451,6,0,P|336:371|303:326,1,120,10|10,1:2|1:2,0:0:0:0:
271,258,46892,1,0,3:0:0:0:
271,258,47039,2,0,P|230:238|206:236,1,60,10|8,1:2|3:2,0:0:0:0:
145,180,47333,2,0,P|107:205|93:225,1,60,10|8,1:2|3:2,0:0:0:0:
64,309,47627,6,0,P|50:263|12:168,1,132.00000402832,6|10,1:2|0:0,0:0:0:0:
30,89,48069,1,2,0:0:0:0:
30,89,48216,2,0,P|61:68|111:62,1,66.0000020141602,2|0,1:2|0:0,0:0:0:0:
166,122,48510,2,0,P|201:144|240:157,1,66.0000020141602,10|0,0:0|0:0,0:0:0:0:
317,186,48804,5,2,1:2:0:0:
365,103,48951,1,2,0:0:0:0:
365,103,49098,2,0,P|401:84|442:85,1,66.0000020141602,10|2,0:0|0:0,0:0:0:0:
501,145,49392,2,0,P|483:200|458:286,1,132.00000402832,2|10,1:2|0:0,0:0:0:0:
285,360,49980,6,0,P|250:325|276:241,1,132.00000402832,2|10,1:2|0:0,0:0:0:0:
350,200,50421,1,2,0:0:0:0:
350,200,50569,2,0,P|369:147|375:132,1,66.0000020141602,2|0,1:2|0:0,0:0:0:0:
409,46,50863,2,0,P|369:16|284:39,1,132.00000402832,10|2,0:0|1:2,0:0:0:0:
244,116,51304,5,2,0:0:0:0:
244,116,51451,1,10,0:0:0:0:
107,29,51745,1,2,1:2:0:0:
9,151,52039,1,10,0:0:0:0:
143,251,52333,6,0,P|126:197|119:173,1,66.0000020141602,2|2,1:2|0:0,0:0:0:0:
200,126,52627,2,0,P|209:157|219:188,1,66.0000020141602,10|2,0:0|0:0,0:0:0:0:
257,280,52921,2,0,P|306:297|337:315,1,66.0000020141602,2|0,1:2|0:0,0:0:0:0:
387,375,53216,2,0,P|416:325|398:245,1,132.00000402832,10|2,0:0|1:2,0:0:0:0:
326,193,53657,5,2,0:0:0:0:
326,193,53804,2,0,P|304:139|302:108,1,66.0000020141602,10|2,0:0|0:0,0:0:0:0:
346,42,54098,2,0,P|394:20|470:78,1,132.00000402832,2|10,1:2|0:0,0:0:0:0:
511,250,54686,5,2,1:2:0:0:
511,250,54833,1,2,0:0:0:0:
419,211,54980,2,0,P|376:226|348:237,1,66.0000020141602,10|0,0:0|0:0,0:0:0:0:
291,307,55274,2,0,P|248:292|214:281,1,66.0000020141602,2|2,1:2|0:0,0:0:0:0:
177,199,55569,1,10,0:0:0:0:
177,199,55716,1,2,0:0:0:0:
102,264,55863,6,0,P|53:245|26:156,1,132.00000402832,2|10,1:2|0:0,0:0:0:0:
138,15,56451,2,0,P|189:6|257:70,1,132.00000402832,2|10,1:2|0:0,0:0:0:0:
362,215,57039,6,0,P|379:164|385:139,1,66.0000020141602,2|0,1:2|0:0,0:0:0:0:
349,58,57333,2,0,P|392:38|425:41,1,66.0000020141602,10|2,0:0|0:0,0:0:0:0:
499,80,57627,2,0,P|485:135|458:231,1,132.00000402832,2|10,1:2|0:0,0:0:0:0:
315,338,58216,5,2,1:2:0:0:
315,338,58363,1,2,0:0:0:0:
242,270,58510,2,0,P|260:218|264:204,1,66.0000020141602,10|0,0:0|0:0,0:0:0:0:
337,142,58804,2,0,P|320:94|313:74,1,66.0000020141602,2|0,1:2|0:0,0:0:0:0:
243,11,59098,1,10,0:0:0:0:
154,188,59392,6,0,P|109:226|21:205,1,132.00000402832,2|10,1:2|0:0,0:0:0:0:
7,126,59833,1,2,0:0:0:0:
7,126,59980,2,0,P|21:81|35:46,1,66.0000020141602,2|0,1:2|0:0,0:0:0:0:
112,12,60274,2,0,P|128:52|139:80,1,66.0000020141602,10|0,0:0|0:0,0:0:0:0:
214,135,60569,5,2,1:2:0:0:
214,135,60716,1,2,0:0:0:0:
285,66,60863,2,0,P|333:37|428:62,2,132.00000402832,10|2|10,0:0|1:2|0:0,0:0:0:0:
188,238,61745,6,0,P|208:288|215:315,1,66.0000020141602,2|2,1:2|0:0,0:0:0:0:
290,359,62039,2,0,P|310:309|317:282,1,66.0000020141602,10|2,0:0|0:0,0:0:0:0:
287,201,62333,2,0,P|322:171|410:184,1,132.00000402832,2|10,1:2|0:0,0:0:0:0:
459,368,62921,6,0,P|475:311|483:286,1,66.0000020141602,2|2,1:2|0:0,0:0:0:0:
502,208,63216,2,0,P|486:151|478:126,1,66.0000020141602,10|2,0:0|0:0,0:0:0:0:
508,48,63510,2,0,P|467:35|434:35,1,66.0000020141602,2|0,1:2|0:0,0:0:0:0:
377,107,63804,1,10,0:0:0:0:
198,21,64098,6,0,P|211:60|225:99,1,66.0000020141602,2|2,1:2|0:0,0:0:0:0:
278,162,64392,2,0,P|265:201|251:240,1,66.0000020141602,10|2,0:0|0:0,0:0:0:0:
183,290,64686,2,0,P|245:275|297:330,1,132.00000402832,2|10,1:2|0:0,0:0:0:0:
369,379,65127,1,2,0:0:0:0:
437,307,65274,6,0,P|447:264|474:172,1,132.00000402832,2|10,1:2|0:0,0:0:0:0:
399,110,65716,1,0,0:0:0:0:
330,181,65863,2,0,B|285:201|256:218|201:248,1,132.00000402832,2|10,1:2|0:0,0:0:0:0:
138,175,66304,1,0,0:0:0:0:
138,175,66451,1,4,1:2:0:0:
