osu file format v14

[General]
AudioFilename: audio.mp3
AudioLeadIn: 0
PreviewTime: -1
Countdown: 1
SampleSet: None
StackLeniency: 0.7
Mode: 0
LetterboxInBreaks: 0
WidescreenStoryboard: 0

[Editor]
Bookmarks: 11323,19632,22647,28823,38014,56323,72426,88382,94264,104338,129191,151029
DistanceSpacing: 1.3
BeatDivisor: 4
GridSize: 32
TimelineZoom: 2.5

[Metadata]
Title:Ai no Sukima
TitleUnicode:Ai no Sukima
Artist:MIMI ft Hatsune Miku
ArtistUnicode:MIMI ft Hatsune Miku
Creator:RangoBy
Version:ewewew
Source:
Tags:
BeatmapID:2034610
BeatmapSetID:971777

[Difficulty]
HPDrainRate:5.8
CircleSize:4
OverallDifficulty:9.4
ApproachRate:9.7
SliderMultiplier:1.1
SliderTickRate:1

[Events]
//Background and Video events
0,0,"tmb_145147_9793.jpg",0,0
//Break Periods
//Storyboard Layer 0 (Background)
//Storyboard Layer 1 (Fail)
//Storyboard Layer 2 (Pass)
//Storyboard Layer 3 (Foreground)
//Storyboard Sound Samples

[TimingPoints]
0,294.117647058824,4,1,0,100,1,0
10073,-83.3333333333333,4,1,0,100,0,0
28750,-125,4,1,0,100,0,0
38529,-100,4,1,0,100,0,0
47426,-71.4285714285714,4,1,0,100,0,1
66544,-83.3333333333333,4,1,0,100,0,0
85441,-125,4,1,0,100,0,0
94926,-100,4,1,0,100,0,0
104411,-71.4285714285714,4,1,0,100,0,1
133235,-50,4,1,0,100,0,0
141691,-125,4,1,0,100,0,0
160661,-71.4285714285714,4,1,0,100,0,0
179558,-62.5,4,1,0,100,0,0

[HitObjects]
234,113,882,6,0,P|206:70|195:60,2,55
278,271,1470,2,0,P|306:314|317:324,2,55
367,156,1911,2,0,P|370:107|368:95,1,55
225,117,2205,2,0,P|225:180|226:184,3,55
358,240,2794,6,0,P|434:246|438:246,3,55
154,144,3382,2,0,P|78:138|74:138,2,55
159,255,3823,2,0,P|235:261|239:261,3,55
331,122,4411,2,0,P|301:73|294:66,2,55
313,281,4852,2,0,P|285:326|277:331,1,55
168,216,5147,1,0,0:0:0:0:
279,264,5294,1,0,0:0:0:0:
163,310,5441,1,0,0:0:0:0:
230,230,5588,2,0,P|241:156|240:152,2,55
95,199,6029,6,0,P|97:134|99:131,3,55
251,191,6617,2,0,P|279:233|281:241,1,55
162,258,6911,2,0,P|134:220|132:210,2,55
162,258,7352,1,0,0:0:0:0:
235,183,7500,2,0,P|236:117|234:111,2,55
124,242,7941,2,0,P|76:232|65:221,1,55
100,106,8235,1,0,0:0:0:0:
250,134,8382,2,0,P|280:164|284:178,2,55
157,269,8823,1,0,0:0:0:0:
299,309,8970,2,0,P|373:325|374:326,3,55
429,359,9558,1,0,0:0:0:0:
461,258,9705,2,0,P|454:186|433:122,1,137.5
234,123,10294,5,0,0:0:0:0:
366,204,10441,1,0,0:0:0:0:
215,226,10588,2,0,P|124:228|92:220,2,98.9999969787599
281,159,11176,1,0,0:0:0:0:
312,73,11323,1,0,0:0:0:0:
319,238,11470,2,0,P|333:286|364:334,1,98.9999969787599
493,347,11838,1,0,0:0:0:0:
354,253,11985,1,0,0:0:0:0:
470,269,12132,1,0,0:0:0:0:
405,133,12279,2,0,P|370:78|348:57,2,65.9999979858399
397,250,12720,6,0,P|370:306|353:326,1,65.9999979858399
272,307,13014,1,0,0:0:0:0:
182,277,13161,1,0,0:0:0:0:
335,153,13308,1,0,0:0:0:0:
299,230,13455,1,0,0:0:0:0:
217,204,13602,2,0,P|186:175|162:151,1,65.9999979858399
113,93,13897,1,0,0:0:0:0:
234,86,14044,2,0,P|267:73|292:57,2,65.9999979858399
113,144,14485,1,0,0:0:0:0:
235,250,14632,1,0,0:0:0:0:
113,254,14779,5,0,0:0:0:0:
239,142,14926,2,0,P|283:100|301:91,3,65.9999979858399
373,100,15514,1,0,0:0:0:0:
445,149,15661,1,0,0:0:0:0:
449,234,15808,1,0,0:0:0:0:
401,310,15955,6,0,P|372:338|345:350,2,65.9999979858399
449,234,16397,1,0,0:0:0:0:
445,149,16544,1,0,0:0:0:0:
373,100,16691,1,0,0:0:0:0:
285,96,16838,1,0,0:0:0:0:
221,159,16985,2,0,P|203:215|203:226,2,65.9999979858399
285,96,17426,5,0,0:0:0:0:
349,157,17573,2,0,P|372:206|372:233,1,65.9999979858399
308,340,17867,1,0,0:0:0:0:
326,198,18014,1,0,0:0:0:0:
404,322,18161,1,0,0:0:0:0:
326,198,18308,1,0,0:0:0:0:
465,243,18455,1,0,0:0:0:0:
326,198,18602,1,0,0:0:0:0:
465,149,18750,2,0,P|488:122|499:89,2,65.9999979858399
326,198,19191,1,0,0:0:0:0:
421,53,19338,5,0,0:0:0:0:
431,285,19485,1,0,0:0:0:0:
310,160,19632,1,0,0:0:0:0:
446,188,19779,1,0,0:0:0:0:
305,288,19926,1,0,0:0:0:0:
310,160,20073,2,0,P|337:100|340:89,2,65.9999979858399
273,285,20514,1,0,0:0:0:0:
210,176,20661,1,0,0:0:0:0:
320,238,20808,1,0,0:0:0:0:
186,240,20955,1,0,0:0:0:0:
290,91,21102,6,0,P|274:42|260:23,1,65.9999979858399
146,107,21397,1,0,0:0:0:0:
324,170,21544,1,0,0:0:0:0:
239,270,21691,1,0,0:0:0:0:
356,310,21838,1,0,0:0:0:0:
207,153,21985,5,0,0:0:0:0:
431,131,22132,1,0,0:0:0:0:
295,311,22279,2,0,P|258:328|226:333,1,65.9999979858399
133,207,22573,1,0,0:0:0:0:
264,287,22720,1,0,0:0:0:0:
272,75,22867,1,0,0:0:0:0:
246,218,23014,1,0,0:0:0:0:
134,119,23161,1,0,0:0:0:0:
298,162,23308,1,0,0:0:0:0:
205,29,23455,1,0,0:0:0:0:
140,186,23602,2,0,P|119:246|119:260,2,65.9999979858399
257,129,24044,5,0,0:0:0:0:
372,186,24191,2,0,P|393:246|393:260,1,65.9999979858399
289,337,24485,1,0,0:0:0:0:
386,261,24632,1,0,0:0:0:0:
123,280,24779,1,0,0:0:0:0:
261,62,24926,5,0,0:0:0:0:
224,285,25073,1,0,0:0:0:0:
165,102,25220,1,0,0:0:0:0:
325,251,25367,1,0,0:0:0:0:
334,103,25514,2,0,P|328:30|327:25,2,65.9999979858399
314,217,25955,1,0,0:0:0:0:
194,85,26102,1,0,0:0:0:0:
398,92,26250,1,0,0:0:0:0:
228,217,26397,5,0,0:0:0:0:
250,78,26544,1,0,0:0:0:0:
377,174,26691,1,0,0:0:0:0:
272,266,26838,2,0,P|212:288|206:288,1,65.9999979858399
85,193,27132,1,0,0:0:0:0:
197,284,27279,1,0,0:0:0:0:
159,98,27426,1,0,0:0:0:0:
185,241,27573,1,0,0:0:0:0:
286,97,27720,1,0,0:0:0:0:
212,217,27867,1,0,0:0:0:0:
430,174,28014,5,0,0:0:0:0:
258,231,28161,1,0,0:0:0:0:
446,365,28308,1,0,0:0:0:0:
460,120,28455,2,0,P|460:73|455:12,1,98.9999969787599
330,136,28823,2,0,P|331:187|333:197,1,44
346,272,29117,1,0,0:0:0:0:
203,289,29264,2,0,P|176:286|157:277,1,44
85,220,29705,1,0,0:0:0:0:
174,271,30000,2,0,P|179:325|177:365,2,88
151,181,30882,5,0,0:0:0:0:
181,97,31176,2,0,B|257:55|243:121|345:76,1,154
405,30,31985,1,0,0:0:0:0:
408,120,32279,2,0,L|410:215,2,88
405,30,33161,1,0,0:0:0:0:
329,82,33455,2,0,P|271:148|248:228,1,154
247,301,34264,1,0,0:0:0:0:
336,296,34705,5,0,0:0:0:0:
198,177,34852,1,0,0:0:0:0:
336,296,35000,1,0,0:0:0:0:
339,209,35147,2,0,P|330:131|323:108,1,88
292,46,35735,1,0,0:0:0:0:
230,154,35882,2,0,P|215:234|215:238,2,66
292,46,36470,1,0,0:0:0:0:
344,154,36617,2,0,P|359:234|359:238,2,66
292,46,37205,5,0,0:0:0:0:
288,256,37352,1,0,0:0:0:0:
292,46,37500,1,0,0:0:0:0:
288,256,37647,2,0,P|331:330|490:331,1,242
430,210,38602,6,0,P|379:157|312:125,1,137.5
235,138,39117,1,0,0:0:0:0:
277,217,39264,1,0,0:0:0:0:
322,147,39411,2,0,P|341:109|356:44,2,110
255,193,40147,1,0,0:0:0:0:
314,256,40294,1,0,0:0:0:0:
376,196,40441,1,0,0:0:0:0:
430,264,40588,2,0,P|464:328|470:377,2,110
364,198,41323,5,0,0:0:0:0:
350,284,41470,1,0,0:0:0:0:
265,246,41617,1,0,0:0:0:0:
261,333,41764,1,0,0:0:0:0:
181,295,41911,1,0,0:0:0:0:
187,204,42058,2,0,P|226:166|283:161,1,110
345,213,42500,1,0,0:0:0:0:
415,168,42647,1,0,0:0:0:0:
336,130,42794,2,0,P|290:101|256:91,2,82.5
339,216,43382,5,0,0:0:0:0:
308,298,43529,1,0,0:0:0:0:
237,249,43676,1,0,0:0:0:0:
261,162,43823,2,0,P|278:126|308:89,3,82.5
388,71,44632,1,0,0:0:0:0:
375,156,44779,2,0,P|357:208|337:233,2,82.5
388,71,45367,5,0,0:0:0:0:
270,225,45588,1,0,0:0:0:0:
298,82,45882,5,0,0:0:0:0:
180,236,46103,1,0,0:0:0:0:
206,83,46397,5,0,0:0:0:0:
88,237,46618,1,0,0:0:0:0:
232,208,46911,2,0,P|308:228|320:244,2,82.5
159,273,47500,1,0,0:0:0:0:
159,273,47647,1,0,0:0:0:0:
94,177,47794,2,0,P|81:126|76:76,2,98.9999969787599
253,231,48308,1,0,0:0:0:0:
123,191,48455,1,0,0:0:0:0:
338,144,48602,1,0,0:0:0:0:
214,270,48750,1,0,0:0:0:0:
232,119,48897,2,0,P|227:38|220:22,2,76.9999976501466
170,340,49338,5,0,0:0:0:0:
220,158,49485,1,0,0:0:0:0:
73,257,49632,1,0,0:0:0:0:
261,242,49779,2,0,P|360:240|375:241,1,76.9999976501466
488,237,50073,5,0,0:0:0:0:
206,342,50220,1,0,0:0:0:0:
297,81,50367,1,0,0:0:0:0:
314,289,50514,1,0,0:0:0:0:
90,190,50661,5,0,0:0:0:0:
418,120,50808,1,0,0:0:0:0:
215,338,50955,1,0,0:0:0:0:
205,140,51102,1,0,0:0:0:0:
357,268,51250,1,0,0:0:0:0:
357,268,51397,2,0,P|417:331|428:349,2,76.9999976501466
125,200,51838,5,0,0:0:0:0:
312,256,51985,1,0,0:0:0:0:
213,124,52132,2,0,P|118:66|107:64,1,115.49999647522
32,63,52500,1,0,0:0:0:0:
32,63,52647,1,0,0:0:0:0:
176,229,52794,1,0,0:0:0:0:
176,229,52941,2,0,P|210:252|245:267,2,76.9999976501466
197,39,53382,5,0,0:0:0:0:
95,202,53529,1,0,0:0:0:0:
261,149,53676,2,0,P|344:148|357:153,2,76.9999976501466
121,308,54117,5,0,0:0:0:0:
223,187,54264,1,0,0:0:0:0:
252,335,54411,2,0,P|328:361|370:359,1,115.49999647522
465,271,54779,5,0,0:0:0:0:
115,251,54926,1,0,0:0:0:0:
480,162,55073,1,0,0:0:0:0:
136,202,55220,1,0,0:0:0:0:
320,48,55367,5,0,0:0:0:0:
274,365,55514,1,0,0:0:0:0:
185,45,55661,1,0,0:0:0:0:
231,356,55808,1,0,0:0:0:0:
205,158,55955,1,0,0:0:0:0:
205,158,56102,2,0,P|175:74|156:46,2,115.49999647522
231,356,56691,1,0,0:0:0:0:
311,193,56838,2,0,P|410:126|435:118,2,115.49999647522
254,291,57426,5,0,0:0:0:0:
209,120,57573,2,0,P|168:46|139:18,1,115.49999647522
30,57,57941,1,0,0:0:0:0:
101,161,58088,2,0,P|208:184|227:181,1,115.49999647522
415,49,58455,5,0,0:0:0:0:
303,298,58602,1,0,0:0:0:0:
207,96,58750,1,0,0:0:0:0:
207,96,58823,1,0,0:0:0:0:
207,96,58897,2,0,P|254:38|279:20,1,76.9999976501466
334,228,59191,1,0,0:0:0:0:
205,175,59338,2,0,P|139:149|67:142,1,115.49999647522
15,232,59705,5,0,0:0:0:0:
208,43,59852,1,0,0:0:0:0:
187,295,60000,1,0,0:0:0:0:
267,59,60147,1,0,0:0:0:0:
409,260,60294,5,0,0:0:0:0:
232,130,60441,1,0,0:0:0:0:
477,75,60588,1,0,0:0:0:0:
275,325,60735,1,0,0:0:0:0:
183,212,60882,2,0,P|134:112|131:94,1,115.49999647522
252,36,61250,1,0,0:0:0:0:
252,36,61323,1,0,0:0:0:0:
252,36,61397,2,0,P|310:93|319:109,1,76.9999976501466
195,191,61691,1,0,0:0:0:0:
287,293,61838,2,0,P|323:319|392:347,2,115.49999647522
133,155,62426,5,0,0:0:0:0:
240,98,62573,2,0,P|320:93|350:98,1,76.9999976501466
434,178,62867,1,0,0:0:0:0:
284,193,63014,2,0,P|188:167|158:140,2,115.49999647522
434,178,63602,1,0,0:0:0:0:
381,299,63750,2,0,P|305:346|285:348,1,76.9999976501466
110,240,64044,5,0,0:0:0:0:
278,319,64191,1,0,0:0:0:0:
161,81,64338,5,0,0:0:0:0:
177,321,64485,1,0,0:0:0:0:
375,85,64632,1,0,0:0:0:0:
166,239,64779,1,0,0:0:0:0:
470,318,64926,5,0,0:0:0:0:
246,318,65073,1,0,0:0:0:0:
501,99,65220,1,0,0:0:0:0:
95,258,65367,1,0,0:0:0:0:
314,53,65514,1,0,0:0:0:0:
291,242,65661,2,0,P|228:335|221:338,1,115.49999647522
125,274,66029,2,0,P|152:192|175:173,2,115.49999647522
186,332,66617,1,0,0:0:0:0:
265,358,66764,1,0,0:0:0:0:
346,353,66911,2,0,P|398:342|433:315,2,98.9999969787599
291,285,67500,5,0,0:0:0:0:
287,202,67647,1,0,0:0:0:0:
342,131,67794,1,0,0:0:0:0:
256,121,67941,2,0,P|170:108|163:109,1,65.9999979858399
139,172,68235,1,0,0:0:0:0:
209,222,68382,1,0,0:0:0:0:
292,196,68529,2,0,P|319:148|325:108,1,65.9999979858399
285,64,68823,1,0,0:0:0:0:
369,49,68970,1,0,0:0:0:0:
339,130,69117,1,0,0:0:0:0:
420,120,69264,2,0,P|441:168|441:189,1,65.9999979858399
414,257,69558,5,0,0:0:0:0:
332,263,69705,1,0,0:0:0:0:
366,186,69852,2,0,P|366:146|356:120,1,65.9999979858399
278,102,70147,1,0,0:0:0:0:
196,108,70294,1,0,0:0:0:0:
243,176,70441,1,0,0:0:0:0:
281,249,70588,1,0,0:0:0:0:
201,249,70735,1,0,0:0:0:0:
164,168,70882,2,0,P|170:63|173:55,1,98.9999969787599
248,42,71250,1,0,0:0:0:0:
323,87,71397,2,0,P|317:192|314:200,1,98.9999969787599
247,210,71764,5,0,0:0:0:0:
300,281,71911,1,0,0:0:0:0:
258,356,72058,1,0,0:0:0:0:
173,345,72205,1,0,0:0:0:0:
149,259,72352,1,0,0:0:0:0:
226,283,72500,1,0,0:0:0:0:
280,226,72647,2,0,P|262:173|241:146,1,65.9999979858399
180,169,72941,1,0,0:0:0:0:
171,251,73088,1,0,0:0:0:0:
237,301,73235,2,0,P|281:320|302:320,1,65.9999979858399
352,257,73529,5,0,0:0:0:0:
276,222,73676,1,0,0:0:0:0:
346,175,73823,1,0,0:0:0:0:
279,122,73970,2,0,P|213:92|206:91,1,65.9999979858399
143,129,74264,1,0,0:0:0:0:
201,192,74411,1,0,0:0:0:0:
228,113,74558,2,0,P|270:80|285:75,1,65.9999979858399
360,104,74852,5,0,0:0:0:0:
306,171,75000,1,0,0:0:0:0:
414,168,75147,5,0,0:0:0:0:
363,233,75294,1,0,0:0:0:0:
306,171,75441,5,0,0:0:0:0:
252,238,75589,1,0,0:0:0:0:
363,233,75735,2,0,P|308:309|303:315,1,98.9999969787599
224,291,76102,1,0,0:0:0:0:
152,248,76250,1,0,0:0:0:0:
225,209,76397,1,0,0:0:0:0:
297,177,76544,1,0,0:0:0:0:
373,149,76691,1,0,0:0:0:0:
312,99,76838,1,0,0:0:0:0:
297,177,76985,1,0,0:0:0:0:
373,149,77132,1,0,0:0:0:0:
359,229,77279,6,0,P|348:260|323:292,1,65.9999979858399
246,282,77573,1,0,0:0:0:0:
187,222,77720,1,0,0:0:0:0:
268,208,77867,1,0,0:0:0:0:
212,146,78014,1,0,0:0:0:0:
187,222,78161,1,0,0:0:0:0:
132,162,78308,1,0,0:0:0:0:
212,146,78455,1,0,0:0:0:0:
281,100,78602,2,0,P|292:55|290:34,1,65.9999979858399
210,33,78897,1,0,0:0:0:0:
243,108,79044,2,0,P|271:137|299:153,1,65.9999979858399
372,135,79338,5,0,0:0:0:0:
426,195,79485,1,0,0:0:0:0:
347,218,79632,1,0,0:0:0:0:
372,295,79779,1,0,0:0:0:0:
453,290,79926,1,0,0:0:0:0:
476,213,80073,2,0,P|481:162|479:126,2,65.9999979858399
453,290,80514,5,0,0:0:0:0:
443,367,80661,1,0,0:0:0:0:
377,322,80808,1,0,0:0:0:0:
388,240,80955,1,0,0:0:0:0:
465,213,81102,1,0,0:0:0:0:
405,157,81250,1,0,0:0:0:0:
324,157,81397,1,0,0:0:0:0:
258,202,81544,1,0,0:0:0:0:
228,277,81691,1,0,0:0:0:0:
279,341,81838,1,0,0:0:0:0:
360,343,81985,1,0,0:0:0:0:
409,275,82132,2,0,P|417:225|412:200,1,65.9999979858399
381,139,82426,5,0,0:0:0:0:
303,112,82573,1,0,0:0:0:0:
221,152,82720,2,0,P|208:204|212:232,3,65.9999979858399
264,282,83308,1,0,0:0:0:0:
337,233,83455,2,0,P|353:170|353:158,1,65.9999979858399
301,106,83750,5,0,0:0:0:0:
230,151,83897,1,0,0:0:0:0:
305,189,84044,1,0,0:0:0:0:
263,260,84191,1,0,0:0:0:0:
348,260,84338,1,0,0:0:0:0:
344,340,84485,1,0,0:0:0:0:
418,302,84632,1,0,0:0:0:0:
487,348,84779,1,0,0:0:0:0:
502,268,84926,2,0,P|494:169|490:157,2,98.9999969787599
367,325,85514,6,0,P|308:326|298:323,1,66
219,271,85882,1,0,0:0:0:0:
246,178,86029,2,0,P|290:111|308:96,2,88
276,271,86764,2,0,P|325:307|389:323,1,110
451,270,87426,1,0,0:0:0:0:
432,157,87720,2,0,P|329:95|215:62,1,220
154,121,88750,5,0,0:0:0:0:
313,263,88897,1,0,0:0:0:0:
154,121,89044,1,0,0:0:0:0:
248,90,89191,2,0,P|385:82|442:90,1,176
437,188,90073,2,0,P|438:284|432:326,2,132
75,188,91250,2,0,P|74:284|80:326,2,132
255,97,92426,2,0,L|255:240,3,132
256,337,93897,1,0,0:0:0:0:
256,337,94044,1,0,0:0:0:0:
256,337,94191,2,0,B|316:392|451:360|466:355,1,198
410,172,95000,6,0,P|359:115|332:103,1,82.5
272,103,95367,1,0,0:0:0:0:
309,177,95514,1,0,0:0:0:0:
168,298,95955,5,0,0:0:0:0:
112,233,96102,1,0,0:0:0:0:
194,220,96250,2,0,P|288:219|301:223,1,82.5
340,266,96617,1,0,0:0:0:0:
272,313,96764,1,0,0:0:0:0:
248,137,97058,2,0,P|208:88|185:75,2,82.5
213,216,97647,1,0,0:0:0:0:
295,227,97794,1,0,0:0:0:0:
91,112,98088,5,0,0:0:0:0:
146,49,98235,1,0,0:0:0:0:
229,46,98382,2,0,P|323:58|331:62,2,82.5
146,49,98970,1,0,0:0:0:0:
91,112,99117,1,0,0:0:0:0:
338,239,99411,5,0,0:0:0:0:
275,293,99558,1,0,0:0:0:0:
352,317,99705,2,0,P|389:324|435:310,2,82.5
328,162,100588,6,0,P|316:117|288:78,2,82.5
282,232,101176,1,0,0:0:0:0:
219,176,101323,2,0,P|168:142|129:125,1,82.5
71,202,101764,2,0,P|130:293|223:342,1,192.5
441,182,102647,2,0,P|382:91|289:42,1,192.5
234,84,103308,1,0,0:0:0:0:
196,164,103455,1,0,0:0:0:0:
203,251,103602,1,0,0:0:0:0:
252,324,103750,2,0,P|303:352|359:363,2,110
244,192,104485,6,0,P|285:134|294:127,1,76.9999976501466
505,158,104779,1,0,0:0:0:0:
328,125,104926,1,0,0:0:0:0:
438,289,105073,2,0,P|382:310|313:329,1,115.49999647522
220,289,105441,1,0,0:0:0:0:
192,171,105588,2,0,P|199:87|208:62,2,76.9999976501466
320,352,106029,5,0,0:0:0:0:
212,189,106176,1,0,0:0:0:0:
389,251,106323,2,0,P|485:237|496:231,1,76.9999976501466
474,84,106617,1,0,0:0:0:0:
408,308,106764,5,0,0:0:0:0:
221,157,106911,1,0,0:0:0:0:
299,318,107058,1,0,0:0:0:0:
426,126,107205,1,0,0:0:0:0:
466,341,107352,5,0,0:0:0:0:
129,85,107500,1,0,0:0:0:0:
256,366,107647,1,0,0:0:0:0:
445,12,107794,1,0,0:0:0:0:
394,217,107941,2,0,P|357:298|330:334,1,115.49999647522
107,225,108308,5,0,0:0:0:0:
297,307,108455,1,0,0:0:0:0:
269,185,108602,2,0,P|198:129|156:107,2,115.49999647522
365,334,109191,1,0,0:0:0:0:
374,180,109338,2,0,P|363:115|339:43,1,115.49999647522
252,13,109705,1,0,0:0:0:0:
177,133,109852,2,0,P|173:224|181:272,1,115.49999647522
435,255,110220,1,0,0:0:0:0:
306,294,110367,2,0,P|206:291|195:287,2,76.9999976501466
435,255,110808,5,0,0:0:0:0:
435,255,110955,2,0,P|464:173|459:133,1,115.49999647522
425,40,111323,1,0,0:0:0:0:
292,302,111470,5,0,0:0:0:0:
435,152,111617,1,0,0:0:0:0:
158,233,111764,1,0,0:0:0:0:
370,88,111911,1,0,0:0:0:0:
266,367,112058,5,0,0:0:0:0:
506,143,112205,1,0,0:0:0:0:
32,269,112352,1,0,0:0:0:0:
414,40,112500,1,0,0:0:0:0:
333,221,112647,2,0,P|297:271|250:311,1,115.49999647522
50,122,113014,5,0,0:0:0:0:
221,285,113161,1,0,0:0:0:0:
221,285,113308,2,0,P|316:312|348:315,2,115.49999647522
164,165,113897,1,0,0:0:0:0:
284,212,114044,2,0,P|305:262|318:349,2,115.49999647522
232,117,114632,1,0,0:0:0:0:
173,207,114779,2,0,P|161:300|170:336,1,115.49999647522
303,329,115147,1,0,0:0:0:0:
357,227,115294,2,0,P|333:160|267:91,1,153.999995300293
124,69,115735,1,0,0:0:0:0:
305,242,115882,5,0,0:0:0:0:
48,189,116029,1,0,0:0:0:0:
432,39,116176,1,0,0:0:0:0:
136,277,116323,1,0,0:0:0:0:
212,29,116470,5,0,0:0:0:0:
348,365,116617,1,0,0:0:0:0:
42,132,116764,1,0,0:0:0:0:
504,234,116911,1,0,0:0:0:0:
249,259,117058,2,0,B|187:257|134:231,2,115.49999647522
387,180,117647,1,0,0:0:0:0:
295,80,117794,2,0,P|183:51|92:66,1,192.499994125366
114,300,118308,1,0,0:0:0:0:
113,116,118455,2,0,P|207:55|227:48,1,115.49999647522
459,100,118823,5,0,0:0:0:0:
249,65,118970,1,0,0:0:0:0:
360,189,119117,2,0,P|399:289|401:366,2,153.999995300293
293,108,119852,1,0,0:0:0:0:
186,153,120000,2,0,P|138:220|132:240,2,76.9999976501466
293,108,120441,1,0,0:0:0:0:
237,334,120588,5,0,0:0:0:0:
266,55,120735,1,0,0:0:0:0:
323,315,120882,1,0,0:0:0:0:
107,92,121029,1,0,0:0:0:0:
454,163,121176,5,0,0:0:0:0:
68,294,121323,1,0,0:0:0:0:
433,24,121470,1,0,0:0:0:0:
347,353,121617,1,0,0:0:0:0:
215,23,121764,1,0,0:0:0:0:
453,337,121911,1,0,0:0:0:0:
304,206,122058,2,0,P|161:154|158:154,1,153.999995300293
59,246,122500,1,0,0:0:0:0:
224,217,122647,2,0,P|237:200|264:76,1,115.49999647522
208,33,123014,1,0,0:0:0:0:
114,55,123161,1,0,0:0:0:0:
94,147,123308,6,0,P|116:222|143:255,1,115.49999647522
179,251,123602,1,0,0:0:0:0:
179,251,123676,1,0,0:0:0:0:
377,163,123823,1,0,0:0:0:0:
404,195,123897,1,0,0:0:0:0:
417,234,123970,2,0,L|422:291,3,38.4999988250733
311,275,124338,5,0,0:0:0:0:
273,264,124411,1,0,0:0:0:0:
242,238,124485,2,0,L|218:202,3,38.4999988250733
279,78,124852,5,0,0:0:0:0:
312,57,124926,1,0,0:0:0:0:
352,54,125000,2,0,L|405:58,3,38.4999988250733
389,201,125367,2,0,L|361:267,1,38.4999988250733
325,321,125588,1,0,0:0:0:0:
254,206,125735,2,0,P|234:152|232:109,1,76.9999976501466
406,63,126029,5,0,0:0:0:0:
429,86,126102,1,0,0:0:0:0:
446,114,126176,1,0,0:0:0:0:
456,146,126249,1,0,0:0:0:0:
462,180,126323,2,0,L|460:238,3,38.4999988250733
326,220,126691,5,0,0:0:0:0:
302,243,126764,1,0,0:0:0:0:
274,260,126838,1,0,0:0:0:0:
242,270,126911,1,0,0:0:0:0:
209,276,126985,2,0,L|151:274,3,38.4999988250733
119,131,127352,2,0,L|123:83,1,38.4999988250733
127,8,127573,1,0,0:0:0:0:
270,73,127720,5,0,0:0:0:0:
270,73,127794,1,0,0:0:0:0:
270,73,127867,1,0,0:0:0:0:
410,202,128161,2,0,P|386:289|375:309,1,76.9999976501466
224,286,128455,5,0,0:0:0:0:
186,283,128528,1,0,0:0:0:0:
149,271,128602,1,0,0:0:0:0:
117,251,128675,1,0,0:0:0:0:
98,218,128750,2,0,L|86:177,3,38.4999988250733
180,127,129117,5,0,0:0:0:0:
217,129,129190,1,0,0:0:0:0:
254,141,129264,1,0,0:0:0:0:
286,161,129337,1,0,0:0:0:0:
306,195,129412,2,0,L|318:236,3,38.4999988250733
214,326,129779,2,0,L|154:336,1,38.4999988250733
156,199,130000,2,0,L|202:192,1,38.4999988250733
176,60,130220,2,0,P|57:108|35:153,1,153.999995300293
94,274,130661,5,0,0:0:0:0:
138,315,130735,1,0,0:0:0:0:
194,341,130808,2,0,L|251:333,3,38.4999988250733
245,230,131176,5,0,0:0:0:0:
247,192,131249,1,0,0:0:0:0:
259,155,131323,1,0,0:0:0:0:
279,123,131396,1,0,0:0:0:0:
313,104,131471,2,0,L|354:92,3,38.4999988250733
430,227,131838,1,0,0:0:0:0:
422,271,131911,1,0,0:0:0:0:
402,312,131985,1,0,0:0:0:0:
370,343,132058,1,0,0:0:0:0:
330,364,132132,1,0,0:0:0:0:
285,370,132205,1,0,0:0:0:0:
241,363,132279,2,0,L|199:348,3,38.4999988250733
203,218,132647,5,0,0:0:0:0:
210,180,132720,1,0,0:0:0:0:
218,143,132794,1,0,0:0:0:0:
228,106,132867,1,0,0:0:0:0:
234,69,132941,2,0,L|244:22,3,38.4999988250733
388,113,133308,6,0,L|444:125,1,55
326,228,133455,2,0,L|271:270,1,55
270,121,133602,2,0,L|214:89,1,55
377,69,133750,2,0,L|429:37,1,55
410,183,133897,2,0,L|461:217,1,55
334,286,134044,6,0,L|322:350,1,55
215,287,134191,2,0,L|139:298,1,55
265,189,134338,2,0,L|273:124,1,55
377,233,134485,2,0,L|447:302,1,55
281,306,134632,2,0,L|230:361,1,55
203,191,134779,2,0,P|129:69|129:57,2,110
394,49,135220,6,0,L|394:148,1,55
394,335,135367,2,0,L|394:236,1,55
323,50,135514,6,0,L|323:149,1,55
323,336,135661,2,0,L|323:237,1,55
252,50,135808,6,0,L|252:149,1,55
252,336,135955,2,0,L|252:237,1,55
183,50,136102,6,0,L|183:149,1,55
183,336,136249,2,0,L|183:237,1,55
114,48,136397,6,0,L|114:147,1,55
114,334,136544,2,0,L|114:235,1,55
40,51,136691,2,0,P|62:199|67:208,1,110
250,217,136985,2,0,L|310:214,7,55
410,208,137647,1,0,0:0:0:0:
255,17,137794,6,0,L|256:108,1,55
255,367,137941,2,0,L|256:276,1,55
185,29,138088,6,0,L|220:113,1,55
327,355,138235,2,0,L|292:271,1,55
131,68,138382,6,0,L|196:132,1,55
379,316,138529,2,0,L|315:251,1,55
90,126,138676,6,0,L|174:161,1,55
421,257,138823,2,0,L|337:222,1,55
78,193,138970,6,0,L|169:194,1,55
433,190,139117,2,0,L|342:189,1,55
94,258,139264,6,0,L|178:223,1,55
418,127,139411,2,0,L|333:160,1,55
131,318,139558,6,0,L|196:254,1,55
380,65,139705,2,0,L|281:162,1,110
183,235,140000,1,0,0:0:0:0:
183,235,140073,1,0,0:0:0:0:
183,235,140147,1,0,0:0:0:0:
277,280,140294,1,0,0:0:0:0:
381,280,140441,1,0,0:0:0:0:
462,220,140588,1,0,0:0:0:0:
379,158,140735,1,0,0:0:0:0:
275,156,140882,1,0,0:0:0:0:
201,231,141029,1,0,0:0:0:0:
134,153,141176,5,0,0:0:0:0:
90,243,141323,1,0,0:0:0:0:
175,304,141470,1,0,0:0:0:0:
266,261,141617,1,0,0:0:0:0:
325,171,141764,2,0,P|380:78|386:48,1,132
158,127,142867,5,0,0:0:0:0:
221,242,143235,2,0,P|317:297|387:306,1,176
336,105,144117,1,0,0:0:0:0:
393,213,144411,2,0,P|349:340|303:366,2,176
336,105,145735,1,0,0:0:0:0:
265,207,145882,2,0,P|283:293|285:299,1,88
249,109,146617,1,0,0:0:0:0:
249,109,146911,1,0,0:0:0:0:
399,196,147647,5,0,0:0:0:0:
399,196,147941,1,0,0:0:0:0:
186,262,148750,5,0,0:0:0:0:
186,262,149044,1,0,0:0:0:0:
186,262,149338,1,0,0:0:0:0:
186,262,149632,1,0,0:0:0:0:
183,218,149926,1,0,0:0:0:0:
183,175,150000,1,0,0:0:0:0:
181,133,150073,1,0,0:0:0:0:
183,90,150147,2,0,P|221:49|279:29,2,110
313,153,151250,5,0,0:0:0:0:
313,153,151544,1,0,0:0:0:0:
162,220,152352,5,0,0:0:0:0:
162,220,152647,1,0,0:0:0:0:
256,194,153529,5,0,0:0:0:0:
256,194,153823,1,0,0:0:0:0:
256,194,154117,1,0,0:0:0:0:
256,194,154411,1,0,0:0:0:0:
256,194,154705,1,0,0:0:0:0:
290,193,154779,1,0,0:0:0:0:
324,193,154852,1,0,0:0:0:0:
354,193,154926,2,0,P|397:215|414:243,1,66
404,269,155220,5,0,0:0:0:0:
404,269,155294,1,0,0:0:0:0:
155,155,155955,5,0,0:0:0:0:
155,155,156249,1,0,0:0:0:0:
343,104,157058,5,0,0:0:0:0:
343,104,157352,1,0,0:0:0:0:
127,286,158235,5,0,0:0:0:0:
191,287,158529,1,0,0:0:0:0:
128,224,158823,1,0,0:0:0:0:
191,223,159117,1,0,0:0:0:0:
128,158,159411,1,0,0:0:0:0:
192,159,159705,1,0,0:0:0:0:
126,95,160000,1,0,0:0:0:0:
192,95,160294,1,0,0:0:0:0:
256,96,160588,1,0,0:0:0:0:
256,162,160882,5,0,0:0:0:0:
256,162,161029,2,0,L|256:311,1,115.49999647522
255,355,161397,1,0,0:0:0:0:
256,65,161544,1,0,0:0:0:0:
256,162,161691,2,0,P|306:266|334:291,2,153.999995300293
256,65,162426,1,0,0:0:0:0:
256,162,162573,2,0,P|206:266|178:291,1,153.999995300293
20,106,163014,5,0,0:0:0:0:
401,104,163161,1,0,0:0:0:0:
86,301,163308,1,0,0:0:0:0:
459,44,163455,1,0,0:0:0:0:
334,356,163602,5,0,0:0:0:0:
327,40,163750,1,0,0:0:0:0:
500,311,163897,1,0,0:0:0:0:
48,44,164044,1,0,0:0:0:0:
417,109,164191,5,0,0:0:0:0:
64,273,164338,1,0,0:0:0:0:
222,76,164485,2,0,P|312:34|333:30,2,115.49999647522
145,148,165073,1,0,0:0:0:0:
161,254,165220,2,0,P|206:277|287:285,1,115.49999647522
404,97,165588,5,0,0:0:0:0:
296,257,165735,1,0,0:0:0:0:
292,103,165882,2,0,P|259:8|257:6,2,76.9999976501466
215,308,166323,5,0,0:0:0:0:
273,143,166470,1,0,0:0:0:0:
40,193,166617,5,0,0:0:0:0:
214,189,166764,1,0,0:0:0:0:
40,193,166911,1,0,0:0:0:0:
214,189,167058,2,0,L|311:188,2,76.9999976501466
116,193,167500,1,0,0:0:0:0:
305,47,167647,5,0,0:0:0:0:
236,362,167794,1,0,0:0:0:0:
35,118,167941,1,0,0:0:0:0:
478,204,168088,1,0,0:0:0:0:
55,315,168235,5,0,0:0:0:0:
421,17,168382,1,0,0:0:0:0:
29,89,168529,1,0,0:0:0:0:
464,249,168676,1,0,0:0:0:0:
79,167,168823,5,0,0:0:0:0:
415,83,168970,1,0,0:0:0:0:
217,280,169117,2,0,P|120:342|114:344,2,115.49999647522
290,167,169705,1,0,0:0:0:0:
290,167,169852,2,0,P|329:89|337:61,2,115.49999647522
225,277,170441,1,0,0:0:0:0:
159,170,170588,2,0,P|180:84|208:52,1,115.49999647522
339,48,170955,5,0,0:0:0:0:
366,182,171102,2,0,P|336:304|330:313,2,115.49999647522
338,158,171617,1,0,0:0:0:0:
338,158,171691,1,0,0:0:0:0:
255,97,171838,6,0,P|150:66|134:64,2,115.49999647522
388,282,172426,5,0,0:0:0:0:
132,153,172573,1,0,0:0:0:0:
452,153,172720,1,0,0:0:0:0:
165,307,172867,1,0,0:0:0:0:
239,40,173014,5,0,0:0:0:0:
434,349,173161,1,0,0:0:0:0:
88,171,173308,1,0,0:0:0:0:
463,195,173455,1,0,0:0:0:0:
125,357,173602,1,0,0:0:0:0:
259,55,173750,1,0,0:0:0:0:
322,259,173897,2,0,P|341:349|341:378,2,115.49999647522
255,119,174485,1,0,0:0:0:0:
198,260,174632,2,0,P|184:378|186:392,2,115.49999647522
272,64,175220,5,0,0:0:0:0:
182,188,175367,2,0,P|79:211|41:204,1,115.49999647522
33,37,175735,1,0,0:0:0:0:
50,178,175882,1,0,0:0:0:0:
288,37,176029,1,0,0:0:0:0:
180,272,176176,2,0,P|132:335|98:364,2,115.49999647522
212,145,176764,1,0,0:0:0:0:
321,324,176911,5,0,0:0:0:0:
170,54,177058,1,0,0:0:0:0:
358,249,177205,1,0,0:0:0:0:
181,144,177352,1,0,0:0:0:0:
471,133,177500,5,0,0:0:0:0:
93,302,177647,1,0,0:0:0:0:
298,57,177794,1,0,0:0:0:0:
204,321,177941,1,0,0:0:0:0:
172,82,178088,1,0,0:0:0:0:
364,333,178235,1,0,0:0:0:0:
168,213,178382,2,0,P|59:197|46:197,1,115.49999647522
111,313,178750,2,0,P|192:345|305:355,2,192.499994125366
126,129,179632,5,0,0:0:0:0:
290,84,179779,2,0,P|387:226|388:231,1,176
283,331,180220,1,0,0:0:0:0:
232,198,180367,2,0,P|274:116|319:79,2,132
220,331,180955,1,0,0:0:0:0:
188,185,181102,2,0,P|134:91|113:73,2,132
161,332,181691,1,0,0:0:0:0:
442,38,181838,5,0,0:0:0:0:
2,321,181985,1,0,0:0:0:0:
494,182,182132,1,0,0:0:0:0:
10,20,182279,1,0,0:0:0:0:
431,368,182426,5,0,0:0:0:0:
245,15,182573,1,0,0:0:0:0:
105,366,182720,1,0,0:0:0:0:
511,118,182867,1,0,0:0:0:0:
0,260,183014,1,0,0:0:0:0:
492,212,183161,1,0,0:0:0:0:
119,131,183308,2,0,P|45:116|-7:88,2,132
148,104,183823,1,0,0:0:0:0:
148,104,183897,1,0,0:0:0:0:
399,98,184044,6,0,P|463:244|463:280,1,176
321,338,184485,1,0,0:0:0:0:
284,221,184632,2,0,P|316:175|395:112,2,132
233,333,185220,1,0,0:0:0:0:
221,178,185367,2,0,P|74:138|65:140,1,132
23,304,185735,1,0,0:0:0:0:
236,245,185882,2,0,P|303:147|309:102,2,132
96,268,186470,1,0,0:0:0:0:
506,193,186617,5,0,0:0:0:0:
12,229,186764,1,0,0:0:0:0:
219,13,186911,1,0,0:0:0:0:
302,371,187058,1,0,0:0:0:0:
421,39,187205,5,0,0:0:0:0:
179,364,187352,1,0,0:0:0:0:
29,42,187500,1,0,0:0:0:0:
485,293,187647,1,0,0:0:0:0:
15,269,187794,1,0,0:0:0:0:
473,51,187941,1,0,0:0:0:0:
180,316,188088,2,0,P|119:346|85:354,2,88
282,131,188529,1,0,0:0:0:0:
415,251,188676,2,0,P|455:348|461:382,2,132
282,131,189264,5,0,0:0:0:0:
68,160,189411,2,0,P|6:208|-2:245,1,88
3,357,189705,1,0,0:0:0:0:
9,18,189852,1,0,0:0:0:0:
61,245,190000,2,0,P|108:318|144:342,1,132
423,270,190367,1,0,0:0:0:0:
182,121,190514,2,0,P|79:97|48:95,2,132
357,306,191102,1,0,0:0:0:0:
2,72,191250,5,0,0:0:0:0:
497,33,191397,1,0,0:0:0:0:
14,358,191544,1,0,0:0:0:0:
508,334,191691,1,0,0:0:0:0:
2,72,191838,5,0,0:0:0:0:
497,33,191985,1,0,0:0:0:0:
14,358,192132,1,0,0:0:0:0:
508,334,192279,1,0,0:0:0:0:
2,72,192426,1,0,0:0:0:0:
508,334,192573,1,0,0:0:0:0:
259,97,192720,2,0,P|183:42|150:28,2,88
308,368,193161,1,0,0:0:0:0:
296,17,193308,1,0,0:0:0:0:
209,260,193455,6,0,P|143:337|117:355,1,132
14,193,193823,1,0,0:0:0:0:
263,252,193970,2,0,P|403:345|406:348,2,132
14,193,194558,1,0,0:0:0:0:
311,185,194705,2,0,P|436:100|443:92,1,132
452,28,195073,1,0,0:0:0:0:
271,128,195220,2,0,P|243:282|246:293,2,132
452,28,195808,1,0,0:0:0:0:
16,361,195955,5,0,0:0:0:0:
492,29,196102,1,0,0:0:0:0:
18,26,196250,1,0,0:0:0:0:
499,358,196397,1,0,0:0:0:0:
16,361,196544,5,0,0:0:0:0:
492,29,196691,1,0,0:0:0:0:
18,26,196839,1,0,0:0:0:0:
499,358,196986,1,0,0:0:0:0:
7,110,197132,1,0,0:0:0:0:
507,273,197279,1,0,0:0:0:0:
55,276,197426,2,0,P|-7:323|-34:360,2,88
507,89,197867,1,0,0:0:0:0:
211,248,198014,2,0,P|125:342|101:395,2,176
497,233,198750,1,0,0:0:0:0:
268,61,198897,5,0,0:0:0:0:
487,140,199044,1,0,0:0:0:0:
207,232,199191,5,0,0:0:0:0:
388,73,199338,1,0,0:0:0:0:
338,353,199485,5,0,0:0:0:0:
154,123,199632,1,0,0:0:0:0:
475,222,199779,5,0,0:0:0:0:
179,325,199926,1,0,0:0:0:0:
332,44,200073,5,0,0:0:0:0:
470,351,200220,1,0,0:0:0:0:
71,164,200367,5,0,0:0:0:0:
456,100,200514,1,0,0:0:0:0:
456,100,200588,1,0,0:0:0:0:
456,100,200661,1,0,0:0:0:0:
193,361,200808,1,0,0:0:0:0:
285,22,200955,5,0,0:0:0:0:
63,304,201102,1,0,0:0:0:0:
478,206,201250,5,0,0:0:0:0:
53,98,201397,1,0,0:0:0:0:
332,381,201544,5,0,0:0:0:0:
392,33,201691,1,0,0:0:0:0:
5,219,201838,5,0,0:0:0:0:
506,91,201985,1,0,0:0:0:0:
15,89,202132,5,0,0:0:0:0:
492,271,202279,1,0,0:0:0:0:
60,286,202426,5,0,0:0:0:0:
503,61,202573,1,0,0:0:0:0:
148,140,202720,5,0,0:0:0:0:
448,337,202867,1,0,0:0:0:0:
383,28,203014,5,0,0:0:0:0:
388,369,203161,1,0,0:0:0:0:
272,26,203308,5,0,0:0:0:0:
279,374,203455,1,0,0:0:0:0:
156,24,203602,5,0,0:0:0:0:
172,379,203750,1,0,0:0:0:0:
50,26,203897,5,0,0:0:0:0:
70,380,204044,1,0,0:0:0:0:
5,156,204191,5,0,0:0:0:0:
251,202,204338,1,0,0:0:0:0:
46,282,204485,5,0,0:0:0:0:
196,90,204632,1,0,0:0:0:0:
141,375,204779,5,0,0:0:0:0:
152,22,204926,1,0,0:0:0:0:
246,370,205073,5,0,0:0:0:0:
247,24,205220,1,0,0:0:0:0:
343,375,205367,5,0,0:0:0:0:
340,28,205514,1,0,0:0:0:0:
430,377,205661,5,0,0:0:0:0:
423,26,205808,1,0,0:0:0:0:
499,298,205955,5,0,0:0:0:0:
74,73,206102,1,0,0:0:0:0:
483,96,206250,5,0,0:0:0:0:
134,283,206397,1,0,0:0:0:0:
270,15,206544,5,0,0:0:0:0:
345,371,206691,1,0,0:0:0:0:
110,52,206838,5,0,0:0:0:0:
460,282,206985,1,0,0:0:0:0:
25,207,207132,5,0,0:0:0:0:
323,351,207279,1,0,0:0:0:0:
176,42,207426,5,0,0:0:0:0:
381,284,207573,1,0,0:0:0:0:
167,166,207720,2,0,P|72:172|44:190,1,88
64,249,208014,5,0,0:0:0:0:
139,291,208161,1,0,0:0:0:0:
208,242,208308,1,0,0:0:0:0:
240,162,208455,1,0,0:0:0:0:
223,80,208602,1,0,0:0:0:0:
274,15,208750,1,0,0:0:0:0:
358,19,208897,1,0,0:0:0:0:
426,76,209044,1,0,0:0:0:0:
414,160,209191,1,0,0:0:0:0:
364,234,209338,2,0,P|284:306|253:313,1,132
183,288,209705,5,0,0:0:0:0:
151,212,209852,1,0,0:0:0:0:
207,148,210000,1,0,0:0:0:0:
294,166,210147,1,0,0:0:0:0:
326,242,210294,1,0,0:0:0:0:
287,318,210441,1,0,0:0:0:0:
210,351,210588,1,0,0:0:0:0:
126,342,210735,1,0,0:0:0:0:
78,273,210882,1,0,0:0:0:0:
66,195,211029,1,0,0:0:0:0:
67,116,211176,1,0,0:0:0:0:
105,42,211323,2,0,P|166:28|239:28,1,132
293,80,211691,5,0,0:0:0:0:
307,160,211838,1,0,0:0:0:0:
299,241,211985,1,0,0:0:0:0:
256,312,212132,1,0,0:0:0:0:
177,328,212279,1,0,0:0:0:0:
104,286,212426,1,0,0:0:0:0:
99,203,212573,1,0,0:0:0:0:
141,133,212720,1,0,0:0:0:0:
222,140,212867,1,0,0:0:0:0:
282,203,213014,1,0,0:0:0:0:
268,283,213161,1,0,0:0:0:0:
199,330,213308,6,0,P|141:342|42:244,2,176
261,248,214044,1,0,0:0:0:0:
261,248,214191,1,0,0:0:0:0:
261,248,214338,1,0,0:0:0:0:
261,165,214485,1,0,0:0:0:0:
261,165,214632,1,0,0:0:0:0:
350,164,214779,1,0,0:0:0:0:
349,249,214926,1,0,0:0:0:0:
349,249,215073,1,0,0:0:0:0:
430,248,215220,1,0,0:0:0:0:
430,248,215367,1,0,0:0:0:0:
430,248,215514,1,0,0:0:0:0:
430,248,215661,1,0,0:0:0:0:
428,164,215808,1,0,0:0:0:0:
429,80,215955,1,0,0:0:0:0:
346,80,216102,1,0,0:0:0:0:
263,82,216250,1,0,0:0:0:0:
263,82,216397,1,0,0:0:0:0:
177,87,216544,1,0,0:0:0:0:
177,87,216691,1,0,0:0:0:0:
92,98,216838,2,0,P|62:164|63:300,1,176
