osu file format v14

[General]
AudioFilename: audio.mp3
AudioLeadIn: 0
PreviewTime: 45767
Countdown: 0
SampleSet: Soft
StackLeniency: 0.7
Mode: 0
LetterboxInBreaks: 0
WidescreenStoryboard: 1

[Editor]
DistanceSpacing: 0.4
BeatDivisor: 4
GridSize: 32
TimelineZoom: 1.4

[Metadata]
Title:Minimum
TitleUnicode:みにまむ
Artist:MIMI feat. wanko
ArtistUnicode:MIMI feat. わん子
Creator:Reiszen
Version:Kaze
Source:
Tags:japanese pop jpop j-pop わん子 Wanko wanko_sing 粟屋やわ子 Awaya yawako awayawa_pic はるお haluo_haluo eringiRa sinyus20 Take
BeatmapID:3765215
BeatmapSetID:1834058

[Difficulty]
HPDrainRate:6
CircleSize:4
OverallDifficulty:8.6
ApproachRate:9.2
SliderMultiplier:1.5
SliderTickRate:1

[Events]
//Background and Video events
0,0,"bg.jpg",0,0
//Break Periods
2,65148,74083
//Storyboard Layer 0 (Background)
//Storyboard Layer 1 (Fail)
//Storyboard Layer 2 (Pass)
//Storyboard Layer 3 (Foreground)
//Storyboard Layer 4 (Overlay)
//Storyboard Sound Samples

[TimingPoints]
990,297.029702970297,4,2,1,30,1,0
5742,-166.666666666667,4,2,1,30,0,0
6039,-166.666666666667,4,2,1,5,0,0
6188,-166.666666666667,4,2,1,30,0,0
6485,-166.666666666667,4,2,1,5,0,0
6930,-166.666666666667,4,2,1,30,0,0
7227,-166.666666666667,4,2,1,5,0,0
7376,-166.666666666667,4,2,1,30,0,0
7673,-166.666666666667,4,2,1,5,0,0
8118,-166.666666666667,4,2,1,30,0,0
8415,-166.666666666667,4,2,1,5,0,0
8564,-166.666666666667,4,2,1,30,0,0
8861,-166.666666666667,4,2,1,5,0,0
9306,-166.666666666667,4,2,1,30,0,0
9603,-166.666666666667,4,2,1,5,0,0
9752,-166.666666666667,4,2,1,30,0,0
10791,-166.666666666667,4,2,1,5,0,0
10940,-166.666666666667,4,2,1,30,0,0
11237,-166.666666666667,4,2,1,5,0,0
11682,-166.666666666667,4,2,1,30,0,0
11980,-166.666666666667,4,2,1,5,0,0
12129,-166.666666666667,4,2,1,30,0,0
12425,-166.666666666667,4,2,1,5,0,0
12870,-166.666666666667,4,2,1,30,0,0
13168,-166.666666666667,4,2,1,5,0,0
13317,-166.666666666667,4,2,1,30,0,0
13613,-166.666666666667,4,2,1,5,0,0
14059,-500.000000000003,4,2,1,30,0,0
14504,-500.000000000003,4,2,1,5,0,0
14653,-142.857142857143,4,2,1,30,0,0
15247,-142.857142857143,4,2,1,40,0,0
24752,-111.111111111111,4,2,1,55,0,0
34257,-142.857142857143,4,2,1,47,0,0
42574,-333.333333333333,4,2,1,47,0,0
43168,-333.333333333333,4,2,1,5,0,0
43762,-250,4,2,1,32,0,0
45841,-500,4,2,1,32,0,0
46064,-500,4,2,1,5,0,0
46138,-100,4,2,1,70,0,1
54455,-100,4,2,1,70,0,0
55346,-333.333333333333,4,2,1,70,0,0
55569,-333.333333333333,4,2,1,5,0,0
55643,-100,4,2,1,70,0,1
60395,-100,4,2,1,64,0,1
60544,-100,4,2,1,64,0,0
60692,-100,4,2,1,64,0,1
60841,-100,4,2,1,64,0,0
61584,-100,4,2,1,64,0,1
61732,-100,4,2,1,64,0,0
61881,-100,4,2,1,64,0,1
62029,-100,4,2,1,64,0,0
62772,-100,4,2,1,64,0,1
62920,-100,4,2,1,64,0,0
63069,-100,4,2,1,64,0,1
63217,-100,4,2,1,64,0,0
63960,-100,4,2,1,64,0,1
64108,-100,4,2,1,64,0,0
65148,-100,4,2,1,30,0,0
74653,-166.666666666667,4,2,1,30,0,0
84158,-333.333333333333,4,2,1,30,0,0
86534,-250,4,2,1,35,0,0
96039,-111.111111111111,4,2,1,60,0,0
98638,-111.111111111111,4,2,1,5,0,0
98712,-111.111111111111,4,2,1,60,0,0
103390,-111.111111111111,4,2,1,5,0,0
103464,-111.111111111111,4,2,1,60,0,0
105544,-111.111111111111,4,2,1,55,0,0
114455,-333.333333333333,4,2,1,55,0,0
114975,-333.333333333333,4,2,1,5,0,0
115049,-100,4,2,1,75,0,1
137623,-166.666666666667,4,2,1,75,0,1
137846,-166.666666666667,4,2,1,5,0,1
137920,-100,4,2,1,75,0,1
138143,-100,4,2,1,5,0,1
138217,-100,4,2,1,75,0,1
138811,-142.857142857143,4,2,1,75,0,0

[Colours]
Combo1 : 172,255,170
Combo2 : 151,218,148
Combo3 : 255,255,204

[HitObjects]
396,335,5742,6,0,P|402:289|415:247,1,89.9999972534181,2|0,0:0|0:0,0:0:0:0:
509,218,6188,2,0,P|503:171|490:129,1,89.9999972534181,2|0,0:0|0:0,0:0:0:0:
383,323,6930,6,0,P|388:276|401:234,1,89.9999972534181,2|0,0:0|0:0,0:0:0:0:
495,205,7376,2,0,P|489:158|476:116,1,89.9999972534181,2|0,0:0|0:0,0:0:0:0:
369,310,8118,6,0,P|374:263|387:221,1,89.9999972534181,2|0,0:0|0:0,0:0:0:0:
481,192,8564,2,0,P|475:145|462:103,1,89.9999972534181,2|0,0:0|0:0,0:0:0:0:
355,297,9306,6,0,P|360:250|373:208,1,89.9999972534181,2|0,0:0|0:0,0:0:0:0:
467,179,9752,2,0,P|461:132|448:90,1,89.9999972534181,2|0,0:0|0:0,0:0:0:0:
398,16,10197,2,0,P|421:3|448:3,1,44.999998626709,2|2,0:0|0:0,0:0:0:0:
373,198,10494,6,0,L|276:180,1,89.9999972534181,2|0,0:0|0:0,0:0:0:0:
191,159,10940,2,0,P|211:117|251:93,1,89.9999972534181,2|0,0:0|0:0,0:0:0:0:
363,210,11683,6,0,L|266:192,1,89.9999972534181,2|0,0:0|0:0,0:0:0:0:
181,171,12129,2,0,P|201:129|241:105,1,89.9999972534181,2|0,0:0|0:0,0:0:0:0:
353,222,12871,6,0,L|256:204,1,89.9999972534181,2|2,0:0|0:0,0:0:0:0:
171,183,13317,2,0,P|191:141|231:117,1,89.9999972534181,2|0,0:0|0:0,0:0:0:0:
343,234,14059,6,0,L|351:280,1,45,2|0,0:0|0:0,0:0:0:0:
411,344,14653,6,0,P|355:368|277:323,1,157.499995193482
262,204,15247,6,0,P|207:211|154:228,1,104.999996795654,2|2,0:0|0:0,0:0:0:0:
105,304,15692,2,0,P|66:254|69:202,1,104.999996795654,2|2,0:0|0:0,0:0:0:0:
126,147,16138,2,0,P|122:119|108:91,1,52.4999983978272,2|0,0:0|0:0,0:0:0:0:
38,38,16435,6,0,P|25:60|21:87,1,52.4999983978272,2|0,0:0|0:0,0:0:0:0:
167,23,16732,2,0,P|139:9|116:6,1,52.4999983978272,2|2,0:0|0:0,0:0:0:0:
204,104,17029,2,0,P|257:97|306:82,1,104.999996795654,0|2,0:0|0:0,0:0:0:0:
488,47,17623,6,0,P|443:17|390:27,1,104.999996795654,2|2,0:0|0:0,0:0:0:0:
423,103,18069,2,0,P|434:152|437:211,1,104.999996795654,2|2,0:0|0:0,0:0:0:0:
509,256,18514,2,0,P|501:280|499:308,1,52.4999983978272,2|0,0:0|0:0,0:0:0:0:
359,301,18811,6,0,P|388:289|418:291,1,52.4999983978272,2|0,0:0|0:0,0:0:0:0:
301,372,19108,2,0,P|272:372|242:362,1,52.4999983978272,2|2,0:0|0:0,0:0:0:0:
192,292,19405,2,0,P|199:240|213:190,1,104.999996795654,0|2,0:0|0:0,0:0:0:0:
382,199,19999,6,0,P|403:148|396:93,1,104.999996795654,2|2,0:0|0:0,0:0:0:0:
311,138,20445,1,2,0:0:0:0:
265,52,20593,2,0,P|292:44|326:44,1,52.4999983978272,0|2,0:0|0:0,0:0:0:0:
305,145,20890,2,0,P|277:150|252:151,1,52.4999983978272,2|0,0:0|0:0,0:0:0:0:
175,88,21188,5,2,0:0:0:0:
154,84,21336,1,0,0:0:0:0:
60,163,21485,2,0,P|86:161|111:156,1,52.4999983978272,2|2,0:0|0:0,0:0:0:0:
2,96,21782,1,0,0:0:0:0:
10,87,22079,5,2,0:0:0:0:
66,158,22227,1,2,0:0:0:0:
3,245,22376,6,0,L|107:268,1,104.999996795654,2|2,0:0|0:0,0:0:0:0:
190,299,22821,1,2,0:0:0:0:
121,364,22970,2,0,P|98:325|106:265,2,104.999996795654,2|2|2,0:0|0:0|0:0,0:0:0:0:
289,266,24009,1,2,0:0:0:0:
0,66,24752,6,0,P|42:35|126:56,1,134.999995880127,6|8,1:0|0:0,0:0:0:0:
201,199,25197,1,0,1:0:0:0:
223,57,25346,1,0,1:0:0:0:
113,189,25494,1,0,1:0:0:0:
276,253,25643,1,8,0:0:0:0:
167,119,25791,1,0,0:0:0:0:
55,302,25940,6,0,L|195:283,1,134.999995880127,2|8,1:0|0:0,0:0:0:0:
409,324,26386,1,0,1:0:0:0:
281,170,26534,1,0,0:0:0:0:
272,338,26683,1,0,1:0:0:0:
367,162,26831,2,0,L|385:234,1,67.4999979400635,8|0,0:0|0:0,0:0:0:0:
512,106,27128,6,0,P|459:67|386:81,1,134.999995880127,2|8,1:0|0:0,0:0:0:0:
367,162,27574,1,0,1:0:0:0:
159,52,27722,6,0,P|212:13|285:27,1,134.999995880127,2|8,1:0|0:0,0:0:0:0:
238,108,28168,1,0,0:0:0:0:
41,30,28316,2,0,P|62:91|74:161,1,134.999995880127,2|8,1:0|0:0,0:0:0:0:
121,363,28762,5,0,1:0:0:0:
157,186,28910,1,0,0:0:0:0:
222,363,29059,1,0,1:0:0:0:
108,273,29207,1,8,0:0:0:0:
247,208,29356,1,0,0:0:0:0:
447,363,29504,6,0,P|378:374|324:338,1,134.999995880127,2|8,1:0|0:0,0:0:0:0:
327,224,29950,1,0,1:0:0:0:
398,287,30098,1,0,1:0:0:0:
338,121,30246,1,0,1:0:0:0:
248,281,30395,1,8,0:0:0:0:
419,196,30543,1,0,0:0:0:0:
205,57,30692,6,0,L|244:187,1,134.999995880127,2|8,1:0|0:0,0:0:0:0:
248,281,31138,1,0,1:0:0:0:
154,151,31287,1,0,0:0:0:0:
90,299,31435,1,0,1:0:0:0:
237,188,31583,1,8,0:0:0:0:
172,340,31732,1,0,0:0:0:0:
201,77,31880,6,0,P|143:90|69:101,1,134.999995880127,2|8,1:0|0:0,0:0:0:0:
237,188,32326,1,0,1:0:0:0:
329,0,32475,2,0,P|315:58|302:138,1,134.999995880127,2|8,1:0|0:0,0:0:0:0:
395,264,32920,1,0,0:0:0:0:
509,159,33069,2,0,P|452:117|388:131,1,134.999995880127,2|8,1:0|0:0,0:0:0:0:
305,237,33514,5,0,1:0:0:0:
249,375,33663,1,2,1:2:0:0:
235,295,33811,1,2,1:2:0:0:
305,237,33960,1,10,0:2:0:0:
319,317,34108,1,2,2:0:0:0:
169,346,34257,6,0,L|61:334,1,104.999996795654,2|2,1:2|0:0,0:0:0:0:
4,245,34702,2,0,L|108:233,1,104.999996795654,2|2,0:0|0:0,0:0:0:0:
170,154,35148,2,0,L|117:139,1,52.4999983978272,2|0,0:0|0:0,0:0:0:0:
0,46,35445,6,0,P|-3:75|10:102,1,52.4999983978272,2|0,1:2|0:0,0:0:0:0:
86,55,35742,2,0,L|136:40,1,52.4999983978272,2|2,0:0|0:0,0:0:0:0:
211,79,36039,2,0,L|318:98,1,104.999996795654,0|2,1:0|0:0,0:0:0:0:
401,56,36485,1,0,0:0:0:0:
326,0,36633,6,0,P|305:46|315:99,1,104.999996795654,2|2,1:2|0:0,0:0:0:0:
402,141,37079,2,0,P|423:187|413:240,1,104.999996795654,2|2,0:0|0:0,0:0:0:0:
377,328,37524,1,2,0:0:0:0:
468,313,37673,1,0,0:0:0:0:
324,246,37821,6,0,L|266:261,1,52.4999983978272,2|0,1:2|0:0,0:0:0:0:
210,322,38118,2,0,L|152:307,2,52.4999983978272,2|2|0,0:0|0:0|1:0,0:0:0:0:
100,375,38564,1,2,0:0:0:0:
66,238,38712,2,0,L|77:293,1,52.4999983978272,2|0,0:0|0:0,0:0:0:0:
132,185,39009,6,0,P|81:153|28:163,1,104.999996795654,2|2,1:2|0:0,0:0:0:0:
0,72,39455,2,0,L|107:60,1,104.999996795654,2|2,0:0|0:0,0:0:0:0:
189,44,39900,2,0,P|180:15|158:-1,1,52.4999983978272,2|0,0:0|0:0,0:0:0:0:
160,125,40197,6,0,L|146:181,1,52.4999983978272,2|0,1:2|0:0,0:0:0:0:
70,241,40494,2,0,L|57:190,1,52.4999983978272,2|2,0:0|0:0,0:0:0:0:
139,294,40791,2,0,P|114:320|43:324,1,104.999996795654,0|2,1:0|0:0,0:0:0:0:
70,241,41237,1,2,0:0:0:0:
209,368,41386,6,0,L|229:254,1,104.999996795654,2|2,1:2|0:0,0:0:0:0:
392,229,41831,1,2,0:0:0:0:
301,180,41980,2,0,L|319:283,1,104.999996795654,2|2,1:2|0:0,0:0:0:0:
512,313,42425,1,2,0:0:0:0:
422,384,42574,6,0,L|436:293,1,90,2|0,1:2|0:0,0:0:0:0:
430,116,43762,6,0,B|400:116|381:145|381:145|378:109|349:98,2,120,2|2|2,0:1|0:1|0:1,0:0:0:0:
6,69,45841,6,0,L|31:65,1,22.5
42,48,46138,6,0,B|197:77|195:77,1,150,6|8,1:0|2:0,0:0:0:0:
277,100,46584,1,0,0:0:0:0:
145,200,46732,1,0,1:0:0:0:
260,12,46881,1,0,1:0:0:0:
359,215,47029,2,0,L|283:194,1,75,8|0,2:0|0:0,0:0:0:0:
62,254,47326,6,0,P|128:296|198:279,1,150,2|8,1:0|2:0,0:0:0:0:
370,215,47772,1,0,0:0:0:0:
293,357,47920,2,0,L|277:274,1,75,0|0,1:0|1:0,0:0:0:0:
276,92,48217,1,8,2:0:0:0:
400,303,48366,1,0,0:0:0:0:
512,92,48514,6,0,L|364:122,2,150,2|8|0,1:0|2:0|1:0,0:0:0:0:
439,22,49257,1,0,1:0:0:0:
296,182,49405,2,0,P|278:143|279:106,1,75,8|0,2:0|0:0,0:0:0:0:
471,224,49702,6,0,P|445:300|430:380,1,150,2|8,1:0|2:0,0:0:0:0:
377,226,50148,1,0,0:0:0:0:
252,270,50296,1,0,1:0:0:0:
338,331,50445,1,0,1:0:0:0:
291,175,50593,1,8,2:0:0:0:
187,351,50742,1,0,0:0:0:0:
12,169,50890,6,0,L|91:185,1,75,2|0,1:0|0:0,0:0:0:0:
187,364,51188,2,0,L|108:380,1,75,8|0,2:0|0:0,0:0:0:0:
157,138,51485,2,0,P|205:199|191:280,1,150,2|8,1:0|2:0,0:0:0:0:
110,274,51930,1,0,0:0:0:0:
217,40,52079,6,0,L|64:22,1,150,2|8,1:0|2:0,0:0:0:0:
27,99,52524,1,0,0:0:0:0:
253,118,52673,2,0,L|328:102,1,75,2|0,1:0|1:0,0:0:0:0:
467,138,52970,1,8,2:0:0:0:
298,243,53118,1,0,0:0:0:0:
388,0,53267,6,0,L|410:83,1,75,2|0,1:0|0:0,0:0:0:0:
227,195,53564,2,0,L|246:122,1,75,8|0,2:0|0:0,0:0:0:0:
163,61,53861,5,2,1:0:0:0:
30,180,54009,1,0,1:0:0:0:
134,233,54158,1,8,2:0:0:0:
50,63,54306,1,0,0:0:0:0:
9,298,54455,5,2,1:0:0:0:
9,298,54752,1,10,0:1:0:0:
250,64,55346,6,0,L|239:98,1,33.7499989700318,10|0,0:1|0:0,0:0:0:0:
206,125,55643,6,0,L|227:288,2,150,6|8|0,1:0|2:0|1:0,0:0:0:0:
154,40,56386,1,0,1:0:0:0:
44,182,56534,2,0,L|122:168,1,75,8|0,2:0|0:0,0:0:0:0:
382,55,56831,6,0,P|314:15|239:42,1,150,2|8,1:0|2:0,0:0:0:0:
404,155,57277,1,0,0:0:0:0:
290,199,57425,2,0,L|300:124,1,75,0|0,1:0|1:0,0:0:0:0:
370,245,57722,1,8,2:0:0:0:
250,34,57871,1,0,0:0:0:0:
228,273,58019,6,0,L|77:291,1,150,2|8,1:0|2:0,0:0:0:0:
175,180,58465,1,0,0:0:0:0:
32,116,58613,2,0,L|51:193,1,75,0|0,1:0|1:0,0:0:0:0:
111,376,58910,1,8,2:0:0:0:
228,273,59059,1,0,0:0:0:0:
296,372,59207,6,0,L|217:359,1,75,2|0,1:0|0:0,0:0:0:0:
273,160,59504,1,8,0:0:0:0:
364,272,59653,1,0,0:0:0:0:
411,185,59801,1,0,1:0:0:0:
228,273,59950,1,0,1:0:0:0:
248,70,60098,2,0,P|283:63|322:83,1,75,8|0,2:0|0:0,0:0:0:0:
408,348,60395,5,10,0:1:0:0:
495,28,60692,1,10,0:1:0:0:
213,164,61584,5,10,0:1:0:0:
487,298,61881,1,10,0:1:0:0:
149,271,62772,5,10,0:1:0:0:
391,106,63069,1,10,0:1:0:0:
299,33,63960,5,10,0:1:0:0:
75,57,74653,6,0,P|94:109|100:148,1,89.9999972534181,2|0,0:0|0:0,0:0:0:0:
97,234,75098,1,2,0:0:0:0:
97,234,75247,1,0,0:0:0:0:
188,132,75544,1,0,0:0:0:0:
301,273,75841,6,0,B|394:251|393:251,1,89.9999972534181,2|0,0:0|0:0,0:0:0:0:
470,230,76287,1,2,0:0:0:0:
410,169,76435,2,0,P|388:207|392:262,1,89.9999972534181
476,95,77029,6,0,L|377:76,1,89.9999972534181,2|0,0:0|0:0,0:0:0:0:
323,17,77475,1,2,0:0:0:0:
323,17,77623,1,0,0:0:0:0:
173,76,77920,1,0,0:0:0:0:
68,36,78217,6,0,L|84:88,1,44.999998626709,2|0,0:0|0:0,0:0:0:0:
0,183,78514,2,0,L|13:139,1,44.999998626709,0|2,0:0|0:0,0:0:0:0:
98,168,78811,1,0,0:0:0:0:
18,371,79108,1,0,0:0:0:0:
193,374,79405,6,0,L|97:347,1,89.9999972534181,2|0,0:0|0:0,0:0:0:0:
1,283,79851,1,2,0:0:0:0:
1,283,80000,1,0,0:0:0:0:
160,256,80296,2,0,L|150:211,1,44.999998626709
75,165,80593,6,0,L|94:77,1,89.9999972534181,2|0,0:0|0:0,0:0:0:0:
35,9,81039,1,2,0:0:0:0:
14,99,81188,2,0,P|58:102|96:74,1,89.9999972534181
197,39,81782,6,0,L|289:61,1,89.9999972534181,2|0,0:0|0:0,0:0:0:0:
373,82,82227,1,2,0:0:0:0:
373,82,82376,1,0,0:0:0:0:
257,140,82673,1,0,0:0:0:0:
446,191,82970,5,2,0:0:0:0:
370,240,83267,1,0,0:0:0:0:
299,253,83564,1,0,0:0:0:0:
245,244,83861,1,0,0:0:0:0:
140,199,84158,6,0,B|97:165|6:180|10:224|38:247|69:216,1,179.999994506836,2|2,0:0|0:0,0:0:0:0:
79,119,86534,6,0,P|47:119|19:105,1,60,2|0,1:2|0:0,0:0:0:0:
54,27,86980,2,0,P|70:27|84:34,1,30,2|0,0:0|1:0,0:0:0:0:
160,119,87425,1,2,0:0:0:0:
369,38,87722,6,0,P|370:67|355:97,1,60,2|0,1:2|0:0,0:0:0:0:
284,44,88168,1,2,0:0:0:0:
284,44,88316,1,0,1:0:0:0:
433,139,88613,2,0,P|432:153|438:167,1,30,2|0,0:0|0:0,0:0:0:0:
408,372,88910,6,0,P|418:344|417:315,1,60,2|0,1:2|0:0,0:0:0:0:
329,315,89356,2,0,P|324:329|325:344,1,30,2|0,0:0|1:0,0:0:0:0:
496,274,89801,1,2,0:0:0:0:
467,38,90098,6,0,P|483:63|485:96,1,60,2|0,1:2|0:0,0:0:0:0:
397,89,90544,1,2,0:0:0:0:
397,89,90692,1,0,1:0:0:0:
484,186,90989,2,0,P|467:179|450:180,1,30,2|0,0:0|0:0,0:0:0:0:
225,180,91287,6,0,P|252:167|285:171,1,60,2|0,1:2|0:0,0:0:0:0:
282,254,91732,2,0,P|267:259|251:258,1,30,2|0,0:0|1:0,0:0:0:0:
359,207,92178,1,2,0:0:0:0:
43,294,92475,6,0,P|41:323|51:351,1,60,2|0,1:2|0:0,0:0:0:0:
125,309,92920,1,2,0:0:0:0:
125,309,93069,1,0,1:0:0:0:
74,208,93366,2,0,L|80:176,1,30,2|0,0:0|0:0,0:0:0:0:
11,102,93663,6,0,L|75:88,1,60,2|2,1:2|0:0,0:0:0:0:
158,117,94108,1,2,0:0:0:0:
158,117,94257,1,2,1:2:0:0:
244,101,94554,2,0,L|284:109,1,30,2|2,0:0|0:0,0:0:0:0:
354,128,94851,2,0,P|391:176|352:217,1,120,2|0,1:2|1:0,0:0:0:0:
281,183,95593,1,2,0:0:0:0:
491,99,95742,1,2,0:0:0:0:
491,99,96039,6,0,L|351:132,1,134.999995880127,6|8,1:0|0:0,0:0:0:0:
278,25,96485,2,0,L|347:50,1,67.4999979400635,0|0,0:0|1:0,0:0:0:0:
237,239,96782,1,0,1:0:0:0:
135,90,96930,2,0,L|202:67,1,67.4999979400635,8|0,0:0|0:0,0:0:0:0:
28,29,97227,6,0,P|43:94|56:168,1,134.999995880127,2|8,1:0|2:0,0:0:0:0:
59,355,97673,1,0,1:0:0:0:
154,172,97821,1,0,0:0:0:0:
186,384,97970,1,0,1:0:0:0:
12,263,98118,2,0,P|45:255|80:247,1,67.4999979400635,8|0,0:0|0:0,0:0:0:0:
214,251,98415,6,0,L|323:272,1,101.249996910095,2|0,1:0|0:0,0:0:0:0:
354,279,98712,1,8,2:0:0:0:
458,136,98861,1,0,0:0:0:0:
512,254,99009,1,2,1:0:0:0:
311,146,99158,1,0,1:0:0:0:
296,148,99232,1,0,0:0:0:0:
281,150,99306,1,8,2:0:0:0:
512,57,99455,1,0,0:0:0:0:
287,19,99603,6,0,L|425:50,1,134.999995880127,2|8,1:0|2:0,0:0:0:0:
215,110,100049,1,0,1:0:0:0:
291,210,100197,2,0,P|307:165|312:137,1,67.4999979400635,0|0,0:0|1:0,0:0:0:0:
99,19,100494,2,0,P|105:48|121:83,1,67.4999979400635,8|0,0:0|0:0,0:0:0:0:
364,270,100791,6,0,P|299:305|243:291,1,134.999995880127,2|8,1:0|2:0,0:0:0:0:
94,369,101237,1,0,0:0:0:0:
185,193,101386,1,0,1:0:0:0:
189,369,101534,1,0,1:0:0:0:
52,227,101683,2,0,L|34:297,1,67.4999979400635,8|0,2:0|0:0,0:0:0:0:
217,95,101980,6,0,P|158:65|91:95,1,134.999995880127,2|8,1:0|2:0,0:0:0:0:
280,175,102425,1,0,1:0:0:0:
358,38,102574,1,0,0:0:0:0:
185,193,102722,1,0,1:0:0:0:
390,226,102871,1,8,0:0:0:0:
217,95,103019,1,0,0:0:0:0:
487,19,103168,6,0,B|462:126,1,101.249996910095,2|0,1:0|0:0,0:0:0:0:
457,149,103465,1,8,2:0:0:0:
301,260,103613,1,0,0:0:0:0:
463,328,103762,1,2,1:0:0:0:
390,226,103910,1,0,1:0:0:0:
392,241,103984,1,0,0:0:0:0:
394,256,104058,1,8,2:0:0:0:
351,361,104207,1,0,0:0:0:0:
228,347,104356,5,2,1:0:0:0:
208,257,104504,1,0,1:0:0:0:
267,176,104653,1,8,0:0:0:0:
287,86,104801,1,0,1:0:0:0:
158,38,104950,5,2,1:2:0:0:
178,122,105098,1,2,1:2:0:0:
179,25,105247,1,10,0:0:0:0:
162,132,105395,1,2,0:0:0:0:
77,21,105544,6,0,L|60:90,1,67.4999979400635,0|0,1:0|0:0,0:0:0:0:
1,147,105841,2,0,L|18:212,1,67.4999979400635,2|0,1:2|0:0,0:0:0:0:
129,313,106138,1,0,1:0:0:0:
109,232,106287,1,0,0:0:0:0:
23,362,106436,2,0,L|41:294,1,67.4999979400635,2|0,1:2|0:0,0:0:0:0:
226,183,106732,5,0,1:0:0:0:
316,291,106881,1,0,0:0:0:0:
192,370,107029,1,2,1:2:0:0:
222,274,107178,1,0,0:0:0:0:
329,382,107326,6,0,L|400:369,1,67.4999979400635,0|0,1:0|0:0,0:0:0:0:
508,295,107623,2,0,L|438:282,1,67.4999979400635,2|0,1:2|0:0,0:0:0:0:
401,141,107920,6,0,L|469:124,1,67.4999979400635,0|0,1:0|0:0,0:0:0:0:
256,75,108217,2,0,L|323:91,1,67.4999979400635,2|0,1:2|0:0,0:0:0:0:
399,51,108514,1,0,1:0:0:0:
273,173,108663,1,0,0:0:0:0:
120,150,108812,2,0,L|187:134,1,67.4999979400635,2|0,1:2|0:0,0:0:0:0:
87,10,109108,5,0,1:0:0:0:
47,89,109257,1,0,0:0:0:0:
125,144,109405,1,2,1:2:0:0:
159,228,109554,1,0,0:0:0:0:
0,240,109702,6,0,L|71:220,1,67.4999979400635,0|0,1:0|0:0,0:0:0:0:
154,335,109999,2,0,L|88:319,1,67.4999979400635,2|0,1:2|0:0,0:0:0:0:
243,189,110296,6,0,L|255:259,1,67.4999979400635,0|0,1:0|0:0,0:0:0:0:
328,351,110593,2,0,L|338:282,1,67.4999979400635,2|0,1:2|0:0,0:0:0:0:
428,230,110891,1,0,1:0:0:0:
417,335,111039,1,0,0:0:0:0:
333,196,111188,2,0,L|321:129,1,67.4999979400635,2|0,1:2|0:0,0:0:0:0:
216,82,111485,5,0,1:0:0:0:
169,171,111633,1,0,0:0:0:0:
203,3,111782,1,2,1:2:0:0:
320,130,111930,1,0,0:0:0:0:
414,64,112079,2,0,L|348:45,1,67.4999979400635,0|0,1:0|0:0,0:0:0:0:
375,207,112376,5,2,1:2:0:0:
447,164,112524,1,0,0:0:0:0:
502,235,112673,2,0,L|485:308,1,67.4999979400635,0|0,1:0|0:0,0:0:0:0:
321,276,112970,5,2,1:2:0:0:
249,233,113118,1,0,0:0:0:0:
194,304,113267,2,0,L|209:377,1,67.4999979400635,0|0,1:0|0:0,0:0:0:0:
182,157,113564,5,2,1:2:0:0:
252,225,113712,1,0,0:0:0:0:
105,284,113861,1,0,1:0:0:0:
392,365,114455,6,0,L|406:286,1,78.7499975967408
437,271,115049,6,0,L|415:117,1,150,6|8,1:0|2:0,0:0:0:0:
317,24,115494,1,0,0:0:0:0:
252,218,115643,2,0,L|329:203,1,75,0|0,1:0|1:0,0:0:0:0:
213,39,115940,2,0,L|136:24,1,75,8|0,2:0|0:0,0:0:0:0:
71,197,116237,6,0,P|70:140|44:41,1,150,2|8,1:0|2:0,0:0:0:0:
166,150,116683,1,0,0:0:0:0:
19,293,116831,2,0,P|59:284|96:283,1,75,0|0,1:0|1:0,0:0:0:0:
179,143,117128,1,8,2:0:0:0:
261,324,117277,1,0,0:0:0:0:
157,380,117425,6,0,L|179:221,2,150,2|8|0,1:0|2:0|1:0,0:0:0:0:
260,232,118168,1,0,1:0:0:0:
348,356,118316,2,0,L|268:340,1,75,8|0,2:0|0:0,0:0:0:0:
333,108,118613,6,0,L|362:260,1,150,2|8,1:0|2:0,0:0:0:0:
438,161,119059,1,0,0:0:0:0:
256,53,119207,5,0,1:0:0:0:
387,26,119356,1,0,1:0:0:0:
182,0,119504,5,8,0:0:0:0:
230,147,119653,1,0,0:0:0:0:
134,229,119801,6,0,L|152:152,1,75,2|0,1:0|0:0,0:0:0:0:
27,61,120098,2,0,L|9:134,1,75,8|0,2:0|0:0,0:0:0:0:
207,275,120395,2,0,P|145:256|80:311,1,150,2|8,1:0|2:0,0:0:0:0:
160,350,120841,1,0,0:0:0:0:
297,214,120990,6,0,L|453:246,1,150,2|8,1:0|2:0,0:0:0:0:
483,336,121435,1,0,0:0:0:0:
301,377,121584,2,0,L|283:293,1,75,2|0,1:0|1:0,0:0:0:0:
346,99,121881,1,8,2:0:0:0:
441,250,122029,1,0,0:0:0:0:
512,126,122178,6,0,L|432:149,1,75,2|0,1:0|0:0,0:0:0:0:
330,0,122475,2,0,L|403:21,1,75,8|0,2:0|0:0,0:0:0:0:
256,146,122772,2,0,P|244:110|247:73,1,75,2|0,1:0|1:0,0:0:0:0:
344,201,123069,1,8,2:0:0:0:
205,6,123217,1,0,0:0:0:0:
125,225,123366,5,2,1:0:0:0:
355,101,123663,1,10,0:1:0:0:
370,96,124257,1,8,0:0:0:0:
36,1,124554,6,0,L|63:168,1,150,6|8,1:0|2:0,0:0:0:0:
143,46,124999,1,0,0:0:0:0:
54,251,125148,5,0,1:0:0:0:
233,246,125296,1,0,1:0:0:0:
129,357,125445,1,8,2:0:0:0:
202,150,125593,1,0,0:0:0:0:
299,348,125742,6,0,P|380:330|465:326,1,150,2|8,1:0|2:0,0:0:0:0:
402,225,126188,1,0,0:0:0:0:
512,121,126336,2,0,L|489:223,1,75,0|0,1:0|1:0,0:0:0:0:
297,120,126633,1,8,2:0:0:0:
440,54,126782,1,0,0:0:0:0:
247,209,126930,6,0,P|205:147|212:72,1,150,2|8,1:0|2:0,0:0:0:0:
297,120,127376,1,0,0:0:0:0:
121,21,127524,2,0,L|103:116,1,75,0|0,1:0|1:0,0:0:0:0:
8,186,127821,1,8,2:0:0:0:
15,20,127970,1,0,0:0:0:0:
115,176,128118,6,0,L|133:271,1,75,2|0,1:0|0:0,0:0:0:0:
179,364,128415,1,8,0:0:0:0:
13,266,128564,1,0,0:0:0:0:
207,237,128712,1,0,1:0:0:0:
75,379,128861,1,0,1:0:0:0:
179,364,129009,2,0,L|256:349,1,75,8|0,2:0|0:0,0:0:0:0:
455,349,129306,6,0,P|388:361|328:310,1,150,2|8,1:0|2:0,0:0:0:0:
508,267,129752,1,0,0:0:0:0:
389,192,129900,2,0,L|416:287,1,75,0|0,1:0|1:0,0:0:0:0:
222,327,130197,2,0,L|242:254,1,75,8|0,2:0|0:0,0:0:0:0:
469,131,130494,6,0,P|391:92|329:112,1,150,2|8,1:0|2:0,0:0:0:0:
154,200,130940,1,0,0:0:0:0:
244,57,131089,1,0,1:0:0:0:
238,246,131237,1,0,1:0:0:0:
152,91,131386,1,8,2:0:0:0:
325,200,131534,1,0,0:0:0:0:
115,346,131683,6,0,L|148:190,1,150,2|8,1:0|2:0,0:0:0:0:
221,140,132128,1,0,0:0:0:0:
68,19,132277,2,0,L|155:2,1,75,0|0,1:0|1:0,0:0:0:0:
225,149,132574,2,0,L|312:166,1,75,8|0,2:0|0:0,0:0:0:0:
476,108,132871,6,0,P|416:63|339:81,1,150,2|8,1:0|2:0,0:0:0:0:
320,249,133316,1,0,0:0:0:0:
395,155,133465,2,0,L|415:233,1,75,0|0,1:0|1:0,0:0:0:0:
249,353,133762,2,0,L|230:280,1,75,8|0,2:0|0:0,0:0:0:0:
489,334,134059,6,0,B|452:309|420:323|411:343|381:359|337:334,1,150,2|8,1:0|2:0,0:0:0:0:
209,180,134504,1,0,0:0:0:0:
144,299,134653,2,0,L|218:283,1,75,0|0,1:0|1:0,0:0:0:0:
283,91,134950,2,0,L|209:75,1,75,8|0,2:0|0:0,0:0:0:0:
76,166,135247,6,0,B|55:136|64:102|64:102|97:61|80:23,1,150,2|8,1:0|2:0,0:0:0:0:
0,37,135692,1,0,0:0:0:0:
167,148,135841,1,0,1:0:0:0:
0,211,135990,1,0,1:0:0:0:
207,58,136138,2,0,L|281:74,1,75,8|0,2:0|0:0,0:0:0:0:
492,80,136435,6,0,B|452:65|445:27|445:27|417:59|378:53,1,150,2|8,1:0|2:0,0:0:0:0:
339,245,136881,1,0,0:0:0:0:
283,158,137029,1,0,1:0:0:0:
447,196,137178,1,0,1:0:0:0:
253,293,137326,1,8,2:0:0:0:
423,333,137475,1,0,0:0:0:0:
279,164,137623,6,0,L|209:175,1,67.4999979400635,2|0,1:0|0:0,0:0:0:0:
185,197,137920,6,0,L|72:177,1,112.5,10|0,2:1|0:0,0:0:0:0:
29,165,138217,1,0,1:0:0:0:
147,93,138366,1,0,1:0:0:0:
25,297,138514,2,0,L|100:280,1,75,8|0,2:0|0:0,0:0:0:0:
32,77,138811,1,2,0:1:0:0:
