osu file format v14

[General]
AudioFilename: audio.mp3
AudioLeadIn: 0
PreviewTime: 113795
Countdown: 0
SampleSet: Soft
StackLeniency: 0.4
Mode: 0
LetterboxInBreaks: 0
WidescreenStoryboard: 1

[Editor]
Bookmarks: 64637,74142
DistanceSpacing: 0.9
BeatDivisor: 4
GridSize: 32
TimelineZoom: 0.8

[Metadata]
Title:Minimum
TitleUnicode:みにまむ
Artist:MIMI feat. wanko
ArtistUnicode:MIMI feat. わん子
Creator:Log Off Now
Version:Normal
Source:
Tags:japanese pop j-pop jpop はるお haluo
BeatmapID:3793684
BeatmapSetID:1846677

[Difficulty]
HPDrainRate:3
CircleSize:3
OverallDifficulty:3
ApproachRate:5
SliderMultiplier:1
SliderTickRate:1

[Events]
//Background and Video events
0,0,"FawuoLSaIAA2P_0.jpg",0,0
//Break Periods
2,64837,72942
//Storyboard Layer 0 (Background)
//Storyboard Layer 1 (Fail)
//Storyboard Layer 2 (Pass)
//Storyboard Layer 3 (Foreground)
//Storyboard Layer 4 (Overlay)
//Storyboard Sound Samples

[TimingPoints]
479,297.029702970297,4,2,1,40,1,0
23053,-100,4,2,1,40,0,0
23944,-100,4,2,1,40,0,0
24241,-100,4,2,1,60,0,0
33746,-100,4,2,1,50,0,0
42063,-100,4,2,1,40,0,0
43251,-100,4,2,1,45,0,0
45627,-100,4,2,1,70,0,1
63894,-100,4,2,1,40,0,0
94340,-100,4,2,1,40,0,0
95231,-100,4,2,1,50,0,0
95528,-100,4,2,1,60,0,0
105033,-100,4,2,1,53,0,0
113350,-100,4,2,1,40,0,0
113944,-100,4,2,1,40,0,0
114538,-100,4,2,1,70,0,1
138300,-100,4,2,1,55,0,0

[Colours]
Combo1 : 254,232,156
Combo2 : 141,231,186
Combo3 : 192,214,211
Combo4 : 217,174,147

[HitObjects]
75,228,479,6,0,L|236:258,1,150,2|2,0:0|0:0,0:0:0:0:
390,105,1667,2,0,L|229:135,1,150,2|2,0:0|0:0,0:0:0:0:
145,38,2558,1,2,0:0:0:0:
79,99,2855,6,0,L|109:260,1,150,2|2,0:0|0:0,0:0:0:0:
298,363,4043,2,0,L|328:202,1,150,2|2,0:0|0:0,0:0:0:0:
297,180,4637,1,2,0:0:0:0:
223,231,4934,1,2,0:0:0:0:
142,190,5231,6,0,P|110:148|111:89,1,100,2|0,0:0|0:0,0:0:0:0:
170,38,5825,2,0,P|214:57|276:64,1,100,2|0,0:0|0:0,0:0:0:0:
344,18,6419,1,2,0:0:0:0:
344,18,6716,1,2,0:0:0:0:
411,77,7013,1,2,0:0:0:0:
363,250,7607,6,0,P|301:232|257:219,1,100,2|2,0:0|0:0,0:0:0:0:
215,148,8201,2,0,P|186:178|182:250,1,100,2|2,0:0|0:0,0:0:0:0:
125,307,8795,2,0,P|75:314|15:323,2,100,2|2|2,0:0|0:0|0:0,0:0:0:0:
186,372,9686,1,2,0:0:0:0:
258,318,9983,6,0,P|300:297|369:313,1,100,2|2,0:0|0:0,0:0:0:0:
424,356,10578,2,0,B|469:304|469:304|441:165,1,200,2|2,0:0|0:0,0:0:0:0:
366,127,11469,1,2,0:0:0:0:
309,196,11766,1,2,0:0:0:0:
150,110,12360,5,2,0:0:0:0:
317,45,12954,1,2,0:0:0:0:
288,222,13548,1,2,0:0:0:0:
132,130,14142,2,0,P|147:192|168:276,1,150,2|0,0:0|0:0,0:0:0:0:
179,319,14736,6,0,P|133:363|94:367,1,100,2|0,0:0|0:0,0:0:0:0:
22,320,15330,2,0,P|35:255|41:221,1,100,2|2,0:0|0:0,0:0:0:0:
112,166,15924,1,2,0:0:0:0:
112,166,16221,1,2,0:0:0:0:
56,95,16518,1,2,0:0:0:0:
223,28,17112,6,0,P|268:71|367:52,1,150,2|2,0:0|0:0,0:0:0:0:
390,43,17706,2,0,P|445:64|469:95,1,100,2|2,0:0|0:0,0:0:0:0:
427,175,18300,1,2,0:0:0:0:
427,175,18597,1,2,0:0:0:0:
497,231,18894,2,0,P|484:306|478:333,1,100,2|0,0:0|0:0,0:0:0:0:
398,368,19488,6,0,P|340:309|218:339,1,200,2|2,0:0|0:0,0:0:0:0:
156,375,20379,1,2,0:0:0:0:
89,313,20677,2,0,P|54:322|-18:343,2,100,2|2|2,0:0|0:0|0:0,0:0:0:0:
212,181,21865,5,2,0:0:0:0:
45,116,22459,1,2,0:0:0:0:
201,26,23053,1,2,0:0:0:0:
111,280,23944,1,2,0:0:0:0:
111,280,24241,1,6,1:2:0:0:
259,178,24835,5,2,1:2:0:0:
207,104,25132,2,0,L|247:56,1,50,10|2,0:2|0:2,0:0:0:0:
272,35,25429,1,2,1:2:0:0:
443,97,26023,5,2,0:2:0:0:
494,170,26320,2,0,L|469:213,1,50,8|2,0:2|0:2,0:0:0:0:
443,250,26617,2,0,L|331:278,1,100,2|10,1:2|0:2,0:0:0:0:
301,284,27063,1,2,0:2:0:0:
257,295,27211,2,0,L|229:183,1,100,2|10,1:2|0:2,0:0:0:0:
290,128,27805,1,2,1:2:0:0:
128,33,28399,5,2,1:2:0:0:
65,97,28696,2,0,L|96:151,1,50,10|2,0:2|0:2,0:0:0:0:
113,178,28993,1,2,1:2:0:0:
271,262,29587,5,2,1:2:0:0:
341,206,29884,2,0,L|316:162,1,50,10|2,0:2|0:2,0:0:0:0:
294,122,30181,1,2,1:2:0:0:
439,15,30776,5,2,0:2:0:0:
499,81,31073,2,0,L|467:135,1,50,10|2,0:2|0:2,0:0:0:0:
448,161,31370,2,0,L|472:258,1,100,2|10,1:2|0:2,0:0:0:0:
484,301,31815,1,2,0:2:0:0:
495,344,31964,2,0,L|383:372,1,100,2|10,1:2|0:2,0:0:0:0:
327,312,32558,1,2,1:2:0:0:
164,384,33152,6,0,L|152:323,1,50,2|2,1:2|1:2,0:0:0:0:
186,302,33449,2,0,L|198:241,1,50,10|2,0:0|0:0,0:0:0:0:
177,211,33746,2,0,P|131:182|67:186,1,100,6|2,1:2|0:2,0:2:0:0:
5,140,34340,2,0,P|-7:86|10:35,1,100,2|2,1:2|0:2,0:0:0:0:
89,8,34934,1,2,1:2:0:0:
89,8,35231,1,2,0:2:0:0:
151,72,35528,1,2,1:2:0:0:
317,4,36122,6,0,P|309:48|298:111,1,100,2|2,1:2|0:2,0:2:0:0:
281,190,36716,2,0,P|235:227|196:232,1,100,2|2,1:2|0:2,0:0:0:0:
111,202,37310,2,0,L|95:146,2,50,2|2|2,1:2|0:2|0:2,0:0:0:0:
53,271,37904,1,2,1:2:0:0:
79,357,38201,1,2,0:2:0:0:
163,325,38498,6,0,L|277:348,1,100,2|2,1:2|0:2,0:2:0:0:
331,288,39092,1,2,1:2:0:0:
331,288,39389,1,2,0:2:0:0:
284,210,39686,2,0,P|249:219|185:173,2,100,2|2|2,1:2|0:2|1:2,0:2:0:0:
343,142,40578,1,2,0:2:0:0:
343,142,40875,5,2,1:2:0:0:
430,299,41469,1,2,1:2:0:0:
252,272,42063,1,2,1:2:0:0:
343,142,43251,5,2,0:0:0:0:
430,299,43845,1,2,0:0:0:0:
252,272,44439,1,2,0:0:0:0:
462,102,45330,1,2,0:0:0:0:
392,45,45627,6,0,L|289:69,1,100,6|8,1:2|0:2,0:2:0:0:
270,106,46073,1,2,0:2:0:0:
270,106,46221,1,2,1:2:0:0:
199,50,46518,1,10,0:2:0:0:
132,110,46815,2,0,P|142:162|152:214,1,100,2|10,1:2|0:2,0:2:0:0:
175,294,47409,2,0,P|133:335|77:332,1,100,2|10,1:2|0:2,0:2:0:0:
6,317,48003,6,0,B|38:200|38:200|22:100,1,200,2|2,1:2|1:2,0:2:0:0:
19,77,48746,1,2,1:2:0:0:
19,77,48894,1,10,0:2:0:0:
107,62,49191,2,0,P|144:89|217:79,1,100,2|10,1:2|0:2,0:0:0:0:
281,119,49785,2,0,P|309:107|337:107,1,50,2|2,1:2|1:2,0:0:0:0:
362,134,50082,2,0,P|391:146|419:146,1,50,10|2,0:2|0:2,0:0:0:0:
450,128,50379,6,0,P|460:64|468:13,2,100,2|10|2,1:2|0:2|1:2,0:2:0:0:
508,197,51271,2,0,P|503:228|500:249,1,50,8|2,0:0|0:0,0:0:0:0:
494,291,51568,2,0,P|457:318|401:304,1,100,2|10,1:2|0:0,0:0:0:0:
329,261,52162,2,0,P|292:234|236:248,1,100,2|10,0:0|0:0,0:0:0:0:
215,280,52607,1,2,0:0:0:0:
215,280,52756,2,0,P|203:229|165:72,1,200,2|2,1:2|1:2,0:0:0:0:
103,22,53647,1,10,0:0:0:0:
34,79,53944,5,10,1:2:0:0:
70,161,54241,1,10,1:2:0:0:
14,332,54835,5,10,0:2:0:0:
88,382,55132,2,0,P|158:370|298:345,1,200,6|2,1:2|1:2,0:2:0:0:
313,312,55875,1,2,1:2:0:0:
313,312,56023,1,10,0:2:0:0:
398,339,56320,2,0,P|414:275|428:223,1,100,2|10,1:2|0:2,0:2:0:0:
463,219,56766,1,2,0:2:0:0:
463,219,56914,1,2,1:2:0:0:
427,136,57211,1,10,0:0:0:0:
339,155,57508,6,0,L|219:132,1,100,2|10,1:2|0:2,0:0:0:0:
186,64,58102,1,2,1:2:0:0:
113,118,58399,2,0,L|127:181,1,50,10|2,0:0|0:0,0:0:0:0:
161,191,58696,2,0,L|125:350,1,150,2|2,1:2|1:2,0:0:0:0:
152,375,59290,2,0,P|189:381|241:349,1,100,2|10,1:2|0:2,0:0:0:0:
296,279,59884,5,2,1:2:0:0:
373,324,60181,1,8,0:0:0:0:
277,71,61073,5,2,1:2:0:0:
354,116,61370,1,8,0:0:0:0:
120,252,62261,5,2,1:2:0:0:
197,297,62558,1,8,0:0:0:0:
27,86,63449,5,10,0:0:0:0:
206,67,64043,6,0,L|271:58,2,50,0|2|2,0:0|0:0|0:0,0:0:0:0:
160,144,64637,1,2,0:0:0:0:
30,256,74142,6,0,P|82:306|163:286,1,150,6|0,0:0|0:0,0:0:0:0:
222,177,75033,1,0,0:0:0:0:
281,244,75330,2,0,P|329:253|435:278,1,150,2|0,0:0|0:0,0:0:0:0:
503,164,76221,1,0,0:0:0:0:
449,91,76518,2,0,P|413:65|345:60,1,100,2|0,0:0|0:0,0:0:0:0:
293,118,77112,2,0,L|320:232,1,100,2|0,0:0|0:0,0:0:0:0:
293,254,77558,1,0,0:0:0:0:
156,85,78894,6,0,P|84:73|32:123,1,150,2|0,0:0|0:0,0:0:0:0:
103,238,79785,1,0,0:0:0:0:
56,315,80082,2,0,P|117:330|216:358,1,150,2|0,0:0|0:0,0:0:0:0:
283,246,80974,1,0,0:0:0:0:
332,321,81271,2,0,P|363:343|428:345,1,100,2|0,0:0|0:0,0:0:0:0:
485,280,81865,2,0,P|471:227|462:178,1,100,2|0,0:0|0:0,0:0:0:0:
485,144,82310,1,0,0:0:0:0:
351,26,83647,5,2,0:0:0:0:
265,224,84835,5,0,0:0:0:0:
115,100,86023,6,0,L|273:69,1,150,2|0,1:2|0:0,0:0:0:0:
307,66,86617,2,0,P|337:112|325:168,1,100,2|0,1:2|0:0,0:0:0:0:
285,232,87211,1,2,1:2:0:0:
285,232,87508,1,0,0:0:0:0:
220,169,87805,1,2,1:2:0:0:
67,264,88399,6,0,P|72:320|198:349,1,200,2|2,1:2|1:2,0:0:0:0:
268,302,89290,1,0,0:0:0:0:
337,358,89587,2,0,P|384:366|448:373,1,100,2|0,1:2|0:0,0:0:0:0:
498,307,90181,1,2,1:2:0:0:
356,195,90776,6,0,P|327:151|396:29,1,200,2|2,1:2|1:2,0:0:0:0:
472,5,91667,1,0,0:0:0:0:
504,88,91964,2,0,P|494:153|487:206,1,100,2|0,1:2|0:0,0:0:0:0:
507,233,92409,1,0,0:0:0:0:
507,233,92558,2,0,P|497:298|490:351,1,100,2|0,1:2|0:0,0:0:0:0:
413,375,93152,5,2,1:2:0:0:
326,218,93746,1,2,1:2:0:0:
200,347,94340,1,2,1:2:0:0:
453,255,95231,1,0,0:0:0:0:
391,189,95528,1,6,1:2:0:0:
247,297,96122,5,2,1:2:0:0:
173,245,96419,2,0,L|119:282,1,50,10|2,0:0|0:0,0:0:0:0:
96,301,96716,1,2,1:2:0:0:
41,130,97310,5,2,0:0:0:0:
102,64,97607,2,0,L|141:98,1,50,10|2,0:0|0:0,0:0:0:0:
172,128,97904,2,0,P|212:150|278:121,1,100,2|10,1:2|0:0,0:0:0:0:
292,104,98350,1,2,0:0:0:0:
292,104,98498,2,0,P|332:82|398:111,1,100,2|10,1:2|0:0,0:0:0:0:
438,165,99092,1,2,1:2:0:0:
357,205,99389,2,0,L|396:372,1,150,10|0,0:0|1:0,0:0:0:0:
428,376,99983,1,10,0:0:0:0:
499,321,100280,1,2,1:2:0:0:
433,153,100875,5,2,1:2:0:0:
362,96,101172,2,0,L|308:133,1,50,10|2,0:0|0:0,0:0:0:0:
283,148,101469,1,2,1:2:0:0:
220,316,102063,5,2,0:0:0:0:
144,266,102360,2,0,L|75:291,1,50,10|2,0:0|0:0,0:0:0:0:
54,297,102657,2,0,P|39:243|23:189,1,100,2|10,1:2|0:0,0:0:0:0:
6,113,103251,2,0,P|39:76|103:85,1,100,2|10,1:2|0:0,0:0:0:0:
156,141,103845,1,2,1:2:0:0:
156,141,104142,1,10,0:0:0:0:
139,229,104439,2,0,P|196:240|243:251,1,100,2|10,1:2|0:0,0:0:0:0:
312,201,105033,6,0,P|299:138|288:90,2,100,2|2|2,1:2|1:2|1:2,0:0:0:0:
387,252,105924,1,2,1:2:0:0:
343,330,106221,2,0,P|288:344|241:362,1,100,2|2,1:2|1:2,0:0:0:0:
159,375,106815,2,0,P|140:333|151:276,1,100,2|2,1:2|1:2,0:0:0:0:
209,215,107409,5,2,1:2:0:0:
209,215,107706,1,2,1:2:0:0:
185,128,108003,2,0,P|144:98|91:95,1,100,2|2,1:2|1:2,0:0:0:0:
25,149,108597,2,0,P|36:200|44:250,1,100,2|2,1:2|1:2,0:0:0:0:
16,333,109191,1,2,1:2:0:0:
195,314,109785,6,0,P|249:331|308:357,1,100,2|2,1:2|1:2,0:0:0:0:
377,363,110379,2,0,P|431:346|454:289,1,100,2|2,1:2|1:2,0:0:0:0:
387,240,110974,2,0,P|330:233|286:260,2,100,2|2|2,1:2|1:2|1:2,0:0:0:0:
459,186,111865,1,2,1:2:0:0:
389,128,112162,2,0,P|375:85|359:24,1,100,2|2,1:2|1:2,0:0:0:0:
324,5,112607,1,2,0:0:0:0:
324,5,112756,2,0,P|269:8|235:34,1,100,2|2,1:2|1:2,0:0:0:0:
184,109,113350,6,0,P|201:169|225:263,1,150,2|0,1:2|0:0,0:0:0:0:
197,291,113944,1,2,0:0:0:0:
23,244,114538,6,0,P|36:194|48:137,1,100,6|8,1:2|0:0,0:0:0:0:
25,113,114983,1,2,0:2:0:0:
25,113,115132,1,2,1:2:0:0:
91,52,115429,1,10,0:2:0:0:
160,109,115726,2,0,P|206:133|263:119,1,100,2|10,1:2|0:2,0:2:0:0:
284,94,116172,1,2,0:2:0:0:
284,94,116320,1,2,1:2:0:0:
362,137,116617,1,10,0:2:0:0:
303,205,116914,6,0,B|253:292|253:292|318:396,1,200,2|2,1:2|1:2,0:2:0:0:
384,333,117805,1,10,0:2:0:0:
469,362,118102,2,0,P|478:311|488:255,1,100,2|10,1:2|0:2,0:0:0:0:
435,189,118696,2,0,L|372:206,1,50,2|2,1:2|1:2,0:0:0:0:
355,235,118993,2,0,L|292:217,1,50,10|2,0:2|0:2,0:0:0:0:
263,208,119290,6,0,L|238:93,1,100,2|10,1:2|0:2,0:2:0:0:
181,54,119884,1,2,1:2:0:0:
106,104,120181,2,0,P|101:135|98:156,1,50,8|2,0:0|0:0,0:0:0:0:
69,188,120478,2,0,L|90:285,1,100,2|10,1:2|0:0,0:0:0:0:
156,347,121073,2,0,P|211:358|264:373,1,100,2|10,0:0|0:0,0:0:0:0:
290,344,121518,1,2,0:0:0:0:
290,344,121667,6,0,B|296:294|345:245|345:245|326:202|260:186,1,200,2|2,1:2|1:2,0:0:0:0:
212,250,122558,1,10,0:0:0:0:
155,180,122855,5,10,1:2:0:0:
202,103,123152,1,10,1:2:0:0:
46,13,123746,5,10,0:2:0:0:
77,97,124043,2,0,P|65:167|40:307,1,200,6|2,1:2|1:2,0:2:0:0:
105,357,124934,1,10,0:2:0:0:
183,313,125231,2,0,P|227:290|290:307,1,100,2|10,1:2|0:2,0:2:0:0:
305,337,125677,1,2,0:2:0:0:
305,337,125825,1,2,1:2:0:0:
374,279,126122,1,10,0:0:0:0:
340,195,126419,6,0,L|317:75,1,100,2|10,1:2|0:2,0:2:0:0:
391,41,127013,1,2,1:2:0:0:
469,85,127310,2,0,L|455:148,1,50,10|2,0:0|0:0,0:0:0:0:
436,173,127607,2,0,L|472:332,1,150,2|2,1:2|0:2,0:0:0:0:
442,356,128201,2,0,P|405:362|353:330,1,100,2|10,1:2|0:0,0:0:0:0:
285,271,128795,6,0,P|216:296|143:325,1,150,2|2,1:2|0:0,0:0:0:0:
107,298,129389,1,2,1:2:0:0:
142,215,129686,1,10,0:0:0:0:
75,154,129983,1,2,1:2:0:0:
132,33,130429,1,2,0:0:0:0:
132,33,130578,6,0,P|201:47|232:54,1,100,2|8,1:2|0:0,0:0:0:0:
296,114,131172,2,0,P|323:68|312:13,2,100,2|8|0,1:2|0:0|1:0,0:0:0:0:
218,160,132063,1,10,0:2:0:0:
279,225,132360,6,0,P|291:277|304:340,1,100,2|10,1:2|0:0,0:0:0:0:
369,380,132954,2,0,P|423:375|451:342,1,100,2|10,1:2|0:0,0:0:0:0:
489,260,133548,1,2,1:2:0:0:
313,309,134142,6,0,P|297:247|283:204,1,100,2|10,1:2|0:0,0:0:0:0:
249,186,134587,1,2,0:0:0:0:
249,186,134736,1,2,1:2:0:0:
369,52,135330,6,0,P|307:68|264:82,1,100,2|10,1:2|0:0,0:0:0:0:
242,54,135776,1,2,0:0:0:0:
242,54,135924,1,2,1:2:0:0:
163,199,136518,6,0,P|148:152|136:102,1,100,2|10,1:2|0:0,0:0:0:0:
104,79,136964,1,2,0:0:0:0:
104,79,137112,1,2,1:2:0:0:
235,48,137558,6,0,L|245:0,2,50,2|2|2,0:0|1:2|1:2,0:0:0:0:
260,85,138003,2,0,P|308:74|358:67,1,100,10|2,0:0|0:0,0:0:0:0:
