osu file format v14

[General]
AudioFilename: audio.mp3
AudioLeadIn: 0
PreviewTime: 66372
Countdown: 0
SampleSet: Soft
StackLeniency: 0.2
Mode: 2
LetterboxInBreaks: 0
WidescreenStoryboard: 1

[Editor]
DistanceSpacing: 2.8
BeatDivisor: 4
GridSize: 32
TimelineZoom: 2.1

[Metadata]
Title:Ai no Sukima (Cut Ver.)
TitleUnicode:哀の隙間 (Cut Ver.)
Artist:MIMI feat. umu.
ArtistUnicode:MIMI feat. umu.
Creator:Mniam
Version:Sorrow
Source:
Tags:初音ミク Hatsune Miku 佐藤主税 sorrow's gap vocaloid japanese female vocalist pop ゆーむ
BeatmapID:2530119
BeatmapSetID:1215878

[Difficulty]
HPDrainRate:7
CircleSize:4.2
OverallDifficulty:9.2
ApproachRate:9.2
SliderMultiplier:1.8
SliderTickRate:1

[Events]
//Background and Video events
0,0,"bg.jpg",0,0
//Break Periods
//Storyboard Layer 0 (Background)
//Storyboard Layer 1 (Fail)
//Storyboard Layer 2 (Pass)
//Storyboard Layer 3 (Foreground)
//Storyboard Layer 4 (Overlay)
//Storyboard Sound Samples

[TimingPoints]
1078,294.117647058824,4,2,2,27,1,0
10489,-100,4,2,2,57,0,0
29313,-100,4,2,2,37,0,0
38725,-100,4,2,2,47,0,0
48136,-100,4,2,2,67,0,1
66372,-100,4,2,2,57,0,0
66592,-100,4,2,2,5,0,0
66666,-100,4,2,2,57,0,0
66960,-100,4,2,2,77,0,1
85783,-100,4,2,2,57,0,0
95195,-100,4,2,2,27,0,0

[Colours]
Combo1 : 217,123,174
Combo2 : 84,86,148

[HitObjects]
216,256,1078,6,0,L|301:224,1,90,2|0,0:0|0:0,0:0:0:0:
379,183,1372,1,0,0:0:0:0:
131,224,1666,6,0,L|46:192,1,90,2|0,0:0|0:0,0:0:0:0:
131,224,1960,2,0,L|216:256,1,90,2|0,0:0|0:0,0:0:0:0:
359,250,2254,2,0,P|386:197|296:198,1,180,2|0,0:0|0:0,0:0:0:0:
92,211,2842,6,0,L|7:179,1,90,2|0,0:0|0:0,0:0:0:0:
92,211,3136,2,0,L|177:243,1,90,2|0,0:0|0:0,0:0:0:0:
339,189,3430,2,0,P|418:199|367:262,1,180,2|0,0:0|0:0,0:0:0:0:
140,315,4019,6,0,L|55:283,1,90,2|0,0:0|0:0,0:0:0:0:
115,276,4313,1,0,0:0:0:0:
465,304,4607,6,0,L|380:272,1,90,2|0,0:0|0:0,0:0:0:0:
466,266,4901,1,2,0:0:0:0:
27,272,5195,1,2,0:0:0:0:
292,255,5783,6,0,L|207:223,1,90,2|0,0:0|0:0,0:0:0:0:
124,180,6077,1,0,0:0:0:0:
376,223,6372,6,0,L|291:255,1,90,2|0,0:0|0:0,0:0:0:0:
376,223,6666,2,0,L|291:255,1,90,2|0,0:0|0:0,0:0:0:0:
463,219,6960,2,0,P|497:170|408:157,1,180,2|0,0:0|0:0,0:0:0:0:
207,223,7548,6,0,L|292:255,1,90,2|0,0:0|0:0,0:0:0:0:
207,223,7842,2,0,L|292:255,1,90,2|0,0:0|0:0,0:0:0:0:
118,218,8136,2,0,P|41:215|66:287,1,180,2|0,0:0|0:0,0:0:0:0:
340,314,8725,6,0,L|450:273,1,90,2|0,0:0|0:0,0:0:0:0:
372,264,9019,1,0,0:0:0:0:
19,302,9313,6,0,L|129:261,1,90,2|0,0:0|0:0,0:0:0:0:
51,252,9607,1,2,0:0:0:0:
461,279,9901,1,2,0:0:0:0:
386,262,10489,6,0,L|283:262,1,90,6|0,0:0|0:0,0:0:0:0:
465,261,10783,2,0,L|465:153,1,90,8|0,0:0|0:0,0:0:0:0:
211,158,11078,1,2,0:0:0:0:
346,157,11225,1,0,0:0:0:0:
217,158,11372,1,10,0:0:0:0:
339,158,11519,1,0,0:0:0:0:
90,82,11666,6,0,L|90:190,1,90,2|0,0:0|0:0,0:0:0:0:
259,81,11960,2,0,L|169:81,1,90,8|0,0:0|0:0,0:0:0:0:
345,158,12254,1,2,0:0:0:0:
210,157,12401,1,0,0:0:0:0:
339,158,12548,1,10,0:0:0:0:
217,158,12695,1,0,0:0:0:0:
466,82,12842,6,0,L|466:190,1,90,2|0,0:0|0:0,0:0:0:0:
297,81,13136,2,0,L|387:81,1,90,8|0,0:0|0:0,0:0:0:0:
106,158,13430,1,2,0:0:0:0:
247,159,13578,1,0,0:0:0:0:
139,159,13725,2,0,L|139:252,1,90,8|0,0:0|0:0,0:0:0:0:
388,158,14019,5,2,0:0:0:0:
247,159,14167,1,0,0:0:0:0:
355,159,14313,2,0,L|355:252,1,90,8|0,0:0|0:0,0:0:0:0:
139,339,14607,2,0,L|139:237,1,90,2|0,0:0|0:0,0:0:0:0:
231,248,14901,1,8,0:0:0:0:
323,247,15048,1,0,0:0:0:0:
75,247,15195,6,0,L|165:248,1,90,2|0,0:0|0:0,0:0:0:0:
2,251,15489,2,0,L|2:154,1,90,8|0,0:0|0:0,0:0:0:0:
217,155,15783,1,2,0:0:0:0:
92,155,15930,1,0,0:0:0:0:
217,155,16078,1,10,0:0:0:0:
343,155,16225,1,0,0:0:0:0:
2,71,16372,6,0,L|2:179,1,90,2|0,0:0|0:0,0:0:0:0:
164,72,16666,2,0,L|71:72,1,90,8|0,0:0|0:0,0:0:0:0:
218,155,16960,1,2,0:0:0:0:
343,155,17107,1,0,0:0:0:0:
218,155,17255,1,10,0:0:0:0:
92,155,17402,1,0,0:0:0:0:
510,71,17548,6,0,L|510:179,1,90,2|0,0:0|0:0,0:0:0:0:
348,72,17843,2,0,L|441:72,1,90,8|0,0:0|0:0,0:0:0:0:
120,70,18136,1,2,0:0:0:0:
234,71,18283,1,0,0:0:0:0:
348,72,18430,2,0,L|348:174,1,90,8|0,0:0|0:0,0:0:0:0:
91,115,18725,5,2,0:0:0:0:
216,116,18872,1,0,0:0:0:0:
91,115,19019,2,0,L|91:217,1,90,8|0,0:0|0:0,0:0:0:0:
216,116,19313,2,0,L|216:218,1,90,2|0,0:0|0:0,0:0:0:0:
121,274,19607,1,8,0:0:0:0:
2,271,19754,1,0,0:0:0:0:
353,246,19901,6,0,L|450:246,1,90,2|0,0:0|0:0,0:0:0:0:
271,155,20195,2,0,L|271:245,1,90,8|0,0:0|0:0,0:0:0:0:
441,161,20489,1,2,0:0:0:0:
302,155,20636,1,0,0:0:0:0:
441,161,20783,1,10,0:0:0:0:
476,160,20930,1,0,0:0:0:0:
233,159,21078,6,0,L|138:159,1,90,2|0,0:0|0:0,0:0:0:0:
305,159,21372,2,0,L|305:62,1,90,8|0,0:0|0:0,0:0:0:0:
129,228,21666,1,2,0:0:0:0:
276,227,21813,1,0,0:0:0:0:
129,228,21960,1,10,0:0:0:0:
94,227,22107,1,0,0:0:0:0:
315,226,22255,6,0,L|410:226,1,90,2|0,0:0|0:0,0:0:0:0:
247,226,22549,2,0,L|247:129,1,90,8|0,0:0|0:0,0:0:0:0:
460,139,22842,1,2,0:0:0:0:
329,142,22990,1,0,0:0:0:0:
460,139,23137,2,0,L|460:232,1,90,8|0,0:0|0:0,0:0:0:0:
151,159,23431,5,2,0:0:0:0:
292,160,23579,1,0,0:0:0:0:
184,160,23725,2,0,L|184:253,1,90,8|0,0:0|0:0,0:0:0:0:
400,250,24019,2,0,L|400:148,1,90,2|0,0:0|0:0,0:0:0:0:
308,159,24313,1,8,0:0:0:0:
216,158,24460,1,0,0:0:0:0:
439,155,24607,6,0,L|342:155,1,90,2|0,0:0|0:0,0:0:0:0:
512,69,24901,2,0,L|512:159,1,90,8|0,0:0|0:0,0:0:0:0:
308,126,25195,2,0,L|398:126,1,90,2|0,0:0|0:0,0:0:0:0:
242,104,25489,2,0,L|332:104,1,90,10|0,0:0|0:0,0:0:0:0:
96,156,25783,6,0,L|2:156,1,90,2|0,0:0|0:0,0:0:0:0:
174,70,26078,2,0,L|174:160,1,90,8|0,0:0|0:0,0:0:0:0:
349,155,26372,2,0,L|259:155,1,90,2|0,0:0|0:0,0:0:0:0:
409,127,26666,2,0,L|319:127,1,90,10|0,0:0|0:0,0:0:0:0:
104,155,26960,6,0,L|198:155,1,90,2|0,0:0|0:0,0:0:0:0:
31,69,27254,2,0,L|31:159,1,90,8|0,0:0|0:0,0:0:0:0:
292,96,27548,1,2,0:0:0:0:
178,97,27695,1,0,0:0:0:0:
64,98,27842,2,0,L|64:200,1,90,8|0,0:0|0:0,0:0:0:0:
321,141,28137,5,2,0:0:0:0:
182,142,28284,1,0,0:0:0:0:
321,141,28431,2,0,L|321:243,1,90,8|0,0:0|0:0,0:0:0:0:
182,142,28725,2,0,L|182:244,1,90,2|0,0:0|0:0,0:0:0:0:
48,284,29019,1,8,0:0:0:0:
328,270,29313,6,2,L|502:224,2,180,2|0|2,0:0|0:0|0:0,0:0:0:0:
153,224,30195,1,0,0:0:0:0:
232,223,30342,1,0,0:0:0:0:
153,224,30489,6,2,L|332:271,2,180,2|0|2,0:0|0:0|0:0,0:0:0:0:
282,192,31372,1,0,0:0:0:0:
407,158,31666,6,2,P|466:216|405:234,1,180,2|0,0:0|0:0,0:0:0:0:
255,191,32254,1,2,0:0:0:0:
407,158,32548,1,0,0:0:0:0:
329,158,32695,1,0,0:0:0:0:
407,158,32842,6,2,P|466:216|405:234,1,180,2|0,0:0|0:0,0:0:0:0:
228,156,33430,1,2,0:0:0:0:
392,247,33725,1,0,0:0:0:0:
319,154,33872,1,0,0:0:0:0:
392,247,34019,6,2,L|213:200,2,180,2|0|2,0:0|0:0|0:0,0:0:0:0:
184,244,34901,1,0,0:0:0:0:
254,155,35048,1,0,0:0:0:0:
184,244,35195,6,2,L|363:197,2,180,2|0|2,0:0|0:0|0:0,0:0:0:0:
327,193,36078,1,0,0:0:0:0:
86,163,36372,6,0,L|77:252,1,90,2|0,0:0|0:0,0:0:0:0:
257,88,36666,2,0,L|257:178,1,90
427,163,36960,2,0,P|479:219|425:289,1,180,2|0,0:0|0:0,0:0:0:0:
171,223,37548,6,0,L|269:217,1,90,2|0,0:0|0:0,0:0:0:0:
151,224,37891,1,0,0:0:0:0:
440,217,38725,6,0,L|249:217,1,180,10|0,0:0|0:0,0:0:0:0:
406,215,39166,2,0,P|471:187|406:141,1,180,2|0,0:0|0:0,0:0:0:0:
260,217,39607,1,2,0:0:0:0:
406,215,39754,1,0,0:0:0:0:
187,220,39901,6,0,L|7:220,1,180,10|0,0:0|0:0,0:0:0:0:
165,219,40342,2,0,L|345:219,1,180,2|0,0:0|0:0,0:0:0:0:
187,220,40783,2,0,L|187:122,1,90,2|0,0:0|0:0,0:0:0:0:
406,145,41078,6,0,P|468:185|403:221,1,180,10|0,0:0|0:0,0:0:0:0:
240,223,41519,2,0,P|177:263|243:298,1,180,2|0,0:0|0:0,0:0:0:0:
400,220,41960,1,2,0:0:0:0:
242,298,42107,1,0,0:0:0:0:
449,146,42254,6,0,P|511:186|446:222,1,180,10|0,0:0|0:0,0:0:0:0:
275,179,42695,2,0,L|70:180,1,180,2|0,0:0|0:0,0:0:0:0:
246,179,43136,1,2,0:0:0:0:
95,179,43283,1,0,0:0:0:0:
369,175,43430,6,0,P|448:179|435:101,1,180,10|0,0:0|0:0,0:0:0:0:
270,182,43872,2,0,P|191:186|204:108,1,180,10|0,0:0|0:0,0:0:0:0:
249,106,44239,1,0,0:0:0:0:
288,105,44313,1,2,0:0:0:0:
413,106,44460,1,0,0:0:0:0:
133,106,44607,6,0,P|70:144|136:175,1,180,10|0,0:0|0:0,0:0:0:0:
292,175,45048,2,0,P|225:142|289:105,1,180,2|0,0:0|0:0,0:0:0:0:
136,174,45489,2,0,L|24:174,1,90,2|0,0:0|0:0,0:0:0:0:
410,170,45783,6,0,L|522:170,1,90,10|0,0:0|0:0,0:0:0:0:
320,170,46078,2,0,L|432:170,1,90,0|2,0:0|0:0,0:0:0:0:
230,170,46372,2,0,L|320:170,1,90,8|0,0:0|0:0,0:0:0:0:
102,170,46666,2,0,L|12:170,1,90,2|0,0:0|0:0,0:0:0:0:
228,274,46960,5,10,0:0:0:0:
264,130,47107,1,0,0:0:0:0:
112,126,47254,1,8,0:0:0:0:
228,274,47401,1,2,0:0:0:0:
89,126,47548,1,8,0:0:0:0:
58,125,47695,1,0,0:0:0:0:
292,133,47842,1,10,0:0:0:0:
58,117,47989,1,0,0:0:0:0:
381,129,48136,6,0,L|387:37,1,90,6|0,0:0|0:0,0:0:0:0:
229,131,48430,1,10,0:0:0:0:
395,215,48578,2,0,L|504:215,1,90,2|0,0:0|0:0,0:0:0:0:
325,215,48872,1,0,0:0:0:0:
485,215,49019,1,10,0:0:0:0:
325,215,49166,1,0,0:0:0:0:
87,216,49313,6,0,L|87:107,1,90,2|0,0:0|0:0,0:0:0:0:
246,215,49607,1,10,0:0:0:0:
87,216,49754,2,0,L|196:216,1,90,2|0,0:0|0:0,0:0:0:0:
344,214,50048,1,0,0:0:0:0:
207,216,50195,1,10,0:0:0:0:
70,218,50342,1,0,0:0:0:0:
407,211,50489,6,0,L|484:163,1,90,2|0,0:0|0:0,0:0:0:0:
251,215,50783,2,0,L|328:263,1,90,10|0,0:0|0:0,0:0:0:0:
94,219,51078,2,0,L|17:267,1,90,2|0,0:0|0:0,0:0:0:0:
251,215,51372,2,0,L|328:167,1,90,10|0,0:0|0:0,0:0:0:0:
22,102,51666,5,2,0:0:0:0:
163,103,51813,1,0,0:0:0:0:
22,102,51960,1,10,0:0:0:0:
233,102,52107,2,0,P|296:109|232:115,1,180,2|0,0:0|0:0,0:0:0:0:
361,109,52548,2,0,L|456:109,1,90,10|0,0:0|0:0,0:0:0:0:
163,103,52842,6,0,L|163:203,1,90,2|0,0:0|0:0,0:0:0:0:
327,105,53136,1,10,0:0:0:0:
163,103,53283,2,0,L|60:103,1,90,2|0,0:0|0:0,0:0:0:0:
237,105,53578,1,0,0:0:0:0:
73,103,53725,1,10,0:0:0:0:
237,105,53872,1,0,0:0:0:0:
458,110,54019,6,0,L|458:217,1,90,2|0,0:0|0:0,0:0:0:0:
289,200,54313,1,10,0:0:0:0:
458,200,54460,2,0,L|362:200,1,90,2|0,0:0|0:0,0:0:0:0:
209,200,54754,1,0,0:0:0:0:
62,200,54901,1,10,0:0:0:0:
209,200,55048,1,0,0:0:0:0:
458,200,55195,6,0,L|381:248,1,90,2|0,0:0|0:0,0:0:0:0:
144,200,55489,2,0,L|67:248,1,90,10|0,0:0|0:0,0:0:0:0:
381,247,55783,2,0,L|458:199,1,90,2|0,0:0|0:0,0:0:0:0:
209,200,56078,2,0,L|286:152,1,90,10|0,0:0|0:0,0:0:0:0:
29,110,56372,6,0,L|29:202,1,90,2|0,0:0|0:0,0:0:0:0:
209,110,56666,2,0,L|209:202,1,90,10|0,0:0|0:0,0:0:0:0:
29,110,56960,2,0,L|216:110,1,180,0|10,0:0|0:0,0:0:0:0:
111,111,57401,1,0,0:0:0:0:
334,110,57548,6,0,L|334:218,1,90,2|0,0:0|0:0,0:0:0:0:
170,110,57842,1,10,0:0:0:0:
334,110,57989,2,0,L|435:110,1,90,2|0,0:0|0:0,0:0:0:0:
260,110,58283,2,0,L|160:110,1,90,0|10,0:0|0:0,0:0:0:0:
334,110,58578,1,0,0:0:0:0:
29,107,58725,5,2,0:0:0:0:
170,110,58872,1,0,0:0:0:0:
29,107,59019,1,10,0:0:0:0:
260,110,59166,2,0,P|333:115|316:199,1,180,2|0,0:0|0:0,0:0:0:0:
170,110,59607,1,10,0:0:0:0:
318,200,59754,1,0,0:0:0:0:
54,200,59901,6,0,L|131:248,1,90,2|0,0:0|0:0,0:0:0:0:
426,201,60195,2,0,L|349:249,1,90,10|0,0:0|0:0,0:0:0:0:
131,248,60489,2,0,L|54:200,1,90,2|0,0:0|0:0,0:0:0:0:
349,249,60783,2,0,L|426:201,1,90,10|0,0:0|0:0,0:0:0:0:
131,248,61078,6,0,L|131:353,1,90,2|0,0:0|0:0,0:0:0:0:
280,248,61372,1,10,0:0:0:0:
122,248,61519,2,0,P|59:292|122:353,1,180,2|0,0:0|0:0,0:0:0:0:
280,248,61960,2,0,L|376:248,1,90,10|0,0:0|0:0,0:0:0:0:
89,55,62254,6,0,L|89:164,1,90,2|0,0:0|0:0,0:0:0:0:
240,54,62548,1,10,0:0:0:0:
89,55,62695,2,0,L|-8:55,1,90,2|0,0:0|0:0,0:0:0:0:
164,56,62989,1,0,0:0:0:0:
314,56,63136,2,0,L|404:56,1,90,10|0,0:0|0:0,0:0:0:0:
164,328,63430,6,0,L|164:219,1,90,2|0,0:0|0:0,0:0:0:0:
315,329,63724,1,10,0:0:0:0:
164,328,63871,2,0,L|67:328,1,90,2|0,0:0|0:0,0:0:0:0:
239,327,64165,1,0,0:0:0:0:
74,328,64313,2,0,L|74:223,1,90,10|0,0:0|0:0,0:0:0:0:
356,220,64607,5,2,0:0:0:0:
495,218,64754,1,0,0:0:0:0:
249,219,64901,1,10,0:0:0:0:
388,217,65048,1,0,0:0:0:0:
156,164,65195,1,2,0:0:0:0:
17,166,65342,1,0,0:0:0:0:
263,165,65489,1,10,0:0:0:0:
124,167,65636,1,0,0:0:0:0:
388,217,65783,6,0,L|388:115,1,90,2|0,0:0|0:0,0:0:0:0:
242,161,66078,2,0,L|242:251,1,90,10|0,0:0|0:0,0:0:0:0:
371,255,66372,6,0,L|510:255,1,135,10|0,0:0|0:0,0:0:0:0:
267,253,66666,2,0,L|162:252,1,90,10|0,0:0|0:0,0:0:0:0:
388,217,66960,6,0,L|388:120,1,90,6|0,0:0|0:0,0:0:0:0:
156,164,67254,1,8,0:0:0:0:
298,127,67401,2,0,L|393:127,1,90,2|0,0:0|0:0,0:0:0:0:
156,164,67695,1,0,0:0:0:0:
298,127,67842,1,10,0:0:0:0:
67,126,67989,1,0,0:0:0:0:
298,127,68136,6,0,L|390:127,1,90,2|0,0:0|0:0,0:0:0:0:
156,128,68430,1,10,0:0:0:0:
467,127,68578,2,0,L|467:37,1,90,2|0,0:0|0:0,0:0:0:0:
258,36,68872,1,0,0:0:0:0:
388,37,69019,2,0,L|388:127,1,90,10|0,0:0|0:0,0:0:0:0:
79,34,69313,5,2,0:0:0:0:
214,34,69460,1,0,0:0:0:0:
7,35,69607,1,10,0:0:0:0:
142,35,69754,1,0,0:0:0:0:
349,34,69901,1,2,0:0:0:0:
214,34,70048,1,0,0:0:0:0:
419,35,70195,1,10,0:0:0:0:
284,35,70342,1,0,0:0:0:0:
497,35,70489,6,0,B|497:131|497:131|405:131,1,180,2|10,0:0|0:0,0:0:0:0:
245,101,70930,2,0,L|245:191,1,90,2|0,0:0|0:0,0:0:0:0:
413,131,71225,2,0,L|413:232,1,90,0|10,0:0|0:0,0:0:0:0:
324,223,71519,1,0,0:0:0:0:
90,223,71666,6,0,L|180:223,1,90,2|0,0:0|0:0,0:0:0:0:
413,221,71960,1,10,0:0:0:0:
90,223,72107,2,0,L|90:125,1,90,2|0,0:0|0:0,0:0:0:0:
239,133,72401,1,0,0:0:0:0:
90,133,72548,1,10,0:0:0:0:
327,133,72695,1,0,0:0:0:0:
90,133,72842,6,0,L|0:133,1,90,2|0,0:0|0:0,0:0:0:0:
239,133,73136,1,10,0:0:0:0:
90,133,73283,2,0,L|89:43,1,90,2|0,0:0|0:0,0:0:0:0:
321,45,73578,1,0,0:0:0:0:
166,133,73725,2,0,L|165:43,1,90,10|0,0:0|0:0,0:0:0:0:
465,159,74019,5,2,0:0:0:0:
336,160,74166,1,0,0:0:0:0:
0,163,74313,1,10,0:0:0:0:
129,162,74460,1,0,0:0:0:0:
353,162,74607,1,2,0:0:0:0:
482,161,74754,1,0,0:0:0:0:
148,163,74901,1,10,0:0:0:0:
19,164,75048,1,0,0:0:0:0:
263,162,75195,6,0,L|369:162,1,90,2|0,0:0|0:0,0:0:0:0:
208,122,75489,2,0,L|314:122,1,90,10|0,0:0|0:0,0:0:0:0:
452,165,75783,2,0,L|452:270,1,90,2|0,0:0|0:0,0:0:0:0:
302,257,76078,1,10,0:0:0:0:
452,255,76225,1,0,0:0:0:0:
161,256,76372,6,0,L|67:256,1,90,2|0,0:0|0:0,0:0:0:0:
302,257,76666,1,10,0:0:0:0:
161,256,76813,2,0,L|161:151,1,90,2|0,0:0|0:0,0:0:0:0:
302,257,77107,1,0,0:0:0:0:
137,254,77254,1,10,0:0:0:0:
396,260,77401,1,2,0:0:0:0:
137,254,77548,6,0,L|43:254,1,90,2|0,0:0|0:0,0:0:0:0:
302,257,77842,1,10,0:0:0:0:
34,253,77989,2,0,L|34:147,1,90,2|0,0:0|0:0,0:0:0:0:
269,169,78283,1,0,0:0:0:0:
137,254,78430,2,0,L|137:155,1,90,10|0,0:0|0:0,0:0:0:0:
465,159,78725,5,2,0:0:0:0:
336,160,78872,1,0,0:0:0:0:
0,163,79019,1,10,0:0:0:0:
129,162,79166,1,0,0:0:0:0:
353,162,79313,1,2,0:0:0:0:
482,161,79460,1,0,0:0:0:0:
148,163,79607,1,10,0:0:0:0:
19,164,79754,1,0,0:0:0:0:
259,77,79901,6,0,L|355:77,1,90,2|0,0:0|0:0,0:0:0:0:
187,76,80195,1,10,0:0:0:0:
349,77,80342,2,0,L|348:174,1,90,2|0,0:0|0:0,0:0:0:0:
187,76,80636,2,0,L|187:187,1,90,0|10,0:0|0:0,0:0:0:0:
348,166,80930,1,0,0:0:0:0:
97,166,81078,6,0,L|201:166,1,90,2|0,0:0|0:0,0:0:0:0:
420,166,81372,1,10,0:0:0:0:
97,166,81519,2,0,L|97:270,1,90,2|0,0:0|0:0,0:0:0:0:
249,256,81813,1,0,0:0:0:0:
7,256,81960,2,0,L|108:256,1,90,10|0,0:0|0:0,0:0:0:0:
415,166,82254,6,0,L|311:166,1,90,2|0,0:0|0:0,0:0:0:0:
117,165,82548,1,10,0:0:0:0:
415,166,82695,2,0,L|415:270,1,90,2|0,0:0|0:0,0:0:0:0:
263,256,82989,1,0,0:0:0:0:
505,256,83136,2,0,L|404:256,1,90,10|0,0:0|0:0,0:0:0:0:
39,119,83429,5,2,0:0:0:0:
275,122,83578,1,0,0:0:0:0:
61,119,83724,1,10,0:0:0:0:
179,121,83873,1,0,0:0:0:0:
473,119,84018,5,2,0:0:0:0:
237,122,84167,1,0,0:0:0:0:
451,119,84313,1,10,0:0:0:0:
333,121,84460,1,0,0:0:0:0:
83,132,84607,6,0,P|18:171|84:185,1,180,2|10,0:0|0:0,0:0:0:0:
341,121,85048,2,0,B|436:137|436:137|276:155|276:155|383:191,1,360,2|0,0:0|0:0,0:0:0:0:
105,189,85783,5,6,0:0:0:0:
245,190,85930,1,0,0:0:0:0:
105,189,86078,2,0,L|203:189,1,90,8|0,0:0|0:0,0:0:0:0:
460,191,86372,2,0,L|359:191,1,90,2|0,0:0|0:0,0:0:0:0:
224,192,86666,2,0,L|325:192,1,90,10|0,0:0|0:0,0:0:0:0:
28,193,86960,6,0,L|28:98,1,90,2|0,0:0|0:0,0:0:0:0:
198,99,87254,2,0,L|94:99,1,90,8|0,0:0|0:0,0:0:0:0:
373,192,87548,2,0,L|463:192,1,90,2|0,0:0|0:0,0:0:0:0:
314,192,87842,2,0,L|224:192,1,90,10|0,0:0|0:0,0:0:0:0:
477,192,88136,6,0,L|477:97,1,90,2|0,0:0|0:0,0:0:0:0:
327,103,88430,2,0,L|223:103,1,90,8|0,0:0|0:0,0:0:0:0:
477,192,88725,1,2,0:0:0:0:
267,191,88872,1,0,0:0:0:0:
404,192,89019,2,0,L|306:192,1,90,8|0,0:0|0:0,0:0:0:0:
111,191,89313,5,2,0:0:0:0:
314,192,89460,1,0,0:0:0:0:
177,191,89608,2,0,L|275:191,1,90,8|0,0:0|0:0,0:0:0:0:
22,192,89901,2,0,L|23:100,1,90,10|0,0:0|0:0,0:0:0:0:
201,191,90195,2,0,L|202:99,1,90,8|0,0:0|0:0,0:0:0:0:
460,193,90489,5,2,0:0:0:0:
321,192,90636,1,0,0:0:0:0:
460,193,90784,2,0,L|362:193,1,90,8|0,0:0|0:0,0:0:0:0:
121,191,91078,2,0,L|18:191,1,90,2|0,0:0|0:0,0:0:0:0:
201,191,91372,2,0,L|98:191,1,90,10|0,0:0|0:0,0:0:0:0:
331,191,91666,6,0,L|331:97,1,90,2|0,0:0|0:0,0:0:0:0:
497,101,91960,2,0,L|407:101,1,90,8|0,0:0|0:0,0:0:0:0:
156,100,92254,2,0,L|259:100,1,90,2|0,0:0|0:0,0:0:0:0:
76,100,92548,2,0,L|179:100,1,90,10|0,0:0|0:0,0:0:0:0:
407,191,92842,6,0,L|407:97,1,90,2|0,0:0|0:0,0:0:0:0:
241,101,93136,2,0,L|331:101,1,90,8|0,0:0|0:0,0:0:0:0:
76,100,93430,1,2,0:0:0:0:
286,100,93578,1,0,0:0:0:0:
166,100,93725,2,0,L|76:100,1,90,8|0,0:0|0:0,0:0:0:0:
376,219,94019,5,2,0:0:0:0:
166,219,94167,1,0,0:0:0:0:
286,219,94314,2,0,L|376:219,1,90,8|0,0:0|0:0,0:0:0:0:
130,99,94607,2,0,L|40:99,1,90,10|0,0:0|0:0,0:0:0:0:
376,129,94901,2,0,L|376:225,1,90,8|0,0:0|0:0,0:0:0:0:
200,246,95195,6,0,L|286:218,2,90,2|0|0,0:0|0:0|0:0,0:0:0:0:
447,251,95783,2,0,L|369:306,1,90,2|0,0:0|0:0,0:0:0:0:
285,218,96078,2,0,L|207:273,1,90,2|0,0:0|0:0,0:0:0:0:
368,309,96372,6,0,P|433:292|368:291,1,180,2|0,0:0|0:0,0:0:0:0:
118,254,96960,2,0,L|196:309,1,90,2|0,0:0|0:0,0:0:0:0:
271,221,97255,2,0,L|349:276,1,90,2|0,0:0|0:0,0:0:0:0:
188,312,97549,6,0,P|123:295|188:294,1,180,2|0,0:0|0:0,0:0:0:0:
380,134,98136,1,2,0:0:0:0:
462,124,98283,1,0,0:0:0:0:
490,44,98430,1,0,0:0:0:0:
227,217,98725,5,2,0:0:0:0:
131,205,98872,1,0,0:0:0:0:
99,112,99019,1,2,0:0:0:0:
491,112,99313,1,2,0:0:0:0:
330,250,99901,6,0,L|244:222,2,90,2|0|0,0:0|0:0|0:0,0:0:0:0:
139,305,100489,2,0,L|66:254,1,90,2|0,0:0|0:0,0:0:0:0:
155,313,100784,2,0,L|82:262,1,90,2|0,0:0|0:0,0:0:0:0:
242,336,101078,6,0,P|307:319|242:318,1,180,2|0,0:0|0:0,0:0:0:0:
409,308,101666,2,0,L|482:257,1,90,2|0,0:0|0:0,0:0:0:0:
393,316,101960,2,0,L|466:265,1,90,2|0,0:0|0:0,0:0:0:0:
306,339,102255,6,0,P|241:322|306:321,1,180,2|0,0:0|0:0,0:0:0:0:
132,134,102842,1,2,0:0:0:0:
116,58,102989,1,0,0:0:0:0:
33,51,103136,1,0,0:0:0:0:
274,195,103430,5,2,0:0:0:0:
285,140,103577,1,0,0:0:0:0:
345,135,103724,1,2,0:0:0:0:
132,134,104019,1,2,0:0:0:0:
