osu file format v14

[General]
AudioFilename: audio.mp3
AudioLeadIn: 0
PreviewTime: 66372
Countdown: 0
SampleSet: Soft
StackLeniency: 0.2
Mode: 2
LetterboxInBreaks: 0
WidescreenStoryboard: 1

[Editor]
DistanceSpacing: 2.7
BeatDivisor: 4
GridSize: 16
TimelineZoom: 2.5

[Metadata]
Title:Ai no Sukima (Cut Ver.)
TitleUnicode:哀の隙間 (Cut Ver.)
Artist:MIMI feat. umu.
ArtistUnicode:MIMI feat. umu.
Creator:Mniam
Version:Salad
Source:
Tags:初音ミク Hatsune Miku 佐藤主税 sorrow's gap vocaloid japanese female vocalist pop ゆーむ
BeatmapID:2530118
BeatmapSetID:1215878

[Difficulty]
HPDrainRate:4
CircleSize:3
OverallDifficulty:7
ApproachRate:7
SliderMultiplier:1.2
SliderTickRate:1

[Events]
//Background and Video events
0,0,"bg.jpg",0,0
//Break Periods
//Storyboard Layer 0 (Background)
//Storyboard Layer 1 (Fail)
//Storyboard Layer 2 (Pass)
//Storyboard Layer 3 (Foreground)
//Storyboard Layer 4 (Overlay)
//Storyboard Sound Samples

[TimingPoints]
1078,294.117647058824,4,2,2,27,1,0
10489,-100,4,2,2,57,0,0
29313,-100,4,2,2,37,0,0
38725,-100,4,2,2,47,0,0
48136,-100,4,2,2,67,0,1
66372,-100,4,2,2,57,0,0
66960,-100,4,2,2,77,0,1
85783,-100,4,2,2,57,0,0
95195,-100,4,2,2,27,0,0

[Colours]
Combo1 : 217,123,174
Combo2 : 84,86,148

[HitObjects]
182,119,1078,5,2,0:0:0:0:
442,117,1666,2,0,L|452:241,1,120,2|2,0:0|0:0,0:0:0:0:
339,295,2254,6,0,P|248:289|198:162,1,240,2|2,0:0|0:0,0:0:0:0:
329,152,3136,1,2,0:0:0:0:
203,90,3430,6,0,P|113:127|203:157,1,240,2|2,0:0|0:0,0:0:0:0:
333,115,4313,1,0,0:0:0:0:
456,222,4607,6,0,L|328:222,1,120,2|2,0:0|0:0,0:0:0:0:
198,276,5195,1,2,0:0:0:0:
434,280,5783,5,2,0:0:0:0:
254,325,6372,2,0,L|244:203,1,120,2|2,0:0|0:0,0:0:0:0:
144,99,6960,6,0,P|62:136|25:273,1,240,2|2,0:0|0:0,0:0:0:0:
144,316,7842,1,2,0:0:0:0:
268,311,8136,2,0,P|348:288|266:215,1,240,2|2,0:0|0:0,0:0:0:0:
127,245,9019,1,0,0:0:0:0:
249,235,9313,6,0,L|385:226,1,120,2|2,0:0|0:0,0:0:0:0:
485,148,9901,1,2,0:0:0:0:
256,149,10489,5,6,0:0:0:0:
321,150,10636,1,0,0:0:0:0:
386,151,10783,1,8,0:0:0:0:
484,244,11078,2,0,L|350:247,1,120,2|10,0:0|0:0,0:0:0:0:
289,248,11519,1,0,0:0:0:0:
124,253,11666,6,0,L|46:160,1,120,2|8,0:0|0:0,0:0:0:0:
138,143,12107,2,0,L|164:4,1,120
233,31,12548,1,10,0:0:0:0:
419,281,12842,6,0,L|406:223,1,60,2|0,0:0|0:0,0:0:0:0:
347,178,13136,1,8,0:0:0:0:
207,83,13430,2,0,P|187:133|199:207,1,120,2|8,0:0|0:0,0:0:0:0:
272,201,13872,1,0,0:0:0:0:
444,194,14019,6,0,P|482:144|442:113,1,120,2|8,0:0|0:0,0:0:0:0:
286,107,14607,1,2,0:0:0:0:
80,103,15195,5,2,0:0:0:0:
141,105,15342,1,0,0:0:0:0:
207,105,15489,1,8,0:0:0:0:
363,106,15783,2,0,P|402:130|356:174,1,120,2|10,0:0|0:0,0:0:0:0:
286,180,16225,1,0,0:0:0:0:
96,162,16372,6,0,B|14:259,1,120,2|8,0:0|0:0,0:0:0:0:
86,286,16813,2,0,B|162:194,1,120
96,162,17254,1,10,0:0:0:0:
201,229,17548,5,2,0:0:0:0:
262,231,17695,1,0,0:0:0:0:
328,231,17842,1,8,0:0:0:0:
465,226,18136,2,0,L|346:230,1,120,2|8,0:0|0:0,0:0:0:0:
262,231,18578,1,0,0:0:0:0:
101,262,18725,6,0,B|49:229|49:229|97:195,1,120,2|8,0:0|0:0,0:0:0:0:
256,177,19313,1,2,0:0:0:0:
94,177,19607,1,0,0:0:0:0:
256,177,19901,5,2,0:0:0:0:
326,178,20048,1,0,0:0:0:0:
256,177,20195,1,8,0:0:0:0:
137,258,20489,2,0,L|256:259,1,120,2|10,0:0|0:0,0:0:0:0:
327,259,20930,1,0,0:0:0:0:
181,222,21078,6,0,P|141:268|189:299,1,120,2|8,0:0|0:0,0:0:0:0:
248,340,21519,2,0,L|114:343,1,120,0|0,0:0|0:0,0:0:0:0:
42,341,21960,1,10,0:0:0:0:
120,220,22254,5,2,0:0:0:0:
181,222,22401,1,0,0:0:0:0:
247,222,22548,1,8,0:0:0:0:
355,291,22842,2,0,L|480:287,1,120,2|8,0:0|0:0,0:0:0:0:
407,225,23283,1,0,0:0:0:0:
239,232,23430,6,0,L|114:228,1,120,2|8,0:0|0:0,0:0:0:0:
294,176,24019,1,2,0:0:0:0:
7,120,24607,5,2,0:0:0:0:
68,122,24754,1,0,0:0:0:0:
134,122,24901,1,8,0:0:0:0:
296,87,25195,2,0,B|355:109|355:109|298:128,1,120,2|10,0:0|0:0,0:0:0:0:
219,113,25636,1,0,0:0:0:0:
68,122,25783,6,0,P|28:159|63:200,1,120,2|8,0:0|0:0,0:0:0:0:
132,200,26225,2,0,L|251:198,1,120
190,200,26666,1,10,0:0:0:0:
34,198,26960,5,2,0:0:0:0:
95,200,27107,1,0,0:0:0:0:
161,200,27254,1,8,0:0:0:0:
339,177,27548,2,0,L|461:171,1,120,2|8,0:0|0:0,0:0:0:0:
396,137,27989,1,0,0:0:0:0:
232,146,28136,6,0,P|199:183|248:222,1,120,2|8,0:0|0:0,0:0:0:0:
404,216,28725,1,2,0:0:0:0:
129,323,29313,6,2,L|9:302,1,120,2|0,0:0|0:0,0:0:0:0:
160,284,29901,1,2,0:0:0:0:
371,233,30489,2,2,L|491:212,1,120,2|0,0:0|0:0,0:0:0:0:
203,202,31077,1,2,0:0:0:0:
45,79,31666,6,2,L|168:72,1,120,2|0,0:0|0:0,0:0:0:0:
328,63,32254,1,2,0:0:0:0:
107,226,32842,2,2,L|230:219,1,120,2|0,0:0|0:0,0:0:0:0:
390,210,33430,1,2,0:0:0:0:
153,205,34019,6,2,P|108:220|158:255,1,120,2|0,0:0|0:0,0:0:0:0:
267,238,34607,1,2,0:0:0:0:
434,95,35195,2,2,P|479:110|429:145,1,120,2|0,0:0|0:0,0:0:0:0:
173,130,35783,1,2,0:0:0:0:
369,293,36372,6,0,L|246:283,1,120,2|0,0:0|0:0,0:0:0:0:
361,268,36960,2,0,L|484:258,1,120,2|0,0:0|0:0,0:0:0:0:
224,223,37548,1,2,0:0:0:0:
202,165,37695,1,0,0:0:0:0:
171,92,37891,1,0,0:0:0:0:
49,226,38725,6,0,P|0:165|114:111,1,240,10|0,0:0|0:0,0:0:0:0:
238,259,39607,1,2,0:0:0:0:
174,263,39754,1,0,0:0:0:0:
127,308,39901,6,0,L|311:302,1,180,10|2,0:0|0:0,0:0:0:0:
107,231,40783,1,2,0:0:0:0:
403,144,41078,6,0,P|488:161|403:226,1,240,10|0,0:0|0:0,0:0:0:0:
268,195,41960,1,2,0:0:0:0:
404,194,42254,6,0,L|216:197,1,180,10|2,0:0|0:0,0:0:0:0:
406,268,43136,2,0,L|428:201,1,60,2|0,0:0|0:0,0:0:0:0:
357,275,43430,5,10,0:0:0:0:
73,283,44019,2,0,P|37:233|78:200,1,120,0|2,0:0|0:0,0:0:0:0:
149,242,44460,1,0,0:0:0:0:
223,288,44607,6,0,L|366:289,1,120,10|0,0:0|0:0,0:0:0:0:
95,244,45489,1,2,0:0:0:0:
337,156,45783,6,0,L|470:151,1,120,10|0,0:0|0:0,0:0:0:0:
351,190,46372,2,0,L|484:185,1,120,8|2,0:0|0:0,0:0:0:0:
201,197,46960,6,0,L|79:202,2,120,10|8|8,0:0|0:0|0:0,0:0:0:0:
67,299,47842,2,0,L|62:359,1,60,10|0,0:0|0:0,0:0:0:0:
196,328,48136,6,0,P|232:281|194:236,1,120,6|10,0:0|0:0,0:0:0:0:
109,231,48578,2,0,P|73:184|111:139,1,120,2|0,0:0|0:0,0:0:0:0:
193,136,49019,1,10,0:0:0:0:
436,236,49313,6,0,P|472:189|433:155,1,120,2|10,0:0|0:0,0:0:0:0:
373,199,49754,2,0,L|492:202,1,120,2|0,0:0|0:0,0:0:0:0:
431,200,50195,1,10,0:0:0:0:
153,201,50489,6,0,L|68:201,2,60,2|0|10,0:0|0:0|0:0,0:0:0:0:
305,200,51078,2,0,L|390:200,2,60,2|0|10,0:0|0:0|0:0,0:0:0:0:
67,206,51666,5,2,0:0:0:0:
17,206,51813,1,0,0:0:0:0:
53,166,51960,1,10,0:0:0:0:
115,162,52107,2,0,L|206:253,1,120,2|0,0:0|0:0,0:0:0:0:
131,265,52548,1,10,0:0:0:0:
402,285,52842,6,0,P|441:256|401:211,1,120,2|10,0:0|0:0,0:0:0:0:
319,246,53283,2,0,L|193:246,1,120,2|0,0:0|0:0,0:0:0:0:
112,247,53725,1,10,0:0:0:0:
418,268,54019,6,0,P|416:206|350:180,1,120,2|10,0:0|0:0,0:0:0:0:
279,176,54460,2,0,P|231:208|231:265,1,120,2|0,0:0|0:0,0:0:0:0:
304,300,54901,1,10,0:0:0:0:
70,300,55195,5,2,0:0:0:0:
141,299,55342,1,0,0:0:0:0:
212,298,55489,1,8,0:0:0:0:
346,174,55783,6,0,L|431:174,2,60,2|0|10,0:0|0:0|0:0,0:0:0:0:
70,312,56372,6,0,P|26:274|72:251,1,120,2|10,0:0|0:0,0:0:0:0:
138,247,56813,1,0,0:0:0:0:
214,248,56960,1,0,0:0:0:0:
62,248,57254,1,10,0:0:0:0:
347,181,57548,6,0,P|391:219|345:242,1,120,2|10,0:0|0:0,0:0:0:0:
261,259,57989,2,0,L|393:272,1,120,2|0,0:0|0:0,0:0:0:0:
305,306,58430,1,10,0:0:0:0:
62,248,58725,6,0,L|-23:237,2,60,2|0|10,0:0|0:0|0:0,0:0:0:0:
143,249,59166,2,0,P|185:213|137:188,1,120,2|0,0:0|0:0,0:0:0:0:
58,158,59607,1,10,0:0:0:0:
316,153,59901,6,0,L|392:151,2,60,2|0|10,0:0|0:0|0:0,0:0:0:0:
162,152,60489,2,0,L|86:150,2,60,2|0|10,0:0|0:0|0:0,0:0:0:0:
468,178,61078,6,0,P|491:115|459:109,1,120,2|10,0:0|0:0,0:0:0:0:
359,151,61519,1,2,0:0:0:0:
154,156,61960,1,10,0:0:0:0:
461,108,62254,6,0,P|505:142|465:176,1,120,2|10,0:0|0:0,0:0:0:0:
385,175,62695,2,0,P|341:209|381:243,1,120,2|0,0:0|0:0,0:0:0:0:
302,241,63136,1,10,0:0:0:0:
47,242,63430,6,0,L|27:118,1,120,2|10,0:0|0:0,0:0:0:0:
119,92,63872,2,0,L|257:84,1,120,2|0,0:0|0:0,0:0:0:0:
331,78,64313,1,10,0:0:0:0:
44,191,64607,5,2,0:0:0:0:
116,190,64754,1,0,0:0:0:0:
187,189,64901,1,10,0:0:0:0:
315,246,65195,1,2,0:0:0:0:
386,247,65342,1,0,0:0:0:0:
458,248,65489,1,10,0:0:0:0:
199,240,65783,5,2,0:0:0:0:
128,241,65930,1,0,0:0:0:0:
56,242,66077,1,10,0:0:0:0:
166,253,66372,2,0,P|130:193|144:144,1,120,10|10,0:0|0:0,0:0:0:0:
434,224,66960,6,0,P|478:192|438:150,1,120,6|8,0:0|0:0,0:0:0:0:
342,149,67401,2,0,P|298:117|338:75,1,120,2|0,0:0|0:0,0:0:0:0:
423,72,67842,1,10,0:0:0:0:
168,110,68136,6,0,L|305:127,1,120,2|10,0:0|0:0,0:0:0:0:
389,89,68578,2,0,L|252:106,1,120,2|0,0:0|0:0,0:0:0:0:
168,274,69019,1,10,0:0:0:0:
453,285,69313,6,0,L|514:289,2,60,2|0|10,0:0|0:0|0:0,0:0:0:0:
159,274,69901,2,0,L|98:278,2,60,2|0|10,0:0|0:0|0:0,0:0:0:0:
416,222,70489,6,0,L|487:116,1,120,2|10,0:0|0:0,0:0:0:0:
373,82,70930,2,0,L|302:188,1,120,2|0,0:0|0:0,0:0:0:0:
388,61,71372,1,10,0:0:0:0:
123,76,71666,6,0,P|74:88|48:162,1,120,2|10,0:0|0:0,0:0:0:0:
145,165,72107,2,0,P|177:212|139:252,1,120,2|0,0:0|0:0,0:0:0:0:
51,254,72548,1,10,0:0:0:0:
319,248,72842,6,0,L|444:243,1,120,2|10,0:0|0:0,0:0:0:0:
357,209,73283,2,0,L|232:204,1,120,2|0,0:0|0:0,0:0:0:0:
136,195,73725,1,10,0:0:0:0:
399,177,74019,6,0,L|416:113,1,60,2|0,0:0|0:0,0:0:0:0:
340,44,74313,1,10,0:0:0:0:
80,272,74607,6,0,L|63:208,1,60,2|0,0:0|0:0,0:0:0:0:
139,139,74901,1,10,0:0:0:0:
399,177,75195,6,0,P|434:125|389:105,1,120,2|10,0:0|0:0,0:0:0:0:
272,106,75783,1,2,0:0:0:0:
128,106,76078,1,10,0:0:0:0:
406,72,76372,6,0,P|460:60|488:109,1,120,2|10,0:0|0:0,0:0:0:0:
389,120,76813,2,0,P|338:154|357:207,1,120,2|0,0:0|0:0,0:0:0:0:
438,234,77254,2,0,L|497:226,1,60,10|2,0:0|0:0,0:0:0:0:
351,202,77548,6,0,P|300:236|319:289,1,120,2|10,0:0|0:0,0:0:0:0:
461,242,77989,1,2,0:0:0:0:
318,245,78430,1,10,0:0:0:0:
33,259,78725,5,2,0:0:0:0:
95,261,78872,1,0,0:0:0:0:
157,263,79019,1,10,0:0:0:0:
402,258,79313,5,2,0:0:0:0:
340,260,79460,1,0,0:0:0:0:
278,262,79607,1,10,0:0:0:0:
80,269,79901,6,0,L|199:215,1,120,2|10,0:0|0:0,0:0:0:0:
145,193,80342,1,2,0:0:0:0:
355,92,80783,1,10,0:0:0:0:
459,288,81078,6,0,P|484:241|441:188,1,120,2|10,0:0|0:0,0:0:0:0:
341,185,81519,2,0,L|205:194,1,120,2|0,0:0|0:0,0:0:0:0:
119,200,81960,1,10,0:0:0:0:
358,265,82254,6,0,L|487:251,1,120,2|10,0:0|0:0,0:0:0:0:
389,236,82695,2,0,L|260:222,1,120,2|0,0:0|0:0,0:0:0:0:
353,193,83136,1,10,0:0:0:0:
100,169,83430,6,0,L|23:173,2,60,2|0|10,0:0|0:0|0:0,0:0:0:0:
362,164,84019,2,0,L|439:168,2,60,2|0|10,0:0|0:0|0:0,0:0:0:0:
115,151,84607,6,0,L|88:275,1,120,2|10,0:0|0:0,0:0:0:0:
187,304,85048,2,0,B|308:307|308:307|377:322|418:254|378:198|322:211,1,300,2|6,0:0|0:0,0:0:0:0:
195,214,86078,1,8,0:0:0:0:
357,214,86372,2,0,L|365:147,1,60,2|0,0:0|0:0,0:0:0:0:
289,87,86666,1,10,0:0:0:0:
24,80,86960,6,0,L|116:181,1,120,2|8,0:0|0:0,0:0:0:0:
266,208,87548,2,0,L|274:275,1,60,2|0,0:0|0:0,0:0:0:0:
198,335,87842,1,10,0:0:0:0:
362,338,88136,6,0,P|431:312|441:261,1,120,2|8,0:0|0:0,0:0:0:0:
284,228,88725,1,2,0:0:0:0:
444,231,89019,1,8,0:0:0:0:
274,227,89313,6,0,L|137:222,1,120,2|8,0:0|0:0,0:0:0:0:
229,181,89754,1,0,0:0:0:0:
313,179,89901,2,0,P|353:132|316:110,1,120,10|8,0:0|0:0,0:0:0:0:
59,189,90489,6,0,P|25:236|58:285,1,120,2|8,0:0|0:0,0:0:0:0:
206,284,91078,2,0,L|287:278,2,60,2|0|10,0:0|0:0|0:0,0:0:0:0:
59,292,91666,6,0,L|196:304,1,120,2|8,0:0|0:0,0:0:0:0:
356,335,92254,1,2,0:0:0:0:
196,332,92548,1,10,0:0:0:0:
472,337,92842,6,0,P|502:279|465:267,1,120,2|8,0:0|0:0,0:0:0:0:
385,265,93283,1,0,0:0:0:0:
303,264,93430,2,0,P|273:206|310:194,1,120,2|8,0:0|0:0,0:0:0:0:
62,202,94019,6,0,L|190:199,1,120,2|8,0:0|0:0,0:0:0:0:
327,203,94607,2,0,L|199:200,1,120,10|8,0:0|0:0,0:0:0:0:
314,192,95195,5,2,0:0:0:0:
192,197,95489,1,0,0:0:0:0:
33,272,95783,2,0,B|94:209|144:269|197:318|253:273,1,240,2|2,0:0|0:0,0:0:0:0:
408,130,96666,1,0,0:0:0:0:
243,84,96960,6,0,P|72:97|40:149,1,240,2|2,0:0|0:0,0:0:0:0:
188,148,97842,1,0,0:0:0:0:
326,148,98136,1,2,0:0:0:0:
347,148,98283,1,0,0:0:0:0:
326,148,98430,1,0,0:0:0:0:
188,148,98725,5,2,0:0:0:0:
167,148,98872,1,0,0:0:0:0:
188,148,99019,1,2,0:0:0:0:
437,147,99313,1,2,0:0:0:0:
52,257,99901,6,0,L|174:261,1,120,2|0,0:0|0:0,0:0:0:0:
326,249,100489,2,0,P|404:222|327:137,1,240,2|2,0:0|0:0,0:0:0:0:
490,257,101372,1,0,0:0:0:0:
326,249,101666,6,0,P|248:222|325:137,1,240,2|2,0:0|0:0,0:0:0:0:
473,145,102548,1,0,0:0:0:0:
316,157,102842,2,0,L|282:95,1,60,2|0,0:0|0:0,0:0:0:0:
258,157,103136,1,0,0:0:0:0:
100,157,103430,6,0,L|134:95,1,60,2|0,0:0|0:0,0:0:0:0:
158,157,103724,1,2,0:0:0:0:
339,158,104019,1,2,0:0:0:0:
