osu file format v14

[General]
AudioFilename: audio.mp3
AudioLeadIn: 0
PreviewTime: 37778
Countdown: 0
SampleSet: Soft
StackLeniency: 0.7
Mode: 0
LetterboxInBreaks: 0
WidescreenStoryboard: 1

[Editor]
Bookmarks: 22207,32642,37859,58729,69164,79598,84816,105685,115468
DistanceSpacing: 1
BeatDivisor: 4
GridSize: 8
TimelineZoom: 1.9

[Metadata]
Title:Escape
TitleUnicode:えすけーぷ
Artist:MIMI feat. SEKAI
ArtistUnicode:MIMI feat. 星界
Creator:Kokoro Natsume
Version:pnky's Normal
Source:
Tags:CeVIO AI artifical singing synthesizer 神椿スタジオ kamitsubaki studio ヰ世界情緒 異世界情緒 isekaijoucho thinkr vocaloid japanese j pop jpop j-pop sylvantia pnky reiszen videos
BeatmapID:3747520
BeatmapSetID:1823012

[Difficulty]
HPDrainRate:3
CircleSize:3
OverallDifficulty:4
ApproachRate:5
SliderMultiplier:0.999999999999999
SliderTickRate:1

[Events]
//Background and Video events
0,0,"nya.jpg",0,0
Video,0,"cute.mp4"
//Break Periods
2,32642,34051
2,58929,67964
2,79598,83616
//Storyboard Layer 0 (Background)
//Storyboard Layer 1 (Fail)
//Storyboard Layer 2 (Pass)
//Storyboard Layer 3 (Foreground)
//Storyboard Layer 4 (Overlay)
//Storyboard Sound Samples

[TimingPoints]
1338,326.086956521739,4,2,1,100,1,0
22207,-100,4,2,2,75,0,0
22370,-100,4,2,1,75,0,0
35169,-100,4,2,1,75,0,0
35251,-100,4,2,1,75,0,0
37859,-100,4,2,2,75,0,0
38022,-100,4,2,1,75,0,0
47886,-100,4,2,1,75,0,0
47968,-100,4,2,1,75,0,0
48049,-100,4,2,1,75,0,0
48131,-100,4,2,1,75,0,0
48212,-100,4,2,1,75,0,0
48294,-100,4,2,2,75,0,0
48457,-100,4,2,1,75,0,0
58484,-100,4,2,1,75,0,0
58566,-100,4,2,1,75,0,0
58647,-100,4,2,1,75,0,0
58729,-100,4,2,2,75,0,0
58892,-100,4,2,1,75,0,0
69164,-100,4,2,5,75,0,0
84816,-100,4,2,2,75,0,0
84979,-100,4,2,1,75,0,0
94843,-100,4,2,1,75,0,0
94924,-100,4,2,1,75,0,0
95006,-100,4,2,1,75,0,0
95087,-100,4,2,1,75,0,0
95169,-100,4,2,1,75,0,0
95251,-100,4,2,1,75,0,0
95577,-100,4,2,2,75,0,0
95740,-100,4,2,1,75,0,0
105685,-111.111111111111,4,2,1,75,0,0

[Colours]
Combo1 : 132,132,255
Combo2 : 28,141,255
Combo3 : 255,145,91

[HitObjects]
92,108,22207,6,0,B|132:112|132:112|152:126|152:126|192:130,1,99.9999999999999,6|10,3:2|0:0,0:0:0:0:
230,154,22696,2,0,P|245:192|207:247,1,99.9999999999999,2|0,0:0|3:2,0:0:0:0:
173,262,23185,1,10,0:0:0:0:
225,347,23511,2,0,L|344:328,1,99.9999999999999,2|10,3:2|0:0,0:0:0:0:
369,352,24001,2,0,L|392:250,1,99.9999999999999,2|0,3:2|3:2,0:0:0:0:
401,205,24490,1,10,0:0:0:0:
380,107,24816,6,0,L|312:91,1,50,2|0,3:2|0:0,0:0:0:0:
285,105,25142,1,10,0:0:0:0:
285,105,25305,2,0,P|256:147|192:159,1,99.9999999999999,2|0,0:0|3:2,0:0:0:0:
168,135,25794,1,10,0:0:0:0:
78,179,26120,2,0,L|91:239,1,50,2|2,3:2|0:0,0:0:0:0:
126,260,26446,2,0,L|113:320,1,50,10|2,0:0|0:0,0:0:0:0:
138,353,26772,2,0,L|237:374,1,99.9999999999999,2|10,3:2|0:0,0:0:0:0:
331,345,27424,6,0,L|312:242,1,99.9999999999999,2|10,3:2|0:0,0:0:0:0:
268,223,27914,2,0,L|289:119,1,99.9999999999999,2|0,0:0|3:2,0:0:0:0:
325,92,28403,1,10,0:0:0:0:
396,22,28729,2,0,P|453:34|479:69,1,99.9999999999999,2|10,3:2|0:0,0:0:0:0:
494,111,29218,2,0,P|477:149|464:215,1,99.9999999999999,2|0,3:2|3:2,0:0:0:0:
482,252,29707,1,10,0:0:0:0:
489,351,30033,6,0,B|450:345|450:345|434:331|434:331|388:325,1,99.9999999999999,2|10,3:2|0:0,0:0:0:0:
346,314,30522,2,0,P|312:348|255:356,1,99.9999999999999,2|2,0:0|3:2,0:0:0:0:
221,329,31011,1,10,0:0:0:0:
130,372,31337,2,0,L|83:358,1,50,2|2,3:2|0:0,0:0:0:0:
40,340,31664,1,10,0:0:0:0:
40,340,31827,2,0,P|28:281|54:248,1,99.9999999999999,2|0,0:0|3:2,0:0:0:0:
97,238,32316,1,8,0:0:0:0:
256,192,35251,12,2,37207,0:0:0:0:
98,239,37859,6,0,L|85:123,1,99.9999999999999,6|10,3:2|0:0,0:0:0:0:
56,107,38348,1,0,1:2:0:0:
56,107,38511,2,0,P|76:48|117:42,1,99.9999999999999,2|10,3:2|0:0,0:0:0:0:
156,67,39001,1,0,1:2:0:0:
156,67,39164,2,0,P|209:56|267:48,1,99.9999999999999,2|10,3:2|0:0,0:0:0:0:
298,83,39653,1,0,1:2:0:0:
298,83,39816,2,0,P|327:95|361:103,1,50,2|0,3:2|1:2,0:0:0:0:
392,86,40142,1,8,0:0:0:0:
469,149,40468,6,0,P|496:186|498:250,1,99.9999999999999,2|10,3:2|0:0,0:0:0:0:
476,283,40957,1,2,1:2:0:0:
476,283,41120,2,0,P|448:289|413:299,1,50,2|2,3:2|1:2,0:0:0:0:
389,326,41446,2,0,P|364:319|340:314,1,50,10|2,0:0|1:2,0:0:0:0:
292,300,41772,1,2,3:2:0:0:
201,341,42098,2,0,P|176:350|151:355,1,50,10|0,0:0|1:2,0:0:0:0:
107,376,42424,2,0,P|82:369|59:361,1,50,2|0,3:2|1:2,0:0:0:0:
18,332,42751,1,8,0:0:0:0:
23,232,43077,6,0,P|84:208|134:195,1,99.9999999999999,2|10,3:2|0:0,0:0:0:0:
169,215,43566,1,0,1:2:0:0:
169,215,43729,2,0,P|217:228|283:238,1,99.9999999999999,2|10,3:2|0:0,0:0:0:0:
311,212,44218,1,2,1:2:0:0:
311,212,44381,1,2,3:2:0:0:
278,117,44707,2,0,P|264:74|258:65,1,50,10|0,0:0|1:2,0:0:0:0:
214,53,45033,2,0,L|158:65,1,50,2|0,3:2|1:2,0:0:0:0:
116,76,45359,1,8,0:0:0:0:
27,122,45685,6,0,L|48:228,1,99.9999999999999,2|10,3:2|0:0,0:0:0:0:
84,261,46174,1,2,1:2:0:0:
84,261,46337,2,0,P|76:292|69:319,1,50,2|2,3:2|1:2,0:0:0:0:
59,358,46664,1,10,0:0:0:0:
155,382,46990,2,0,B|192:374|192:374|211:360|211:360|259:349,1,99.9999999999999,2|10,3:2|0:0,0:0:0:0:
293,327,47479,1,2,1:2:0:0:
293,327,47642,1,2,3:2:0:0:
385,366,47968,2,0,L|435:376,1,50,0|8,3:2|0:0,0:0:0:0:
478,352,48294,6,0,P|472:295|430:260,1,99.9999999999999,6|10,3:2|0:0,0:0:0:0:
416,231,48783,1,0,1:2:0:0:
416,231,48946,2,0,L|435:117,1,99.9999999999999,2|10,3:2|0:0,0:0:0:0:
398,103,49435,1,0,1:2:0:0:
398,103,49598,2,0,P|331:108|316:135,1,99.9999999999999,2|10,3:2|0:0,0:0:0:0:
274,154,50087,1,0,1:2:0:0:
274,154,50251,2,0,P|249:167|224:167,1,50,2|0,3:2|1:2,0:0:0:0:
181,149,50577,1,8,0:0:0:0:
96,202,50903,6,0,P|107:240|160:275,1,99.9999999999999,2|10,3:2|0:0,0:0:0:0:
204,298,51392,1,2,1:2:0:0:
204,298,51555,2,0,P|228:278|267:273,1,50,2|2,3:2|1:2,0:0:0:0:
288,297,51881,2,0,P|308:321|313:360,1,50,10|2,0:0|1:2,0:0:0:0:
279,375,52207,1,2,3:2:0:0:
179,383,52533,2,0,B|112:370,1,50,10|0,0:0|1:2,0:0:0:0:
80,377,52859,2,0,B|13:364,1,50,2|0,3:2|1:2,0:0:0:0:
5,324,53185,1,8,0:0:0:0:
64,242,53511,6,0,P|49:197|77:144,1,99.9999999999999,2|10,3:2|0:0,0:0:0:0:
95,109,54001,1,0,1:2:0:0:
95,109,54164,2,0,L|203:131,1,99.9999999999999,2|10,3:2|0:0,0:0:0:0:
246,141,54653,1,2,1:2:0:0:
246,141,54816,1,2,3:2:0:0:
322,205,55142,2,0,P|350:197|371:191,1,50,10|0,0:0|1:2,0:0:0:0:
414,214,55468,2,0,P|442:222|463:228,1,50,2|0,3:2|1:2,0:0:0:0:
504,201,55794,1,8,0:0:0:0:
489,102,56120,6,0,P|484:51|444:15,1,99.9999999999999,2|10,3:2|0:0,0:0:0:0:
405,14,56609,1,2,1:2:0:0:
405,14,56772,2,0,P|373:24|335:29,1,50,2|2,3:2|1:2,0:0:0:0:
307,19,57098,1,10,0:0:0:0:
213,55,57424,2,0,P|168:32|107:31,1,99.9999999999999,2|10,3:2|0:0,0:0:0:0:
76,50,57914,1,2,1:2:0:0:
76,50,58077,1,2,3:2:0:0:
20,133,58403,2,0,P|30:160|36:187,1,50,10|2,0:0|1:2,0:0:0:0:
50,228,58729,5,4,3:2:0:0:
99,270,69164,6,0,B|179:260|172:310|261:297,1,150,6|2,3:2|3:2,0:0:0:0:
280,265,69816,2,0,P|321:262|368:296,1,99.9999999999999,8|2,0:0|3:2,0:0:0:0:
458,255,70468,1,2,0:0:0:0:
505,167,70794,2,0,L|491:106,1,50,2|2,3:2|0:0,0:0:0:0:
456,84,71120,2,0,P|403:85|369:124,1,99.9999999999999,10|2,0:0|0:0,0:0:0:0:
280,157,71772,6,0,B|222:150|222:150|200:131|200:131|128:122,1,150,2|2,3:2|3:2,0:0:0:0:
98,154,72424,2,0,P|67:172|5:157,1,99.9999999999999,10|2,0:0|3:2,0:0:0:0:
1,58,73077,1,2,0:0:0:0:
94,22,73403,2,0,L|158:29,1,50,2|0,3:2|0:0,0:0:0:0:
189,46,73729,2,0,L|296:33,1,99.9999999999999,10|2,0:0|3:2,0:0:0:0:
381,70,74381,6,0,P|400:119|343:195,1,150,2|2,3:2|3:2,0:0:0:0:
324,236,75033,2,0,B|285:231|285:231|266:218|266:218|222:211,1,99.9999999999999,10|2,0:0|3:2,0:0:0:0:
147,153,75685,1,2,0:0:0:0:
92,236,76011,2,0,L|107:299,1,50,2|2,3:2|0:0,0:0:0:0:
120,331,76337,2,0,P|172:312|220:325,1,99.9999999999999,10|2,0:0|3:2,0:0:0:0:
303,367,76990,6,0,L|454:345,1,150,2|2,3:2|3:2,0:0:0:0:
500,334,77642,2,0,L|483:228,1,99.9999999999999,10|2,0:0|3:2,0:0:0:0:
399,182,78294,1,2,0:0:0:0:
450,96,78620,2,0,L|462:38,1,50,2|0,3:2|0:0,0:0:0:0:
421,14,78946,2,0,P|373:14|337:63,1,99.9999999999999,10|2,0:0|0:0,0:0:0:0:
339,50,84816,6,0,L|351:161,1,99.9999999999999,6|10,3:2|0:0,0:0:0:0:
389,188,85305,1,0,1:2:0:0:
389,188,85468,2,0,L|374:295,1,99.9999999999999,2|10,3:2|0:0,0:0:0:0:
342,324,85957,1,0,1:2:0:0:
342,324,86120,2,0,P|313:289|261:286,1,99.9999999999999,2|10,3:2|0:0,0:0:0:0:
217,305,86609,1,0,1:2:0:0:
217,305,86772,2,0,P|191:334|170:347,1,50,2|0,3:2|1:2,0:0:0:0:
132,338,87098,1,10,0:0:0:0:
45,288,87424,6,0,L|61:176,1,99.9999999999999,2|10,3:2|0:0,0:0:0:0:
65,142,87914,1,2,1:2:0:0:
65,142,88077,2,0,L|128:149,1,50,2|2,3:2|1:2,0:0:0:0:
157,172,88403,2,0,L|206:166,1,50,10|2,0:0|1:2,0:0:0:0:
252,146,88729,1,2,3:2:0:0:
322,74,89055,2,0,P|346:64|375:65,1,50,10|0,0:0|1:2,0:0:0:0:
400,103,89381,2,0,L|387:159,1,50,2|0,3:2|1:2,0:0:0:0:
374,199,89707,1,8,0:0:0:0:
343,294,90033,6,0,P|302:260|249:259,1,99.9999999999999,2|10,3:2|0:0,0:0:0:0:
212,270,90522,1,0,1:2:0:0:
212,270,90685,2,0,P|173:248|162:189,1,99.9999999999999,2|10,3:2|0:0,0:0:0:0:
129,164,91174,1,2,1:2:0:0:
129,164,91337,1,2,3:2:0:0:
174,74,91664,2,0,L|229:66,1,50,10|0,0:0|1:2,0:0:0:0:
254,27,91990,2,0,L|307:39,1,50,2|0,3:2|1:2,0:0:0:0:
347,60,92316,1,8,0:0:0:0:
385,152,92642,6,0,L|484:134,1,99.9999999999999,2|10,3:2|0:0,0:0:0:0:
502,185,93131,1,2,1:2:0:0:
502,185,93294,2,0,L|487:243,1,50,2|2,3:2|1:2,0:0:0:0:
475,281,93620,1,10,0:0:0:0:
399,346,93946,2,0,P|350:337|299:331,1,99.9999999999999,2|10,3:2|0:0,0:0:0:0:
254,332,94435,1,2,1:2:0:0:
254,332,94598,1,2,3:2:0:0:
154,328,94924,2,0,P|152:303|157:278,1,50,0|8,3:2|0:0,0:0:0:0:
144,230,95251,5,2,0:0:0:0:
196,144,95577,2,0,L|254:154,1,50,6|0,0:0|1:2,0:0:0:0:
279,189,95903,2,0,L|386:164,1,99.9999999999999,2|8,3:2|0:0,0:0:0:0:
429,159,96392,1,0,1:2:0:0:
429,159,96555,2,0,P|460:126|463:65,1,99.9999999999999,2|10,3:2|0:0,0:0:0:0:
443,34,97044,1,0,1:2:0:0:
443,34,97207,2,0,L|393:43,1,50,2|0,3:2|1:2,0:0:0:0:
344,33,97533,1,8,0:0:0:0:
246,55,97859,6,0,P|203:28|149:32,1,99.9999999999999,2|10,3:2|0:0,0:0:0:0:
120,65,98348,1,2,1:2:0:0:
120,65,98511,2,0,P|96:83|59:97,1,50,2|2,3:2|1:2,0:0:0:0:
40,125,98837,2,0,L|54:189,1,50,10|2,0:0|1:2,0:0:0:0:
90,204,99164,1,2,3:2:0:0:
66,301,99490,2,0,L|82:355,1,50,10|0,0:0|1:2,0:0:0:0:
126,368,99816,2,0,L|175:351,1,50,2|0,3:2|1:2,0:0:0:0:
199,308,100142,1,8,0:0:0:0:
294,337,100468,6,0,P|326:367|381:372,1,99.9999999999999,2|10,3:2|0:0,0:0:0:0:
427,350,100957,1,0,1:2:0:0:
427,350,101120,2,0,L|403:236,1,99.9999999999999,2|10,3:2|0:0,0:0:0:0:
372,215,101609,1,2,1:2:0:0:
372,215,101772,1,2,3:2:0:0:
310,135,102098,2,0,P|296:109|295:74,1,50,10|0,0:0|1:2,0:0:0:0:
332,58,102424,2,0,L|387:68,1,50,2|0,3:2|1:2,0:0:0:0:
430,74,102751,1,8,0:0:0:0:
501,143,103077,6,0,P|462:169|457:230,1,99.9999999999999,2|10,3:2|0:0,0:0:0:0:
428,263,103566,1,2,1:2:0:0:
428,263,103729,2,0,P|443:302|448:328,1,50,0|2,3:2|1:2,0:0:0:0:
433,358,104055,1,10,0:0:0:0:
335,337,104381,2,0,B|294:342|294:342|276:354|276:354|236:358,1,99.9999999999999,2|10,3:2|0:0,0:0:0:0:
194,334,104870,1,2,1:2:0:0:
109,279,105196,2,0,L|60:287,2,50,10|2|10,0:0|3:2|0:0,0:0:0:0:
133,241,105685,6,0,P|149:195|129:154,1,89.999997253418,2|2,0:0|0:0,0:0:0:0:
72,93,106337,1,2,0:0:0:0:
148,45,106664,2,0,L|207:33,1,44.999998626709,2|2,0:0|0:0,0:0:0:0:
228,9,106990,2,0,L|331:24,1,89.999997253418,2|2,0:0|0:0,0:0:0:0:
405,40,107642,1,2,0:0:0:0:
454,115,107968,1,2,0:0:0:0:
400,187,108294,6,0,P|377:234|383:284,1,89.999997253418,2|2,0:0|0:0,0:0:0:0:
432,342,108946,1,2,0:0:0:0:
349,377,109272,2,0,L|291:370,1,44.999998626709,2|2,0:0|0:0,0:0:0:0:
267,346,109598,2,0,L|178:366,1,89.999997253418,2|2,0:0|0:0,0:0:0:0:
89,379,110251,1,2,0:0:0:0:
32,308,110577,1,2,0:0:0:0:
66,224,110903,6,0,P|69:176|86:123,1,89.999997253418,2|2,0:0|0:0,0:0:0:0:
166,108,111555,1,2,0:0:0:0:
231,169,111881,2,0,P|255:168|281:159,1,44.999998626709,2|2,0:0|0:0,0:0:0:0:
305,129,112207,2,0,P|313:83|276:39,1,89.999997253418,2|2,0:0|0:0,0:0:0:0:
209,10,112859,1,2,0:0:0:0:
124,42,113185,1,2,0:0:0:0:
34,28,113511,6,0,L|58:173,1,134.999995880127,2|2,0:0|0:0,0:0:0:0:
87,193,114164,2,0,L|69:293,1,89.999997253418,2|2,0:0|0:0,0:0:0:0:
146,330,114816,2,0,L|241:314,1,89.999997253418,2|0,0:0|0:0,0:0:0:0:
283,310,115305,1,2,0:0:0:0:
283,310,115468,1,2,0:0:0:0:
