osu file format v14

[General]
AudioFilename: audio.mp3
AudioLeadIn: 0
PreviewTime: 37778
Countdown: 0
SampleSet: Soft
StackLeniency: 0.7
Mode: 0
LetterboxInBreaks: 0
WidescreenStoryboard: 1

[Editor]
Bookmarks: 22207,30685,32316,32642,37859,58729,69164,79598,84816,96229,105685,115468
DistanceSpacing: 1
BeatDivisor: 4
GridSize: 8
TimelineZoom: 1.9

[Metadata]
Title:Escape
TitleUnicode:えすけーぷ
Artist:MIMI feat. SEKAI
ArtistUnicode:MIMI feat. 星界
Creator:Kokoro Natsume
Version:Reiszen's Hard
Source:
Tags:CeVIO AI artifical singing synthesizer 神椿スタジオ kamitsubaki studio ヰ世界情緒 異世界情緒 isekaijoucho thinkr vocaloid japanese j pop jpop j-pop sylvantia pnky reiszen videos
BeatmapID:3748239
BeatmapSetID:1823012

[Difficulty]
HPDrainRate:4
CircleSize:3
OverallDifficulty:6
ApproachRate:8
SliderMultiplier:1.1
SliderTickRate:1

[Events]
//Background and Video events
0,0,"nya.jpg",0,0
Video,0,"cute.mp4"
//Break Periods
2,11772,21457
2,58929,68414
2,79598,84066
//Storyboard Layer 0 (Background)
//Storyboard Layer 1 (Fail)
//Storyboard Layer 2 (Pass)
//Storyboard Layer 3 (Foreground)
//Storyboard Layer 4 (Overlay)
//Storyboard Sound Samples

[TimingPoints]
1338,326.086956521739,4,2,1,100,1,0
1338,-100,4,2,1,100,0,0
22207,-100,4,2,2,75,0,0
22370,-100,4,2,1,75,0,0
35169,-100,4,2,1,75,0,0
35251,-100,4,2,1,75,0,0
37859,-100,4,2,2,75,0,1
38022,-100,4,2,1,75,0,1
47886,-100,4,2,1,75,0,1
47968,-100,4,2,1,75,0,1
48049,-100,4,2,1,75,0,1
48131,-100,4,2,1,75,0,1
48212,-100,4,2,1,75,0,1
48294,-100,4,2,2,75,0,1
48457,-100,4,2,1,75,0,1
58484,-100,4,2,1,75,0,1
58566,-100,4,2,1,75,0,1
58647,-100,4,2,1,75,0,1
58729,-100,4,2,2,75,0,0
58892,-100,4,2,1,75,0,0
69164,-111.111111111111,4,2,5,75,0,0
84816,-90.9090909090909,4,2,2,75,0,1
84979,-90.9090909090909,4,2,1,75,0,1
94843,-90.9090909090909,4,2,1,75,0,1
94924,-90.9090909090909,4,2,1,75,0,1
95006,-90.9090909090909,4,2,1,75,0,1
95087,-90.9090909090909,4,2,1,75,0,1
95169,-90.9090909090909,4,2,1,75,0,1
95251,-90.9090909090909,4,2,1,75,0,1
95577,-90.9090909090909,4,2,2,75,0,1
95740,-90.9090909090909,4,2,1,75,0,1
105685,-100,4,2,1,75,0,0

[Colours]
Combo1 : 132,132,255
Combo2 : 28,141,255
Combo3 : 255,145,91

[HitObjects]
7,40,1338,6,0,P|46:26|119:37,1,110,2|2,0:0|0:0,0:0:0:0:
180,100,1990,2,0,P|219:114|292:103,1,110,2|2,0:0|0:0,0:0:0:0:
368,50,2642,6,0,P|422:45|467:76,1,110,2|2,0:0|0:0,0:0:0:0:
437,122,3131,1,2,0:0:0:0:
400,163,3294,2,0,P|382:223|372:277,1,110,2|2,0:0|0:0,0:0:0:0:
400,375,3946,6,0,P|340:357|286:347,1,110,2|2,0:0|0:0,0:0:0:0:
268,241,4598,2,0,P|208:259|154:269,1,110,2|2,0:0|0:0,0:0:0:0:
77,339,5251,6,0,P|49:292|56:239,1,110,2|2,0:0|0:0,0:0:0:0:
95,199,5740,1,2,0:0:0:0:
146,179,5903,2,0,P|133:123|81:88,1,110,2|2,0:0|0:0,0:0:0:0:
43,68,6392,1,2,0:0:0:0:
41,13,6555,6,0,P|82:-5|148:12,1,110,2|2,0:0|0:0,0:0:0:0:
90,105,7207,2,0,P|75:159|65:223,1,110,2|2,0:0|0:0,0:0:0:0:
7,305,7859,6,0,P|58:329|109:313,1,110,2|2,0:0|0:0,0:0:0:0:
161,323,8348,1,2,0:0:0:0:
208,294,8511,2,0,P|193:240|183:176,1,110,2|2,0:0|0:0,0:0:0:0:
157,79,9164,6,0,P|200:88|264:108,1,110,2|0,0:0|0:0,0:0:0:0:
292,213,9816,2,0,P|335:204|399:184,1,110,2|2,0:0|0:0,0:0:0:0:
505,159,10468,6,0,P|488:210|484:236,1,55,2|2,0:0|0:0,0:0:0:0:
456,256,10794,2,0,P|473:307|477:333,2,55,0|2|2,0:0|0:0|0:0,0:0:0:0:
0,332,22207,6,0,P|50:354|105:349,1,110,6|10,3:2|0:0,0:0:0:0:
165,288,22696,1,2,0:0:0:0:
204,202,22859,2,0,P|149:197|99:219,1,110,2|10,3:2|0:0,0:0:0:0:
237,342,23511,6,0,L|357:323,1,110,2|10,3:2|0:0,0:0:0:0:
448,311,24001,1,2,3:2:0:0:
448,311,24164,1,2,0:0:0:0:
375,174,24490,2,0,L|385:115,1,55,10|2,0:0|0:0,0:0:0:0:
483,105,24816,6,0,L|461:232,1,110,2|10,3:2|0:0,0:0:0:0:
318,55,25468,2,0,P|370:23|431:37,1,110,2|10,3:2|0:0,0:0:0:0:
292,150,26120,2,0,L|231:140,1,55,2|2,3:2|0:0,0:0:0:0:
173,70,26446,2,0,L|112:80,1,55,10|2,0:0|0:0,0:0:0:0:
47,147,26772,6,0,P|17:97|30:38,1,110,2|10,3:2|0:0,0:0:0:0:
138,173,27424,2,0,L|111:286,1,110,2|10,3:2|0:0,0:0:0:0:
73,370,27914,1,2,0:0:0:0:
11,294,28077,2,0,P|59:269|122:287,1,110,2|10,3:2|0:0,0:0:0:0:
277,205,28729,6,0,P|275:149|243:97,1,110,2|10,3:2|0:0,0:0:0:0:
162,45,29218,1,2,3:2:0:0:
162,45,29381,1,2,0:0:0:0:
34,120,29707,2,0,L|99:131,1,55,10|2,0:0|0:0,0:0:0:0:
108,231,30033,6,0,L|-3:212,1,110,2|10,3:2|0:0,0:0:0:0:
181,154,30685,2,0,L|240:141,1,55,2|2,3:2|3:2,0:0:0:0:
292,48,31011,2,0,L|351:61,1,55,10|2,0:0|0:0,0:0:0:0:
451,85,31337,6,0,L|510:72,2,55,2|2|10,3:2|0:0|0:0,0:0:0:0:
315,166,31990,2,0,P|308:217|330:274,1,110,2|8,3:2|0:0,0:0:0:0:
508,332,32642,6,0,P|451:358|405:342,1,110,2|2,0:0|0:0,0:0:0:0:
328,271,33294,2,0,P|271:245|225:261,1,110,2|2,0:0|0:0,0:0:0:0:
128,353,33946,6,0,P|92:309|91:251,1,110,2|2,0:0|0:0,0:0:0:0:
119,213,34435,1,2,0:0:0:0:
119,213,34598,1,2,0:0:0:0:
224,17,34924,5,2,0:0:0:0:
224,17,35251,6,0,P|255:18|281:26,1,55,2|2,0:0|0:0,0:0:0:0:
320,58,35577,2,0,P|318:85|311:111,1,55,2|2,0:0|0:0,0:0:0:0:
265,141,35903,2,0,L|281:204,1,55,2|2,0:0|0:0,0:0:0:0:
323,226,36229,2,0,L|309:279,1,55,2|2,0:0|0:0,0:0:0:0:
272,320,36555,6,0,P|206:302|164:298,2,110,2|2|2,0:0|0:0|0:0,0:0:0:0:
508,180,37859,6,0,P|453:173|400:181,1,110,6|10,3:2|0:0,0:0:0:0:
317,226,38348,1,0,1:2:0:0:
317,132,38511,2,0,P|324:77|316:24,1,110,2|10,3:2|0:0,0:0:0:0:
150,25,39164,6,0,P|143:80|151:133,1,110,2|10,3:2|0:0,0:0:0:0:
226,190,39653,1,0,1:2:0:0:
141,224,39816,2,0,L|87:244,2,55,2|0|8,3:2|1:2|0:0,0:0:0:0:
242,349,40468,6,0,L|299:333,1,55,2|2,3:2|1:2,0:0:0:0:
403,264,40794,2,0,L|350:249,1,55,10|2,0:0|1:2,0:0:0:0:
258,249,41120,2,0,P|260:221|272:197,1,55,2|2,3:2|1:2,0:0:0:0:
361,156,41446,2,0,P|359:128|347:103,1,55,10|2,0:0|1:2,0:0:0:0:
273,56,41772,6,0,P|327:63|351:12,1,110,2|10,3:2|0:0,0:0:0:0:
206,129,42261,1,0,1:2:0:0:
179,38,42424,2,0,L|64:66,1,110,2|8,3:2|0:0,0:0:0:0:
17,152,42914,5,8,1:2:0:0:
17,152,42995,1,8,0:0:0:0:
17,152,43077,2,0,L|29:207,1,55,2|0,3:2|1:2,0:0:0:0:
14,322,43403,2,0,P|66:289|135:289,1,110,10|2,0:0|3:2,0:0:0:0:
201,110,44055,5,10,0:0:0:0:
109,129,44218,1,2,1:2:0:0:
17,152,44381,2,0,L|29:207,1,55,2|0,3:2|1:2,0:0:0:0:
14,322,44707,2,0,P|66:289|135:289,1,110,10|2,0:0|3:2,0:0:0:0:
256,351,45359,1,8,0:0:0:0:
416,341,45685,6,0,L|431:283,1,55,2|2,3:2|1:2,0:0:0:0:
512,240,46011,2,0,L|497:182,1,55,10|2,0:0|1:2,0:0:0:0:
473,99,46337,2,0,L|417:113,1,55,2|2,3:2|1:2,0:0:0:0:
355,188,46664,2,0,L|299:174,1,55,10|2,0:0|1:2,0:0:0:0:
225,118,46990,5,2,3:2:0:0:
225,118,47153,1,2,1:2:0:0:
149,180,47316,2,0,L|93:166,1,55,10|2,0:0|1:2,0:0:0:0:
9,141,47642,1,2,3:2:0:0:
84,67,47805,2,0,L|137:80,2,55,8|0|8,0:0|3:2|0:0,0:0:0:0:
9,141,48294,6,0,P|45:183|25:243,1,110,6|10,3:2|0:0,0:0:0:0:
56,330,48783,1,0,1:2:0:0:
128,262,48946,2,0,L|243:286,1,110,2|10,3:2|0:0,0:0:0:0:
373,375,49598,6,0,P|409:332|388:272,1,110,2|10,3:2|0:0,0:0:0:0:
315,226,50087,1,0,1:2:0:0:
405,182,50250,2,0,L|520:158,1,110,2|8,3:2|0:0,0:0:0:0:
492,0,50903,6,0,L|478:55,1,55,2|2,3:2|1:2,0:0:0:0:
380,88,51229,2,0,L|367:35,1,55,10|2,0:0|1:2,0:0:0:0:
272,86,51555,2,0,L|206:95,1,55,2|2,3:2|1:2,0:0:0:0:
128,54,51881,2,0,L|73:46,1,55,10|2,0:0|1:2,0:0:0:0:
31,141,52207,6,0,L|140:154,1,110,2|10,3:2|0:0,0:0:0:0:
231,187,52695,1,0,1:2:0:0:
207,281,52859,2,0,P|260:282|302:247,1,110,2|8,3:2|0:0,0:0:0:0:
327,161,53348,5,8,1:2:0:0:
327,161,53429,1,8,0:0:0:0:
327,161,53511,2,0,L|315:106,1,55,2|0,3:2|1:2,0:0:0:0:
243,43,53837,2,0,P|295:10|341:15,1,110,10|2,0:0|3:2,0:0:0:0:
512,180,54489,5,10,0:0:0:0:
420,170,54652,1,2,1:2:0:0:
327,161,54816,2,0,L|315:106,1,55,2|0,3:2|1:2,0:0:0:0:
243,43,55142,2,0,P|295:10|341:15,1,110,10|2,0:0|3:2,0:0:0:0:
327,161,55793,1,8,0:0:0:0:
161,100,56119,6,0,L|147:153,1,55,2|2,3:2|1:2,0:0:0:0:
123,243,56446,1,10,0:0:0:0:
59,311,56609,2,0,P|103:338|160:325,1,110,2|2,1:2|1:2,0:0:0:0:
216,251,57098,2,0,L|270:269,1,55,10|2,0:0|1:2,0:0:0:0:
324,347,57424,6,0,L|376:329,1,55,2|2,3:2|1:2,0:0:0:0:
469,293,57751,1,10,0:0:0:0:
441,206,57914,1,2,1:2:0:0:
413,119,58077,6,0,L|427:58,1,55,2|0,3:2|1:2,0:0:0:0:
334,20,58403,2,0,L|321:73,1,55,10|2,0:0|1:2,0:0:0:0:
299,164,58729,1,4,3:2:0:0:
155,154,69164,6,0,P|190:179|245:165,1,98.9999969787599,6|2,3:2|0:0,0:0:0:0:
214,66,69653,1,2,3:2:0:0:
316,96,69816,1,8,0:0:0:0:
110,37,70142,1,2,3:2:0:0:
110,37,70794,5,2,3:2:0:0:
312,3,71120,1,10,0:0:0:0:
501,73,71772,6,0,P|451:72|410:102,1,98.9999969787599,2|2,3:2|0:0,0:0:0:0:
360,188,72261,1,2,3:2:0:0:
316,96,72424,1,10,0:0:0:0:
402,280,72751,1,2,3:2:0:0:
402,280,73403,5,2,3:2:0:0:
235,156,73729,1,10,0:0:0:0:
447,194,74055,1,2,3:2:0:0:
308,346,74381,6,0,P|254:363|211:348,1,98.9999969787599,2|2,3:2|0:0,0:0:0:0:
143,271,74870,1,2,3:2:0:0:
106,368,75033,1,10,0:0:0:0:
183,165,75359,1,2,3:2:0:0:
183,165,76011,5,2,3:2:0:0:
22,313,76337,1,10,0:0:0:0:
241,250,76664,1,2,3:2:0:0:
25,213,76990,6,0,L|5:110,1,98.9999969787599,2|2,3:2|0:0,0:0:0:0:
90,50,77479,1,2,3:2:0:0:
2,13,77642,1,10,0:0:0:0:
181,89,77968,1,2,3:2:0:0:
181,89,78620,5,2,3:2:0:0:
395,35,78946,1,10,0:0:0:0:
460,375,84816,6,0,P|480:318|464:255,1,121.000003692627,6|10,3:2|0:0,0:0:0:0:
373,285,85305,1,0,1:2:0:0:
281,310,85468,2,0,P|261:253|277:190,1,121.000003692627,2|10,3:2|0:0,0:0:0:0:
484,141,86120,6,0,P|426:167|374:150,1,121.000003692627,2|10,3:2|0:0,0:0:0:0:
302,88,86609,1,0,1:2:0:0:
226,27,86772,2,0,P|168:1|116:18,1,121.000003692627,2|10,3:2|0:0,0:0:0:0:
42,131,87424,6,0,L|65:193,1,60.5000018463135,2|2,3:2|1:2,0:0:0:0:
32,300,87751,2,0,L|88:278,1,60.5000018463135,10|2,0:0|1:2,0:0:0:0:
201,310,88077,2,0,L|179:253,1,60.5000018463135,2|2,3:2|1:2,0:0:0:0:
211,141,88403,2,0,L|149:164,1,60.5000018463135,10|2,0:0|1:2,0:0:0:0:
285,203,88729,6,0,L|411:224,1,121.000003692627,2|10,3:2|0:0,0:0:0:0:
452,144,89218,1,0,1:2:0:0:
408,61,89381,2,0,L|288:80,1,121.000003692627,2|8,3:2|0:0,0:0:0:0:
156,125,89870,5,8,1:2:0:0:
138,131,89952,1,8,0:0:0:0:
120,135,90033,2,0,L|58:119,1,60.5000018463135,2|0,3:2|1:2,0:0:0:0:
197,50,90359,2,0,P|236:101|227:172,1,121.000003692627,10|2,0:0|3:2,0:0:0:0:
110,313,91011,5,10,0:0:0:0:
129,222,91174,1,2,1:2:0:0:
145,131,91337,2,0,L|83:115,1,60.5000018463135,2|0,3:2|1:2,0:0:0:0:
197,50,91663,2,0,P|236:101|227:172,1,121.000003692627,10|2,0:0|3:2,0:0:0:0:
110,313,92316,1,8,0:0:0:0:
305,352,92642,6,0,L|365:335,1,60.5000018463135,2|2,3:2|1:2,0:0:0:0:
467,348,92968,2,0,L|444:271,1,60.5000018463135,10|2,0:0|1:2,0:0:0:0:
367,237,93294,2,0,L|390:160,1,60.5000018463135,2|2,3:2|1:2,0:0:0:0:
512,107,93620,2,0,P|484:120|455:119,1,60.5000018463135,10|2,0:0|1:2,0:0:0:0:
389,51,93946,6,0,P|361:38|332:39,1,60.5000018463135,2|2,3:2|1:2,0:0:0:0:
256,105,94272,2,0,L|233:28,2,60.5000018463135,10|2|2,0:0|1:2|3:2,0:0:0:0:
205,193,94761,1,8,0:0:0:0:
152,105,94924,1,0,3:2:0:0:
102,197,95087,1,8,0:0:0:0:
48,109,95251,6,0,P|9:158|2:221,1,121.000003692627,2|6,0:0|0:0,0:0:0:0:
64,275,95740,1,0,1:2:0:0:
27,371,95903,2,0,B|101:360,1,60.5000018463135,2|0,3:2|1:2,0:0:0:0:
176,375,96229,2,0,P|205:367|230:350,1,60.5000018463135,8|0,0:0|1:2,0:0:0:0:
303,301,96555,6,0,P|260:312|197:267,1,121.000003692627,2|10,3:2|0:0,0:0:0:0:
274,211,97044,1,0,1:2:0:0:
186,177,97207,2,0,P|177:147|180:118,1,60.5000018463135,2|0,3:2|1:2,0:0:0:0:
212,24,97533,2,0,L|287:48,1,60.5000018463135,8|2,0:0|1:2,0:0:0:0:
358,22,97859,6,0,L|377:92,1,60.5000018463135,2|2,3:2|1:2,0:0:0:0:
459,22,98185,2,0,L|478:92,1,60.5000018463135,10|2,0:0|1:2,0:0:0:0:
413,162,98511,6,0,L|394:232,1,60.5000018463135,2|2,3:2|1:2,0:0:0:0:
312,162,98837,2,0,L|293:232,1,60.5000018463135,10|2,0:0|1:2,0:0:0:0:
339,309,99164,6,0,P|276:320|223:283,1,121.000003692627,2|10,3:2|0:0,0:0:0:0:
202,196,99653,1,0,1:2:0:0:
133,270,99816,2,0,L|65:284,1,60.5000018463135,2|0,3:2|1:2,0:0:0:0:
5,207,100142,1,8,0:0:0:0:
105,173,100305,5,8,1:2:0:0:
105,173,100386,1,8,0:0:0:0:
105,173,100468,2,0,L|117:109,1,60.5000018463135,2|0,3:2|1:2,0:0:0:0:
91,29,100794,2,0,P|138:72|198:53,1,121.000003692627,10|2,0:0|3:2,0:0:0:0:
287,52,101283,1,0,1:2:0:0:
296,148,101446,5,10,0:0:0:0:
201,163,101609,1,2,1:2:0:0:
105,173,101772,2,0,L|117:109,1,60.5000018463135,2|0,3:2|1:2,0:0:0:0:
91,29,102098,2,0,P|138:72|198:53,1,121.000003692627,10|2,0:0|3:2,0:0:0:0:
287,52,102587,1,0,1:2:0:0:
364,123,102751,1,8,0:0:0:0:
508,17,103077,6,0,L|490:76,1,60.5000018463135,2|2,3:2|1:2,0:0:0:0:
452,161,103403,1,10,0:0:0:0:
364,123,103566,2,0,P|358:184|393:238,1,121.000003692627,2|2,1:2|1:2,0:0:0:0:
483,264,104055,2,0,L|465:323,1,60.5000018463135,10|2,0:0|1:2,0:0:0:0:
381,373,104381,5,2,3:2:0:0:
309,302,104544,1,2,1:2:0:0:
224,377,104707,2,0,L|212:306,1,60.5000018463135,10|2,0:0|1:2,0:0:0:0:
193,218,105033,1,2,3:2:0:0:
122,288,105196,2,0,L|51:274,1,60.5000018463135,10|2,0:0|3:2,0:0:0:0:
98,187,105522,1,10,0:0:0:0:
4,158,105685,6,0,L|19:105,1,55,2|2,0:0|0:0,0:0:0:0:
62,65,106011,2,0,L|116:57,1,55,2|2,0:0|0:0,0:0:0:0:
155,98,106337,6,0,L|273:121,1,110,2|2,0:0|0:0,0:0:0:0:
364,163,106990,2,0,P|400:123|410:70,1,110,2|2,0:0|0:0,0:0:0:0:
309,25,107642,2,0,P|271:69|264:128,1,110,2|2,0:0|0:0,0:0:0:0:
276,172,108131,1,2,0:0:0:0:
291,224,108294,6,0,L|232:241,1,55,2|2,0:0|0:0,0:0:0:0:
194,272,108620,2,0,L|135:255,1,55,2|2,0:0|0:0,0:0:0:0:
138,201,108946,2,0,P|153:175|156:87,1,110,2|2,0:0|0:0,0:0:0:0:
51,73,109598,6,0,P|36:99|33:187,1,110,2|2,0:0|0:0,0:0:0:0:
28,287,110251,1,2,0:0:0:0:
28,287,110577,6,0,L|87:278,1,55,2|2,0:0|0:0,0:0:0:0:
118,320,110903,2,0,L|237:336,1,110,2|2,0:0|0:0,0:0:0:0:
279,318,111392,1,2,0:0:0:0:
326,346,111555,2,0,P|378:361|431:349,1,110,2|2,0:0|0:0,0:0:0:0:
502,264,112207,6,0,P|513:205|491:149,1,110,2|2,0:0|0:0,0:0:0:0:
471,110,112696,1,2,0:0:0:0:
442,62,112859,2,0,L|322:78,1,110,2|2,0:0|0:0,0:0:0:0:
253,152,113511,6,0,L|137:132,1,110,2|0,0:0|0:0,0:0:0:0:
73,217,114164,2,0,L|181:235,1,110,2|2,0:0|0:0,0:0:0:0:
221,272,114653,1,2,0:0:0:0:
259,311,114816,6,0,L|319:324,1,55,2|2,0:0|0:0,0:0:0:0:
362,299,115142,2,0,L|415:285,2,55,0|2|2,0:0|0:0|0:0,0:0:0:0:
