osu file format v14

[General]
AudioFilename: audio.mp3
AudioLeadIn: 0
PreviewTime: 37778
Countdown: 0
SampleSet: Soft
StackLeniency: 0.7
Mode: 0
LetterboxInBreaks: 0
WidescreenStoryboard: 0

[Editor]
Bookmarks: 22207,32642,37859,58729,69164,79598,84816,105685,115468
DistanceSpacing: 1
BeatDivisor: 4
GridSize: 8
TimelineZoom: 1.9

[Metadata]
Title:Escape
TitleUnicode:えすけーぷ
Artist:MIMI feat. SEKAI
ArtistUnicode:MIMI feat. 星界
Creator:Kokoro Natsume
Version:Dreaming~
Source:
Tags:CeVIO AI artifical singing synthesizer 神椿スタジオ kamitsubaki studio ヰ世界情緒 異世界情緒 isekaijoucho thinkr vocaloid japanese j pop jpop j-pop sylvantia pnky reiszen videos
BeatmapID:3740762
BeatmapSetID:1823012

[Difficulty]
HPDrainRate:5
CircleSize:3.8
OverallDifficulty:7.5
ApproachRate:8.5
SliderMultiplier:1.7
SliderTickRate:1

[Events]
//Background and Video events
0,0,"nya.jpg",0,0
Video,0,"cute.mp4"
//Break Periods
2,58929,68489
2,79598,84141
//Storyboard Layer 0 (Background)
//Storyboard Layer 1 (Fail)
//Storyboard Layer 2 (Pass)
//Storyboard Layer 3 (Foreground)
//Storyboard Layer 4 (Overlay)
//Storyboard Sound Samples

[TimingPoints]
1338,326.086956521739,4,2,1,100,1,0
22207,-111.111111111111,4,2,2,75,0,0
22370,-111.111111111111,4,2,1,75,0,0
32642,-133.333333333333,4,2,1,75,0,0
35169,-133.333333333333,4,2,1,75,0,0
35251,-133.333333333333,4,2,1,75,0,0
37859,-83.3333333333333,4,2,2,75,0,1
38022,-83.3333333333333,4,2,1,75,0,1
38185,-83.3333333333333,4,2,1,75,0,0
38511,-90.9090909090909,4,2,1,75,0,0
39164,-83.3333333333333,4,2,1,75,0,1
39490,-83.3333333333333,4,2,1,75,0,0
39816,-90.9090909090909,4,2,1,75,0,0
41772,-83.3333333333333,4,2,1,75,0,1
42098,-83.3333333333333,4,2,1,75,0,0
42424,-90.9090909090909,4,2,1,75,0,0
43077,-100,4,2,1,75,0,0
43403,-83.3333333333333,4,2,1,75,0,0
43892,-83.3333333333333,4,2,1,75,0,0
44381,-100,4,2,1,75,0,0
44707,-83.3333333333333,4,2,1,75,0,0
45196,-83.3333333333333,4,2,1,75,0,0
45359,-90.9090909090909,4,2,1,75,0,0
47886,-90.9090909090909,4,2,1,5,0,0
47968,-90.9090909090909,4,2,1,75,0,0
48049,-90.9090909090909,4,2,1,5,0,0
48131,-90.9090909090909,4,2,1,75,0,0
48212,-90.9090909090909,4,2,1,5,0,0
48294,-83.3333333333333,4,2,2,75,0,1
48457,-83.3333333333333,4,2,1,75,0,1
48620,-83.3333333333333,4,2,1,75,0,0
48946,-90.9090909090909,4,2,1,75,0,0
49598,-83.3333333333333,4,2,1,75,0,1
49924,-83.3333333333333,4,2,1,75,0,0
50251,-90.9090909090909,4,2,1,75,0,0
52207,-83.3333333333333,4,2,1,75,0,1
52533,-83.3333333333333,4,2,1,75,0,0
52859,-90.9090909090909,4,2,1,75,0,0
53511,-100,4,2,1,75,0,0
53837,-83.3333333333333,4,2,1,75,0,0
54327,-83.3333333333333,4,2,1,75,0,0
54816,-100,4,2,1,75,0,0
55142,-83.3333333333333,4,2,1,75,0,0
55631,-83.3333333333333,4,2,1,75,0,0
55794,-90.9090909090909,4,2,1,75,0,0
57424,-90.9090909090909,4,2,1,75,0,0
58240,-90.9090909090909,4,2,1,75,0,0
58484,-90.9090909090909,4,2,1,5,0,0
58566,-90.9090909090909,4,2,1,75,0,0
58647,-90.9090909090909,4,2,1,5,0,0
58729,-90.9090909090909,4,2,2,75,0,0
58892,-90.9090909090909,4,2,1,75,0,0
69164,-133.333333333333,4,2,5,75,0,0
69816,-50,4,2,5,75,0,0
69897,-50,4,2,5,5,0,0
70142,-133.333333333333,4,2,5,75,0,0
71120,-50,4,2,5,75,0,0
71202,-50,4,2,5,5,0,0
71446,-133.333333333333,4,2,5,75,0,0
72424,-50,4,2,5,75,0,0
72506,-50,4,2,5,5,0,0
72751,-133.333333333333,4,2,5,75,0,0
73729,-50,4,2,5,75,0,0
73810,-50,4,2,5,5,0,0
74055,-133.333333333333,4,2,5,75,0,0
75033,-50,4,2,5,75,0,0
75115,-50,4,2,5,5,0,0
75359,-133.333333333333,4,2,5,75,0,0
76337,-50,4,2,5,75,0,0
76419,-50,4,2,5,5,0,0
76664,-133.333333333333,4,2,5,75,0,0
77642,-50,4,2,5,75,0,0
77723,-50,4,2,5,5,0,0
77968,-133.333333333333,4,2,5,75,0,0
78946,-50,4,2,5,75,0,0
79028,-50,4,2,5,5,0,0
79272,-50,4,2,5,75,0,0
84816,-83.3333333333333,4,2,2,75,0,1
84979,-83.3333333333333,4,2,1,75,0,1
85142,-83.3333333333333,4,2,1,75,0,0
85468,-90.9090909090909,4,2,1,75,0,0
86120,-83.3333333333333,4,2,1,75,0,1
86446,-83.3333333333333,4,2,1,75,0,0
86772,-90.9090909090909,4,2,1,75,0,0
88729,-83.3333333333333,4,2,1,75,0,1
89055,-83.3333333333333,4,2,1,75,0,0
89381,-90.9090909090909,4,2,1,75,0,0
90033,-100,4,2,1,75,0,0
90359,-83.3333333333333,4,2,1,75,0,0
90848,-83.3333333333333,4,2,1,75,0,0
91337,-100,4,2,1,75,0,0
91664,-83.3333333333333,4,2,1,75,0,0
92153,-83.3333333333333,4,2,1,75,0,0
92316,-90.9090909090909,4,2,1,75,0,0
94843,-90.9090909090909,4,2,1,5,0,0
94924,-90.9090909090909,4,2,1,75,0,0
95006,-90.9090909090909,4,2,1,5,0,0
95087,-90.9090909090909,4,2,1,75,0,0
95169,-90.9090909090909,4,2,1,5,0,0
95251,-399.999999999997,4,2,1,75,0,0
95577,-399.999999999997,4,2,2,75,0,1
95740,-399.999999999997,4,2,1,75,0,0
95903,-90.9090909090909,4,2,1,75,0,0
96555,-83.3333333333333,4,2,1,75,0,1
96881,-83.3333333333333,4,2,1,75,0,0
97207,-90.9090909090909,4,2,1,75,0,0
99164,-83.3333333333333,4,2,1,75,0,1
99490,-83.3333333333333,4,2,1,75,0,0
99816,-90.9090909090909,4,2,1,75,0,0
100468,-100,4,2,1,75,0,0
100794,-83.3333333333333,4,2,1,75,0,0
101283,-83.3333333333333,4,2,1,75,0,0
101772,-100,4,2,1,75,0,0
102098,-83.3333333333333,4,2,1,75,0,0
102587,-83.3333333333333,4,2,1,75,0,0
102751,-90.9090909090909,4,2,1,75,0,0
104381,-90.9090909090909,4,2,1,75,0,0
105033,-90.9090909090909,4,2,1,75,0,0
105278,-90.9090909090909,4,2,1,5,0,0
105359,-90.9090909090909,4,2,1,75,0,0
105441,-90.9090909090909,4,2,1,5,0,0
105522,-90.9090909090909,4,2,1,75,0,0
105604,-90.9090909090909,4,2,1,5,0,0
105685,-133.333333333333,4,2,1,75,0,0

[Colours]
Combo1 : 132,132,255
Combo2 : 28,141,255
Combo3 : 255,145,91

[HitObjects]
32,191,22207,6,0,B|116:206|104:143|186:158,1,152.999995330811,6|10,3:2|0:0,0:0:0:0:
160,241,22696,1,2,0:0:0:0:
57,107,22859,2,0,P|55:68|52:30,1,76.4999976654053,2|0,3:2|3:2,0:0:0:0:
32,191,23185,1,10,0:0:0:0:
57,107,23348,1,2,0:0:0:0:
176,156,23511,6,0,P|230:161|252:146,1,76.4999976654053,2|2,3:2|0:0,0:0:0:0:
323,106,23837,1,10,0:0:0:0:
299,215,24001,1,2,3:2:0:0:
209,80,24164,2,0,P|207:41|205:3,1,76.4999976654053,2|0,0:0|3:2,0:0:0:0:
247,150,24490,1,10,0:0:0:0:
286,25,24653,1,2,0:0:0:0:
394,110,24816,6,0,P|357:120|322:105,1,76.4999976654053,2|0,3:2|0:0,0:0:0:0:
439,34,25142,2,0,P|475:24|510:39,1,76.4999976654053,10|2,0:0|0:0,0:0:0:0:
512,178,25468,2,0,P|509:216|507:254,1,76.4999976654053,2|0,3:2|3:2,0:0:0:0:
446,325,25794,1,10,0:0:0:0:
420,220,25957,1,2,0:0:0:0:
359,348,26120,6,0,P|323:361|287:348,1,76.4999976654053,2|2,3:2|0:0,0:0:0:0:
249,244,26446,1,10,0:0:0:0:
207,335,26609,1,2,0:0:0:0:
329,278,26772,2,0,P|331:239|334:201,1,76.4999976654053,2|0,3:2|3:2,0:0:0:0:
172,239,27098,2,0,P|211:241|249:244,1,76.4999976654053,10|2,0:0|0:0,0:0:0:0:
91,342,27424,6,0,B|126:273|55:269|102:187,1,152.999995330811,2|10,3:2|0:0,0:0:0:0:
149,126,27914,1,2,0:0:0:0:
248,243,28077,2,0,P|210:240|172:239,1,76.4999976654053,2|0,3:2|3:2,0:0:0:0:
333,201,28403,1,10,0:0:0:0:
248,243,28566,1,2,0:0:0:0:
287,348,28729,6,0,P|322:360|358:348,1,76.4999976654053,2|0,3:2|0:0,0:0:0:0:
468,306,29055,2,0,P|467:344|468:383,1,76.4999976654053,10|2,0:0|3:2,0:0:0:0:
329,278,29381,2,0,P|330:239|331:201,1,76.4999976654053,2|0,0:0|3:2,0:0:0:0:
358,347,29707,1,10,0:0:0:0:
410,250,29870,1,2,0:0:0:0:
468,383,30033,6,0,P|467:344|468:306,1,76.4999976654053,2|0,3:2|0:0,0:0:0:0:
412,174,30359,2,0,P|412:212|411:250,1,76.4999976654053,10|2,0:0|0:0,0:0:0:0:
472,114,30685,5,2,3:2:0:0:
412,174,30848,1,2,3:2:0:0:
440,37,31011,2,0,P|476:27|512:39,1,76.4999976654053,10|2,0:0|0:0,0:0:0:0:
339,119,31337,6,0,P|302:128|266:116,1,76.4999976654053,2|2,3:2|0:0,0:0:0:0:
183,12,31664,2,0,P|185:63|185:104,1,76.4999976654053,10|2,0:0|0:0,0:0:0:0:
123,156,31990,1,2,3:2:0:0:
185,88,32153,1,0,3:2:0:0:
199,181,32316,1,8,0:0:0:0:
35,252,32642,6,0,P|66:253|98:252,1,63.7500024318696,2|2,0:0|0:0,0:0:0:0:
41,266,32968,6,0,P|72:267|104:266,1,63.7500024318696,2|2,0:0|0:0,0:0:0:0:
47,280,33294,6,0,P|78:281|110:280,1,63.7500024318696,2|2,0:0|0:0,0:0:0:0:
53,294,33620,6,0,P|84:295|116:294,1,63.7500024318696,2|2,0:0|0:0,0:0:0:0:
179,372,33946,2,0,B|208:341|208:341|206:308|206:247,2,127.500004863739,2|2|2,0:0|0:0|0:0,0:0:0:0:
363,329,34924,2,0,P|320:309|276:324,1,95.6250036478044,2|0,0:0|0:0,0:0:0:0:
271,350,35251,5,2,0:0:0:0:
271,350,35414,1,2,0:0:0:0:
179,372,35577,1,2,0:0:0:0:
179,372,35740,1,2,0:0:0:0:
91,314,35903,6,0,P|91:326|91:378,1,63.7500024318696,2|2,0:0|0:0,0:0:0:0:
0,378,36229,2,0,P|0:366|0:314,1,63.7500024318696,2|2,0:0|0:0,0:0:0:0:
1,234,36555,5,2,0:0:0:0:
88,183,36881,5,2,0:0:0:0:
18,112,37207,5,2,0:0:0:0:
18,112,37859,6,0,B|69:132|89:181|89:181|107:132|158:109,1,203.999993774414,6|10,3:2|0:0,0:0:0:0:
240,51,38348,1,0,1:2:0:0:
267,199,38511,2,0,P|224:215|184:194,1,93.5000028533936,2|0,3:2|1:2,0:0:0:0:
320,96,38837,2,0,P|362:79|402:100,1,93.5000028533936,10|0,0:0|1:2,0:0:0:0:
419,295,39164,6,0,B|370:272|352:222|352:222|332:270|279:290,1,203.999993774414,2|10,3:2|0:0,0:0:0:0:
346,353,39653,1,0,1:2:0:0:
440,207,39816,2,0,P|473:162|497:128,1,93.5000028533936,2|0,3:2|1:2,0:0:0:0:
502,268,40142,2,0,P|504:315|505:362,1,93.5000028533936,8|2,0:0|1:2,0:0:0:0:
346,353,40468,5,2,3:2:0:0:
440,207,40631,1,2,1:2:0:0:
423,384,40794,1,10,0:0:0:0:
351,241,40957,1,2,1:2:0:0:
505,362,41120,6,0,P|504:315|502:268,1,93.5000028533936,2|2,3:2|1:2,0:0:0:0:
423,384,41446,1,10,0:0:0:0:
351,241,41609,1,2,1:2:0:0:
203,334,41772,6,0,B|111:355|120:272|9:299,1,203.999993774414,2|10,3:2|0:0,0:0:0:0:
53,381,42261,1,0,1:2:0:0:
175,254,42424,2,0,P|177:207|179:160,1,93.5000028533936,2|0,3:2|1:2,0:0:0:0:
150,33,42751,1,8,0:0:0:0:
93,194,42914,1,8,1:2:0:0:
93,194,42995,1,8,0:0:0:0:
93,194,43077,6,0,P|95:147|97:100,1,85,2|0,3:2|1:2,0:0:0:0:
271,168,43403,2,0,P|223:181|178:160,1,101.999996887207,10|0,0:0|1:2,0:0:0:0:
57,25,43729,2,0,P|104:12|149:32,1,101.999996887207,2|0,3:2|1:2,0:0:0:0:
271,168,44055,1,10,0:0:0:0:
309,95,44218,1,2,1:2:0:0:
93,194,44381,6,0,P|95:147|97:100,1,85,2|0,3:2|1:2,0:0:0:0:
271,168,44707,2,0,P|223:181|178:160,1,101.999996887207,10|0,0:0|1:2,0:0:0:0:
57,25,45033,2,0,P|104:12|149:32,1,101.999996887207,2|0,3:2|1:2,0:0:0:0:
93,194,45359,2,0,P|46:191|0:189,1,93.5000028533936,8|2,0:0|1:2,0:0:0:0:
232,95,45685,5,2,3:2:0:0:
170,253,45848,1,2,1:2:0:0:
96,109,46011,1,10,0:0:0:0:
170,253,46174,1,2,1:2:0:0:
232,95,46337,2,0,P|279:98|326:101,1,93.5000028533936,2|2,3:2|1:2,0:0:0:0:
96,109,46664,2,0,P|49:106|2:103,1,93.5000028533936,10|2,0:0|1:2,0:0:0:0:
93,194,46990,5,2,3:2:0:0:
57,25,47153,1,2,1:2:0:0:
57,25,47234,1,2,0:0:0:0:
57,25,47316,1,10,0:0:0:0:
2,103,47479,1,2,1:2:0:0:
174,163,47642,1,2,3:2:0:0:
18,346,47805,6,0,L|19:299,1,46.7500014266968,8|0,0:0|0:0,0:0:0:0:
93,194,47968,2,0,L|93:240,1,46.7500014266968,0|0,3:2|0:0,0:0:0:0:
3,341,48131,2,0,L|4:295,1,46.7500014266968,8|0,0:0|0:0,0:0:0:0:
109,346,48294,6,0,B|205:370|209:275|299:298,1,203.999993774414,6|10,3:2|0:0,0:0:0:0:
357,231,48783,1,0,1:2:0:0:
353,362,48946,2,0,P|314:387|269:380,1,93.5000028533936,2|0,3:2|1:2,0:0:0:0:
417,292,49272,2,0,P|462:285|500:310,1,93.5000028533936,10|0,0:0|1:2,0:0:0:0:
298,297,49598,6,0,B|208:274|204:369|108:345,1,203.999993774414,2|10,3:2|0:0,0:0:0:0:
145,263,50087,1,0,1:2:0:0:
269,380,50251,2,0,P|315:387|354:363,1,93.5000028533936,2|0,3:2|1:2,0:0:0:0:
304,204,50577,2,0,P|300:267|298:306,1,93.5000028533936,8|2,0:0|1:2,0:0:0:0:
342,121,50903,5,2,3:2:0:0:
204,191,51066,1,2,1:2:0:0:
259,42,51229,1,10,0:0:0:0:
304,204,51392,1,2,1:2:0:0:
144,93,51555,6,0,P|98:86|52:79,1,93.5000028533936,2|2,3:2|1:2,0:0:0:0:
118,250,51881,1,10,0:0:0:0:
144,93,52044,1,2,1:2:0:0:
304,204,52207,6,0,B|406:225|408:139|495:159,1,203.999993774414,2|10,3:2|0:0,0:0:0:0:
466,243,52696,1,0,1:2:0:0:
342,121,52859,2,0,P|345:74|347:27,1,93.5000028533936,2|0,3:2|1:2,0:0:0:0:
393,190,53185,1,8,0:0:0:0:
512,64,53348,1,8,1:2:0:0:
512,64,53430,1,8,0:0:0:0:
512,64,53511,6,0,P|451:61|427:60,1,85,2|0,3:2|1:2,0:0:0:0:
421,266,53837,2,0,P|468:285|514:265,1,101.999996887207,10|0,0:0|1:2,0:0:0:0:
342,121,54164,2,0,P|295:102|249:122,1,101.999996887207,2|0,3:2|1:2,0:0:0:0:
319,14,54490,1,10,0:0:0:0:
393,190,54653,1,2,1:2:0:0:
512,64,54816,6,0,P|469:61|427:60,1,85,2|0,3:2|1:2,0:0:0:0:
421,266,55142,2,0,P|468:285|514:265,1,101.999996887207,10|0,0:0|1:2,0:0:0:0:
342,121,55468,2,0,P|295:102|249:122,1,101.999996887207,2|0,3:2|1:2,0:0:0:0:
288,289,55794,2,0,P|290:238|292:189,1,93.5000028533936,8|0,0:0|1:2,0:0:0:0:
358,331,56120,5,2,3:2:0:0:
421,266,56283,1,2,1:2:0:0:
438,356,56446,1,10,0:0:0:0:
421,266,56609,1,2,1:2:0:0:
285,370,56772,2,0,P|241:383|199:364,1,93.5000028533936,2|2,3:2|1:2,0:0:0:0:
61,271,57098,2,0,P|104:257|146:276,1,93.5000028533936,10|2,0:0|1:2,0:0:0:0:
199,364,57424,5,2,3:2:0:0:
61,271,57587,1,2,1:2:0:0:
61,271,57669,1,2,0:0:0:0:
61,271,57751,1,10,0:0:0:0:
104,347,57914,1,2,1:2:0:0:
248,300,58077,2,0,P|249:253|251:206,1,93.5000028533936,2|0,3:2|1:2,0:0:0:0:
102,53,58403,6,0,L|103:100,1,46.7500014266968,10|0,0:0|0:0,0:0:0:0:
175,188,58566,2,0,L|175:141,1,46.7500014266968,2|0,1:2|0:0,0:0:0:0:
250,77,58729,5,4,3:2:0:0:
263,73,69164,6,0,B|360:48|353:139|463:105,1,191.250007295609,6|2,3:2|3:2,0:0:0:0:
413,27,69816,2,0,P|412:0|412:27,1,85,8|0,0:0|0:0,0:0:0:0:
298,154,70142,6,0,P|297:185|298:217,1,63.7500024318696,2|2,3:2|0:0,0:0:0:0:
444,173,70468,2,0,P|443:141|443:109,1,63.7500024318696,2|2,0:0|0:0,0:0:0:0:
379,261,70794,1,2,3:2:0:0:
444,173,70957,1,2,0:0:0:0:
495,269,71120,2,0,P|468:270|495:270,1,85,10|0,0:0|0:0,0:0:0:0:
495,267,71446,6,0,P|495:313|495:336,1,63.7500024318696,2|2,0:0|0:0,0:0:0:0:
402,359,71772,6,0,B|354:377|316:339|316:339|263:289|205:323,1,191.250007295609,2|2,3:2|3:2,0:0:0:0:
145,350,72424,2,0,P|146:377|146:350,1,85,10|0,0:0|0:0,0:0:0:0:
227,312,72751,6,0,P|227:268|227:249,1,63.7500024318696,2|2,3:2|0:0,0:0:0:0:
145,216,73077,2,0,P|99:190|32:230,1,127.500004863739,2|2,0:0|3:2,0:0:0:0:
36,220,73729,2,0,P|37:247|37:220,1,85,10|0,0:0|0:0,0:0:0:0:
95,153,74055,6,0,P|96:111|96:79,1,63.7500024318696,2|2,3:2|0:0,0:0:0:0:
17,28,74381,6,0,P|97:72|179:31,1,191.250007295609,2|2,3:2|3:2,0:0:0:0:
273,23,75033,2,0,P|272:-4|272:23,1,85,10|0,0:0|0:0,0:0:0:0:
270,107,75359,6,0,P|269:138|268:170,1,63.7500024318696,2|2,3:2|0:0,0:0:0:0:
352,159,75685,2,0,P|405:128|460:155,1,127.500004863739,2|2,0:0|3:2,0:0:0:0:
460,155,76337,2,0,P|461:182|461:155,1,85,10|0,0:0|0:0,0:0:0:0:
406,87,76664,6,0,P|406:43|406:23,1,63.7500024318696,2|0,3:2|0:0,0:0:0:0:
460,155,76990,6,0,B|421:240|488:245|449:341,1,191.250007295609,2|2,3:2|3:2,0:0:0:0:
366,294,77642,2,0,P|362:268|367:294,1,85,10|0,0:0|0:0,0:0:0:0:
284,341,77968,6,0,P|254:353|224:344,1,63.7500024318696,2|2,3:2|0:0,0:0:0:0:
223,245,78294,2,0,P|252:233|282:242,1,63.7500024318696,2|0,0:0|0:0,0:0:0:0:
366,294,78620,5,2,3:2:0:0:
281,241,78783,1,0,0:0:0:0:
284,341,78946,2,0,P|288:367|283:341,1,85,10|0,0:0|0:0,0:0:0:0:
285,339,79272,1,2,0:0:0:0:
285,339,84816,6,0,B|247:346|212:282|212:282|182:344|131:336,1,203.999993774414,6|10,3:2|0:0,0:0:0:0:
131,254,85305,1,0,1:2:0:0:
24,380,85468,2,0,P|11:337|29:294,1,93.5000028533936,2|0,3:2|1:2,0:0:0:0:
139,168,85794,2,0,P|150:212|132:254,1,93.5000028533936,10|0,0:0|1:2,0:0:0:0:
0,95,86120,6,0,B|94:126|91:44|197:86,1,203.999993774414,2|10,3:2|0:0,0:0:0:0:
243,11,86609,1,0,1:2:0:0:
223,172,86772,2,0,P|180:187|138:167,1,93.5000028533936,2|0,3:2|1:2,0:0:0:0:
315,135,87098,2,0,P|313:191|313:233,1,93.5000028533936,10|0,0:0|1:2,0:0:0:0:
196,85,87424,5,2,3:2:0:0:
311,227,87587,1,2,1:2:0:0:
322,37,87751,1,10,0:0:0:0:
223,172,87914,1,2,1:2:0:0:
315,135,88077,6,0,P|361:134|408:136,1,93.5000028533936,2|2,3:2|1:2,0:0:0:0:
354,305,88403,1,10,0:0:0:0:
408,136,88566,1,2,1:2:0:0:
506,259,88729,6,0,B|411:279|421:201|311:228,1,203.999993774414,2|10,3:2|0:0,0:0:0:0:
354,305,89218,1,0,1:2:0:0:
480,181,89381,2,0,P|480:131|480:85,1,93.5000028533936,2|0,3:2|1:2,0:0:0:0:
406,0,89707,1,8,0:0:0:0:
315,135,89870,1,8,1:2:0:0:
315,135,89952,1,8,0:0:0:0:
315,135,90033,6,0,P|357:135|399:136,1,85,2|0,3:2|1:2,0:0:0:0:
354,305,90359,2,0,P|308:325|266:299,1,101.999996887207,10|0,0:0|1:2,0:0:0:0:
434,252,90685,2,0,P|434:319|434:363,1,101.999996887207,2|0,3:2|1:2,0:0:0:0:
480,181,91011,1,10,0:0:0:0:
354,305,91174,1,2,1:2:0:0:
315,135,91337,6,0,P|357:135|399:136,1,85,2|0,3:2|1:2,0:0:0:0:
354,305,91664,2,0,P|308:325|266:299,1,101.999996887207,10|0,0:0|1:2,0:0:0:0:
434,252,91990,2,0,P|434:319|434:363,1,101.999996887207,2|0,3:2|1:2,0:0:0:0:
314,228,92316,2,0,P|314:181|315:134,1,93.5000028533936,8|2,0:0|1:2,0:0:0:0:
266,300,92642,5,2,3:2:0:0:
314,134,92805,1,2,1:2:0:0:
354,305,92968,1,10,0:0:0:0:
314,134,93131,1,2,1:2:0:0:
266,300,93294,2,0,P|219:300|172:298,1,93.5000028533936,2|2,3:2|1:2,0:0:0:0:
19,231,93620,2,0,P|65:233|112:232,1,93.5000028533936,10|2,0:0|1:2,0:0:0:0:
18,144,93946,5,2,3:2:0:0:
59,317,94109,1,2,1:2:0:0:
59,317,94191,1,2,0:0:0:0:
59,317,94272,1,10,0:0:0:0:
112,231,94435,1,2,1:2:0:0:
18,97,94598,1,2,3:2:0:0:
216,7,94761,6,0,L|216:53,1,46.7500014266968,8|0,0:0|0:0,0:0:0:0:
136,134,94924,2,0,L|137:87,1,46.7500014266968,0|0,3:2|0:0,0:0:0:0:
237,18,95087,2,0,L|236:64,1,46.7500014266968,8|0,0:0|0:0,0:0:0:0:
118,147,95251,6,0,L|118:104,1,42.5,2|6,0:0|0:0,0:0:0:0:
112,231,95740,5,0,1:2:0:0:
212,150,95903,2,0,P|158:150|112:147,1,93.5000028533936,2|0,3:2|1:2,0:0:0:0:
19,230,96229,2,0,P|65:232|112:232,1,93.5000028533936,8|0,0:0|1:2,0:0:0:0:
261,294,96555,6,0,B|162:267|163:360|49:322,1,203.999993774414,2|10,3:2|0:0,0:0:0:0:
112,231,97044,1,0,1:2:0:0:
221,371,97207,2,0,P|265:382|309:368,1,93.5000028533936,2|0,3:2|1:2,0:0:0:0:
452,211,97533,2,0,P|407:199|363:213,1,93.5000028533936,8|2,0:0|1:2,0:0:0:0:
309,367,97859,5,2,3:2:0:0:
363,212,98022,1,2,1:2:0:0:
403,383,98185,1,10,0:0:0:0:
274,263,98348,1,2,1:2:0:0:
403,383,98511,6,0,P|405:336|407:289,1,93.5000028533936,2|2,3:2|1:2,0:0:0:0:
378,119,98837,1,10,0:0:0:0:
274,263,99001,1,2,1:2:0:0:
295,93,99164,6,0,B|398:111|412:23|499:58,1,203.999993774414,2|10,3:2|0:0,0:0:0:0:
455,139,99653,1,0,1:2:0:0:
340,11,99816,2,0,P|295:0|251:12,1,93.5000028533936,2|0,3:2|1:2,0:0:0:0:
154,93,100142,1,8,0:0:0:0:
295,177,100305,1,8,1:2:0:0:
295,177,100386,1,8,0:0:0:0:
295,177,100468,6,0,P|294:116|295:70,1,85,2|0,3:2|1:2,0:0:0:0:
105,166,100794,2,0,P|151:184|198:167,1,101.999996887207,10|0,0:0|1:2,0:0:0:0:
349,10,101120,2,0,P|302:-5|255:9,1,101.999996887207,2|0,3:2|1:2,0:0:0:0:
105,166,101446,1,10,0:0:0:0:
56,93,101609,1,2,1:2:0:0:
295,177,101772,6,0,P|294:116|295:70,1,85,2|0,3:2|1:2,0:0:0:0:
105,166,102098,2,0,P|151:184|198:167,1,101.999996887207,10|0,0:0|1:2,0:0:0:0:
349,10,102424,2,0,P|302:-6|255:9,1,101.999996887207,2|0,3:2|1:2,0:0:0:0:
295,177,102751,2,0,P|364:176|396:176,1,93.5000028533936,8|0,0:0|1:2,0:0:0:0:
198,166,103077,5,2,3:2:0:0:
253,9,103240,1,2,1:2:0:0:
295,177,103403,1,10,0:0:0:0:
251,91,103566,1,2,1:2:0:0:
139,229,103729,2,0,P|91:244|43:228,1,93.5000028533936,0|2,3:2|1:2,0:0:0:0:
6,77,104055,2,0,P|54:62|102:78,1,93.5000028533936,10|2,0:0|1:2,0:0:0:0:
51,233,104381,5,2,3:2:0:0:
11,83,104544,1,2,1:2:0:0:
11,83,104626,1,2,0:0:0:0:
11,83,104707,1,10,0:0:0:0:
53,150,104870,1,2,1:2:0:0:
94,73,105033,1,2,3:2:0:0:
147,234,105196,6,0,L|147:280,1,46.7500014266968,10|0,0:0|0:0,0:0:0:0:
79,384,105359,2,0,L|79:337,1,46.7500014266968,2|0,3:2|0:0,0:0:0:0:
165,238,105522,2,0,L|165:284,1,46.7500014266968,10|0,0:0|0:0,0:0:0:0:
172,369,105685,6,0,P|218:373|248:360,1,63.7500024318696,2|2,0:0|0:0,0:0:0:0:
293,310,106011,2,0,P|323:303|355:308,1,63.7500024318696,2|2,0:0|0:0,0:0:0:0:
427,355,106337,1,2,0:0:0:0:
427,355,106664,6,0,P|458:352|490:348,2,63.7500024318696,2|2|2,0:0|0:0|0:0,0:0:0:0:
345,227,107316,2,0,P|313:224|281:220,2,63.7500024318696,2|2|2,0:0|0:0|0:0,0:0:0:0:
345,227,107968,2,0,P|348:178|350:154,1,63.7500024318696,2|2,0:0|0:0,0:0:0:0:
452,118,108294,6,0,P|497:123|512:115,1,63.7500024318696,2|2,0:0|0:0,0:0:0:0:
508,27,108620,2,0,P|463:22|448:30,1,63.7500024318696,2|2,0:0|0:0,0:0:0:0:
380,80,108946,2,0,P|348:78|316:76,1,63.7500024318696,2|2,0:0|0:0,0:0:0:0:
242,23,109272,1,2,0:0:0:0:
242,23,109598,6,0,B|185:13|195:60|111:44,1,127.500004863739,2|2,0:0|0:0,0:0:0:0:
30,18,110087,1,2,0:0:0:0:
30,18,110251,2,0,P|31:53|29:95,1,63.7500024318696,2|0,0:0|0:0,0:0:0:0:
14,178,110577,2,0,P|42:164|73:167,1,63.7500024318696,2|2,0:0|0:0,0:0:0:0:
123,243,110903,1,2,0:0:0:0:
123,243,111229,6,0,P|118:274|115:306,2,63.7500024318696,2|2|2,0:0|0:0|0:0,0:0:0:0:
14,310,111881,2,0,P|18:341|21:373,2,63.7500024318696,2|2|2,0:0|0:0|0:0,0:0:0:0:
197,286,112533,2,0,P|258:271|308:308,1,127.500004863739,2|2,0:0|0:0,0:0:0:0:
307,306,113185,2,0,P|305:337|306:369,1,63.7500024318696,2|2,0:0|0:0,0:0:0:0:
391,347,113511,5,2,0:0:0:0:
391,347,113674,2,0,B|464:353|449:291|535:317,1,127.500004863739,2|2,0:0|0:0,0:0:0:0:
512,225,114164,2,0,P|521:195|510:165,1,63.7500024318696,2|2,0:0|0:0,0:0:0:0:
512,83,114490,2,0,P|482:73|452:84,1,63.7500024318696,2|2,0:0|0:0,0:0:0:0:
421,171,114816,5,2,0:0:0:0:
421,171,114979,2,0,P|379:166|421:167,1,127.500004863739,2|2,0:0|0:0,0:0:0:0:
421,167,115468,5,2,0:0:0:0:
