osu file format v14

[General]
AudioFilename: audio.mp3
AudioLeadIn: 0
PreviewTime: 92344
Countdown: 0
SampleSet: Soft
StackLeniency: 0.7
Mode: 0
LetterboxInBreaks: 0
WidescreenStoryboard: 1

[Editor]
Bookmarks: 37,9102,10256,10586,14542,15201,15861,20311,20641,21135,29047,31685,34322,42234,44377,44542,44872,47179,47509,49817,50146,51300,52454,52784,56740,58058,63333,68608,69927,71245,71328,71410,71493,71575,71657,71740,71822,71905,71987,72069,72152,72234,72317,72399,72482,72564,72646,72729,72811,72894,72976,73058,73141,73223,73306,73388,73471,73553,73635,73718,73800,73883,73965,74047,74130,74212,74295,74377,74460,74542,74624,74707,74789,74872,74954,75037,75119,75201,75284,75366,75449,75531,75613,75696,75778,75861,75943,76026,76108,76190,76273,76355,76438,76520,76602,76685,76767,76850,76932,77015,77097,77179,77262,77344,77427,77509,77591,77674,77756,77839,77921,78004,78086,78168,78251,78333,78416,78498,78580,78663,78745,78828,78910,78993,79157,79240,79322,79405,79487,79569,79652,79734,79817,79899,79982,80064,80146,80229,80311,80394,80476,80558,80641,80723,80806,80888,80971,81053,81135,81218,81300,81383,81465,81547,81630,81712,81795,83113,84432,85751,87069,88388,89707,91026,91355,92344,93663,94982,96300,97619,98938,100256,101575,102894,103223,106685,108168,109487,112124,113443,117399,118058,118718,127784,128938
DistanceSpacing: 1.3
BeatDivisor: 4
GridSize: 8
TimelineZoom: 2.899999

[Metadata]
Title:Marshmary
TitleUnicode:マシュマリー
Artist:MIMI feat. MORE MORE JUMP!, Hatsune Miku
ArtistUnicode:MIMI feat. MORE MORE JUMP!, 初音ミク
Creator:Share
Version:Sanayui's Hard
Source:プロジェクトセカイ カラフルステージ! feat. 初音ミク
Tags:Vocaloid Project Sekai Japanese rhythm game videogame freezinganimenz
BeatmapID:3687362
BeatmapSetID:1599289

[Difficulty]
HPDrainRate:5
CircleSize:3.3
OverallDifficulty:6
ApproachRate:8
SliderMultiplier:1.3
SliderTickRate:1

[Events]
//Background and Video events
0,0,"miku marshmary.png",0,0
//Break Periods
2,71445,81045
//Storyboard Layer 0 (Background)
//Storyboard Layer 1 (Fail)
//Storyboard Layer 2 (Pass)
//Storyboard Layer 3 (Foreground)
//Storyboard Layer 4 (Overlay)
//Storyboard Sound Samples

[TimingPoints]
37,329.67032967033,4,2,1,40,1,0
10586,-98.0392156862745,4,2,1,40,0,0
21135,-100,4,2,1,40,0,0
31685,-98.0392156862745,4,2,1,40,0,0
42234,-100,4,2,1,40,0,0
52784,-95.2380952380952,4,2,1,40,0,1
69927,-95.2380952380952,4,2,1,40,0,0
71245,-98.0392156862745,4,2,1,40,0,0
103223,-93.4579439252336,4,2,1,40,0,1
112124,-93.4579439252336,4,2,1,40,0,0
113443,-98.0392156862745,4,2,1,40,0,0
123993,-100,4,2,1,40,0,0

[Colours]
Combo1 : 204,234,234
Combo2 : 18,213,254
Combo3 : 41,138,235
Combo4 : 228,217,3
Combo5 : 255,75,255

[HitObjects]
47,313,37,6,0,L|62:407,2,65
96,244,531,2,0,L|85:179,2,65
14,95,1190,6,0,P|83:59|131:76,1,130
201,117,1685,1,0,0:0:0:0:
265,62,1850,2,0,L|257:20,2,32.5
348,72,2179,2,0,L|335:-4,2,65
417,120,2674,6,0,P|462:112|487:115,2,65
356,178,3168,2,0,P|311:158|279:162,1,65
221,198,3498,1,0,0:0:0:0:
75,110,3828,6,0,P|41:181|59:248,1,130
31,312,4322,2,0,P|81:306|96:294,1,65
252,353,4817,2,0,P|218:338|188:338,1,65
358,314,5311,6,0,L|350:381,2,65
426,263,5806,2,0,L|433:198,2,65
507,114,6465,6,0,P|466:89|382:100,1,130
327,36,6960,1,0,0:0:0:0:
245,57,7124,2,0,L|249:14,2,32.5
164,84,7454,2,0,L|170:5,2,65
101,141,7949,6,0,P|61:117|24:120,2,65
262,191,8608,2,0,P|297:173|331:176,1,65
385,117,8938,1,0,0:0:0:0:
465,140,9102,6,0,B|426:299|477:343|477:343|339:268|245:352,1,455
77,354,10586,6,0,P|81:309|107:284,1,66.3000004046631
178,278,10916,2,0,L|155:127,1,132.600000809326
88,96,11410,1,0,0:0:0:0:
141,29,11575,1,0,0:0:0:0:
141,29,11740,1,0,0:0:0:0:
226,40,11905,6,0,L|317:51,1,66.3000004046631
373,20,12234,2,0,P|377:64|363:91,1,66.3000004046631
306,144,12564,2,0,P|290:202|294:216,1,66.3000004046631
365,250,12894,1,0,0:0:0:0:
442,213,13058,1,0,0:0:0:0:
499,277,13223,6,0,L|486:350,1,66.3000004046631
407,376,13553,2,0,P|371:344|341:343,1,66.3000004046631
291,281,13883,2,0,P|249:285|221:311,1,66.3000004046631
177,367,14212,1,0,0:0:0:0:
107,316,14377,1,0,0:0:0:0:
23,338,14542,6,0,L|36:261,3,66.3000004046631
16,188,15201,2,0,L|29:111,3,66.3000004046631
16,36,15861,6,0,P|51:37|83:56,1,66.3000004046631
160,26,16190,2,0,P|203:67|287:54,1,132.600000809326
349,24,16685,1,0,0:0:0:0:
436,48,16850,1,0,0:0:0:0:
436,48,17015,1,0,0:0:0:0:
473,125,17179,6,0,P|425:134|400:122,1,66.3000004046631
361,200,17509,2,0,L|375:273,1,66.3000004046631
288,283,17839,2,0,L|275:217,1,66.3000004046631
206,166,18168,1,0,0:0:0:0:
137,218,18333,1,0,0:0:0:0:
57,184,18498,6,0,P|48:236|66:271,1,66.3000004046631
39,333,18828,2,0,L|118:320,1,66.3000004046631
187,346,19157,2,0,L|260:354,1,66.3000004046631
328,310,19487,1,0,0:0:0:0:
397,360,19652,1,0,0:0:0:0:
468,311,19817,6,0,P|479:339|475:381,2,66.3000004046631
401,256,20311,1,0,0:0:0:0:
401,256,20641,1,0,0:0:0:0:
328,310,20806,2,0,L|240:296,1,66.3000004046631
223,295,21053,1,0,0:0:0:0:
223,295,21135,6,0,P|211:227|252:163,1,130
322,164,21630,1,0,0:0:0:0:
492,350,22124,2,0,P|490:301|469:278,1,65
407,247,22454,6,0,L|264:281,1,130
198,297,22949,1,0,0:0:0:0:
31,273,23278,2,0,P|15:315|23:345,2,65
97,219,23773,6,0,L|82:85,2,130
225,329,24762,1,0,0:0:0:0:
164,270,24927,6,0,P|211:244|296:275,1,130
349,312,25421,2,0,P|395:323|424:313,1,65
476,264,25751,1,0,0:0:0:0:
486,95,26080,2,0,P|448:94|419:108,1,65
348,143,26410,6,0,P|288:140|255:58,1,130
299,14,26905,1,0,0:0:0:0:
48,51,27399,2,0,P|104:39|125:54,1,65
190,21,27729,6,0,L|164:177,1,130
151,231,28223,1,0,0:0:0:0:
375,349,28718,2,0,P|418:335|444:341,1,65
487,270,29047,6,0,B|461:242|452:212|452:212|479:130,2,130
436,338,29872,1,0,0:0:0:0:
355,364,30037,2,0,P|313:335|287:337,1,65
133,351,30531,6,0,P|89:369|54:359,2,65
86,279,31026,1,0,0:0:0:0:
17,124,31355,2,0,L|32:39,1,65
106,22,31685,6,0,P|158:21|182:38,1,66.3000004046631
235,92,32015,1,0,0:0:0:0:
235,92,32179,1,0,0:0:0:0:
114,321,32674,2,0,P|56:308|32:284,1,66.3000004046631
82,223,33004,6,0,P|140:236|164:260,1,66.3000004046631
202,310,33333,1,0,0:0:0:0:
202,310,33498,1,0,0:0:0:0:
292,163,33828,2,0,L|282:82,2,66.3000004046631
242,233,34322,6,0,P|298:247|316:238,1,66.3000004046631
345,227,34569,1,0,0:0:0:0:
345,227,34652,2,0,P|388:213|420:223,1,66.3000004046631
471,275,34982,2,0,L|460:345,1,66.3000004046631
378,366,35311,2,0,L|388:300,1,66.3000004046631
345,227,35641,6,0,P|301:198|220:218,1,132.600000809326
170,279,36135,1,0,0:0:0:0:
84,266,36300,2,0,P|58:244|55:194,1,66.3000004046631
14,134,36630,2,0,P|70:127|99:141,1,66.3000004046631
129,199,36960,5,0,0:0:0:0:
261,88,37289,1,0,0:0:0:0:
261,88,37454,2,0,L|239:230,1,132.600000809326
181,282,37949,1,0,0:0:0:0:
229,353,38113,6,0,B|274:332|307:342|301:349|336:366|378:347,1,132.600000809326
443,365,38608,2,0,P|433:315|413:291,1,66.3000004046631
363,246,38938,2,0,P|352:177|405:120,1,132.600000809326
472,141,39432,1,0,0:0:0:0:
341,28,39762,6,0,L|267:39,1,66.3000004046631
193,9,40091,2,0,P|190:61|253:124,1,132.600000809326
301,181,40586,1,0,0:0:0:0:
247,248,40751,6,0,L|94:234,1,132.600000809326
33,230,41245,1,0,0:0:0:0:
33,230,41410,1,0,0:0:0:0:
149,357,41740,1,0,0:0:0:0:
149,357,41905,2,0,L|226:341,1,66.3000004046631
296,360,42234,6,0,B|310:316|281:265|234:259|234:259|245:184,1,195
242,199,43553,2,0,P|224:120|330:131,1,195
171,29,44377,1,0,0:0:0:0:
171,29,44542,1,0,0:0:0:0:
25,116,44872,6,0,B|29:193|29:193|43:200|43:200|48:318,1,195
47,302,46190,2,0,B|84:246|140:258|163:305|148:338|148:338|128:365,1,195
242,132,47179,2,0,L|232:48,1,65
310,28,47509,6,0,B|376:13|411:50|396:53|435:83|499:50,1,195
493,52,48828,2,0,P|463:138|474:243,1,195
243,347,49817,2,0,P|287:327|318:342,1,65
375,370,50146,6,0,P|385:320|377:296,2,65
300,330,50641,1,0,0:0:0:0:
386,184,50971,2,0,P|342:157|331:158,1,65
256,197,51300,6,0,P|190:224|109:211,2,130
331,157,52124,1,0,0:0:0:0:
481,234,52454,2,0,P|472:285|469:347,1,97.5
434,356,52784,6,0,P|396:321|305:321,1,136.499995834351
243,370,53278,1,0,0:0:0:0:
170,318,53443,2,0,L|186:232,1,68.2499979171754
126,188,53773,1,0,0:0:0:0:
126,188,53938,6,0,P|181:163|261:197,1,136.499995834351
310,258,54432,1,0,0:0:0:0:
310,258,54597,1,0,0:0:0:0:
390,219,54762,2,0,L|377:135,1,68.2499979171754
426,77,55091,1,0,0:0:0:0:
426,77,55256,6,0,P|361:61|308:100,1,136.499995834351
249,40,55751,1,0,0:0:0:0:
249,40,55916,1,0,0:0:0:0:
167,74,56080,2,0,P|174:114|180:152,1,68.2499979171754
160,228,56410,2,0,P|214:226|241:206,1,68.2499979171754
306,179,56740,5,0,0:0:0:0:
306,179,56905,1,0,0:0:0:0:
391,200,57069,2,0,P|442:180|474:184,2,68.2499979171754
232,280,57729,2,0,P|236:318|242:357,1,68.2499979171754
151,346,58058,6,0,P|89:367|25:318,1,136.499995834351
85,260,58553,1,0,0:0:0:0:
17,202,58718,2,0,P|42:173|81:164,1,68.2499979171754
118,89,59047,2,0,P|150:110|190:122,1,68.2499979171754
265,92,59377,5,0,0:0:0:0:
325,156,59542,2,0,P|365:146|406:144,1,68.2499979171754
471,187,59872,2,0,P|481:129|430:65,1,136.499995834351
385,0,60366,2,0,P|354:33|348:57,1,68.2499979171754
265,92,60696,6,0,P|288:155|303:245,1,136.499995834351
327,308,61190,1,0,0:0:0:0:
150,329,61520,1,0,0:0:0:0:
72,373,61685,2,0,P|62:359|73:300,1,68.2499979171754
57,221,62015,6,0,P|129:233|205:238,1,136.499995834351
280,247,62509,1,0,0:0:0:0:
425,351,62839,1,0,0:0:0:0:
425,351,63004,1,0,0:0:0:0:
498,302,63168,1,0,0:0:0:0:
491,213,63333,6,0,P|427:187|357:215,1,136.499995834351
290,259,63828,1,0,0:0:0:0:
219,205,63993,2,0,P|222:158|224:121,1,68.2499979171754
149,97,64322,1,0,0:0:0:0:
149,97,64487,6,0,P|144:165|139:246,1,136.499995834351
60,270,64982,1,0,0:0:0:0:
60,270,65146,1,0,0:0:0:0:
35,355,65311,2,0,P|84:354|106:344,1,68.2499979171754
189,359,65641,1,0,0:0:0:0:
189,359,65806,6,0,P|229:323|318:336,1,136.499995834351
387,367,66300,1,0,0:0:0:0:
387,367,66465,1,0,0:0:0:0:
471,339,66630,2,0,P|460:297|456:264,1,68.2499979171754
497,192,66960,1,0,0:0:0:0:
497,192,67124,6,0,P|445:177|375:225,1,136.499995834351
307,163,67619,1,0,0:0:0:0:
307,163,67784,1,0,0:0:0:0:
350,85,67949,1,0,0:0:0:0:
187,14,68278,1,0,0:0:0:0:
187,14,68443,1,0,0:0:0:0:
112,62,68608,6,0,P|126:132|137:209,2,136.499995834351
289,51,69597,2,0,P|265:34|217:32,1,68.2499979171754
233,118,69927,5,0,0:0:0:0:
233,118,71245,5,0,0:0:0:0:
233,118,81795,5,0,0:0:0:0:
233,118,81905,2,0,L|241:191,1,44.2000002697754
217,215,82124,2,0,B|211:228|211:228|127:215,1,88.4000005395508
82,234,82454,1,0,0:0:0:0:
82,234,82564,2,0,L|97:180,1,44.2000002697754
111,136,82784,1,0,0:0:0:0:
123,311,83113,5,0,0:0:0:0:
123,311,83223,2,0,L|189:300,1,44.2000002697754
219,327,83443,2,0,L|326:308,1,88.4000005395508
360,331,83773,2,0,B|364:298|364:298|455:312,1,88.4000005395508
468,334,84102,1,0,0:0:0:0:
509,294,84212,1,0,0:0:0:0:
497,237,84322,1,0,0:0:0:0:
440,226,84432,5,0,0:0:0:0:
502,65,84762,2,0,L|389:83,1,88.4000005395508
362,53,85091,1,0,0:0:0:0:
362,53,85201,2,0,L|294:66,1,44.2000002697754
275,100,85421,1,0,0:0:0:0:
275,100,85531,2,0,L|215:86,1,44.2000002697754
175,74,85751,5,0,0:0:0:0:
38,179,86080,1,0,0:0:0:0:
38,179,86190,2,0,L|42:232,1,44.2000002697754
75,270,86410,2,0,P|121:242|186:243,1,88.4000005395508
208,216,86740,1,0,0:0:0:0:
208,216,86850,2,0,P|244:230|257:241,1,44.2000002697754
272,285,87069,5,0,0:0:0:0:
429,355,87399,1,0,0:0:0:0:
429,355,87509,2,0,L|411:293,1,44.2000002697754
471,294,87729,2,0,P|500:259|486:192,1,88.4000005395508
474,172,88058,1,0,0:0:0:0:
353,48,88388,6,0,L|360:-9,2,44.2000002697754
322,97,88718,2,0,P|272:109|238:81,1,88.4000005395508
190,94,89047,1,0,0:0:0:0:
190,94,89157,2,0,P|140:92|124:99,1,44.2000002697754
103,128,89377,1,0,0:0:0:0:
46,116,89487,1,0,0:0:0:0:
28,61,89597,1,0,0:0:0:0:
65,17,89707,5,0,0:0:0:0:
201,122,90037,1,0,0:0:0:0:
201,122,90146,2,0,L|189:177,1,44.2000002697754
221,221,90366,1,0,0:0:0:0:
221,221,90475,2,0,L|276:233,1,44.2000002697754
325,224,90696,1,0,0:0:0:0:
325,224,90805,2,0,L|380:236,1,44.2000002697754
424,218,91026,6,0,P|464:249|454:303,1,88.4000005395508
464,341,91355,2,0,L|373:328,1,66.3000004046631
312,316,91685,2,0,L|217:335,1,66.3000004046631
162,349,92015,1,0,0:0:0:0:
14,261,92344,5,0,0:0:0:0:
14,261,93663,5,0,0:0:0:0:
96,114,94982,5,0,0:0:0:0:
177,363,96300,5,0,0:0:0:0:
477,249,97619,5,0,0:0:0:0:
477,249,98938,5,0,0:0:0:0:
383,58,100256,5,0,0:0:0:0:
162,306,101575,5,0,0:0:0:0:
162,306,101740,2,0,L|237:292,2,66.3000004046631
80,324,102234,1,0,0:0:0:0:
80,324,102399,1,0,0:0:0:0:
31,252,102564,1,0,0:0:0:0:
83,183,102729,1,0,0:0:0:0:
33,112,102894,6,0,P|79:95|136:113,1,99.4500006069946
171,109,103223,6,0,P|201:60|231:55,1,69.5499978775025
291,17,103553,2,0,P|335:27|356:48,1,69.5499978775025
443,36,103883,1,0,0:0:0:0:
443,36,104047,6,0,L|412:178,1,139.099995755005
476,245,104542,1,0,0:0:0:0:
476,245,104707,1,0,0:0:0:0:
405,301,104872,2,0,P|358:268|329:269,1,69.5499978775025
277,324,105201,1,0,0:0:0:0:
277,324,105366,6,0,L|125:341,1,139.099995755005
62,299,105861,1,0,0:0:0:0:
62,299,106026,1,0,0:0:0:0:
47,210,106190,2,0,P|93:213|120:237,1,69.5499978775025
199,204,106520,1,0,0:0:0:0:
141,133,106685,6,0,P|143:85|170:61,1,69.5499978775025
237,30,107015,1,0,0:0:0:0:
323,70,107179,1,0,0:0:0:0:
323,70,107344,1,0,0:0:0:0:
403,29,107509,1,0,0:0:0:0:
478,78,107674,6,0,L|461:157,1,69.5499978775025
386,192,108004,1,0,0:0:0:0:
386,192,108168,1,0,0:0:0:0:
217,141,108498,1,0,0:0:0:0:
217,141,108663,2,0,L|229:216,1,69.5499978775025
142,229,108993,1,0,0:0:0:0:
142,229,109157,2,0,L|126:154,1,69.5499978775025
45,120,109487,5,0,0:0:0:0:
7,297,109817,1,0,0:0:0:0:
73,358,109982,2,0,P|117:324|208:334,1,139.099995755005
287,327,110476,2,0,P|321:356|354:357,1,69.5499978775025
435,364,110806,6,0,P|486:323|461:248,1,139.099995755005
383,243,111300,1,0,0:0:0:0:
384,152,111465,2,0,P|350:152|314:198,1,69.5499978775025
251,229,111795,1,0,0:0:0:0:
179,173,111960,1,0,0:0:0:0:
240,107,112124,5,0,0:0:0:0:
240,107,113443,6,0,L|158:113,1,66.3000004046631
113,49,113773,2,0,P|81:105|111:173,1,132.600000809326
37,221,114267,1,0,0:0:0:0:
88,290,114432,1,0,0:0:0:0:
88,290,114597,1,0,0:0:0:0:
65,373,114762,6,0,L|153:359,1,66.3000004046631
216,367,115091,2,0,P|214:325|192:301,1,66.3000004046631
163,227,115421,2,0,P|153:187|175:150,1,66.3000004046631
231,113,115751,1,0,0:0:0:0:
300,164,115916,1,0,0:0:0:0:
378,129,116080,6,0,L|453:141,1,66.3000004046631
507,198,116410,2,0,P|496:247|476:270,1,66.3000004046631
436,329,116740,2,0,P|382:330|358:310,1,66.3000004046631
303,272,117069,1,0,0:0:0:0:
247,338,117234,1,0,0:0:0:0:
168,302,117399,6,0,L|91:319,3,66.3000004046631
40,256,118058,2,0,P|26:187|124:109,1,198.900001213989
154,124,118635,1,0,0:0:0:0:
154,124,118718,6,0,P|199:142|229:139,1,66.3000004046631
265,212,119047,2,0,P|339:197|361:119,1,132.600000809326
397,70,119542,1,0,0:0:0:0:
334,19,119707,1,0,0:0:0:0:
334,19,119872,1,0,0:0:0:0:
252,46,120037,6,0,L|261:130,1,66.3000004046631
212,184,120366,2,0,P|168:187|146:173,1,66.3000004046631
94,109,120696,2,0,P|64:143|64:170,1,66.3000004046631
8,229,121026,1,0,0:0:0:0:
19,314,121190,1,0,0:0:0:0:
88,365,121355,6,0,P|117:334|168:335,1,66.3000004046631
205,273,121685,2,0,L|276:310,1,66.3000004046631
321,368,122015,2,0,L|394:363,1,66.3000004046631
465,328,122344,1,0,0:0:0:0:
429,249,122509,1,0,0:0:0:0:
488,186,122674,6,0,L|496:103,2,66.3000004046631
429,249,123168,1,0,0:0:0:0:
429,249,123498,1,0,0:0:0:0:
349,215,123663,2,0,P|301:205|275:217,1,66.3000004046631
221,265,123993,6,0,L|235:334,2,65
146,224,124487,2,0,L|133:160,2,65
202,64,125146,6,0,P|284:37|345:70,1,130
387,105,125641,1,0,0:0:0:0:
469,86,125806,2,0,L|478:42,2,32.5
444,166,126135,2,0,L|462:243,2,65
368,126,126630,6,0,P|321:115|300:122,1,65
246,179,126960,2,0,P|188:189|132:120,1,130
159,63,127454,1,0,0:0:0:0:
19,159,127784,6,0,L|496:204,1,455
