osu file format v14

[General]
AudioFilename: audio.mp3
AudioLeadIn: 0
PreviewTime: 92344
Countdown: 0
SampleSet: Soft
StackLeniency: 0.7
Mode: 0
LetterboxInBreaks: 0
WidescreenStoryboard: 1

[Editor]
Bookmarks: 10604,21153,31703,42252,52802
DistanceSpacing: 1
BeatDivisor: 4
GridSize: 16
TimelineZoom: 2.2

[Metadata]
Title:Marshmary
TitleUnicode:マシュマリー
Artist:MIMI feat. MORE MORE JUMP!, Hatsune Miku
ArtistUnicode:MIMI feat. MORE MORE JUMP!, 初音ミク
Creator:Share
Version:Freezing's Normal
Source:プロジェクトセカイ カラフルステージ! feat. 初音ミク
Tags:Vocaloid Project Sekai Japanese rhythm game videogame freezinganimenz
BeatmapID:3684689
BeatmapSetID:1599289

[Difficulty]
HPDrainRate:3
CircleSize:3
OverallDifficulty:4
ApproachRate:5
SliderMultiplier:1.1
SliderTickRate:1

[Events]
//Background and Video events
0,0,"miku marshmary.png",0,0
//Break Periods
2,21335,30485
2,92544,100375
//Storyboard Layer 0 (Background)
//Storyboard Layer 1 (Fail)
//Storyboard Layer 2 (Pass)
//Storyboard Layer 3 (Foreground)
//Storyboard Layer 4 (Overlay)
//Storyboard Sound Samples

[TimingPoints]
37,329.67032967033,4,2,1,40,1,0
9102,-100,4,2,1,40,0,0
10586,-100,4,2,1,55,0,0
21135,-100,4,2,1,55,0,0
31685,-100,4,2,1,55,0,0
52784,-90.9090909090909,4,2,1,60,0,1
71740,-100,4,2,1,30,0,0
101575,-90.9090909090909,4,2,1,40,0,1
102564,-90.9090909090909,4,1,1,40,0,1
102894,-90.9090909090909,4,2,1,40,0,1
116080,-100,4,2,1,40,0,0
123993,-100,4,2,1,40,0,0
127784,-100,4,2,1,40,0,0

[Colours]
Combo1 : 204,234,234
Combo2 : 18,213,254
Combo3 : 41,138,235
Combo4 : 228,217,3
Combo5 : 255,75,255

[HitObjects]
21,98,10586,6,0,P|72:70|138:75,1,110
220,120,11245,2,0,L|283:126,1,55
325,103,11575,2,0,L|386:84,1,55
433,89,11905,2,0,P|472:130|465:197,1,110
443,227,12399,1,0,0:0:0:0:
443,227,12564,2,0,L|381:222,1,55
334,235,12894,1,0,0:0:0:0:
226,214,13223,6,0,P|177:197|111:211,1,110
85,249,13718,1,0,0:0:0:0:
85,249,13883,2,0,L|104:327,1,55
100,357,14212,1,0,0:0:0:0:
207,382,14542,2,0,P|257:357|317:371,1,110
363,364,15037,1,0,0:0:0:0:
363,364,15201,2,0,L|432:347,1,55
470,336,15531,1,0,0:0:0:0:
470,225,15861,6,0,P|478:175|439:111,1,110
406,105,16355,1,0,0:0:0:0:
406,105,16520,2,0,L|341:97,1,55
299,118,16850,1,0,0:0:0:0:
191,97,17179,2,0,P|132:78|74:106,1,110
44,127,17674,1,0,0:0:0:0:
44,127,17839,2,0,L|27:188,1,55
20,234,18168,2,0,L|37:295,1,55
60,336,18498,6,0,P|133:348|181:326,1,110
257,276,19157,2,0,L|317:265,1,55
353,301,19487,2,0,L|413:303,1,55
459,282,19817,2,0,P|489:236|466:168,1,110
449,138,20311,2,0,L|330:125,1,110
296,91,20806,1,0,0:0:0:0:
203,149,21135,1,0,0:0:0:0:
59,54,31685,6,0,P|43:124|73:165,1,110
107,182,32179,2,0,L|105:301,1,110
84,343,32674,1,0,0:0:0:0:
189,374,33004,2,0,P|235:348|308:367,1,110
344,358,33498,2,0,L|465:328,1,110
506,333,33993,1,0,0:0:0:0:
482,225,34322,2,0,P|499:178|465:124,1,110
386,58,34982,2,0,L|314:50,1,55
279,70,35311,2,0,L|207:62,1,55
170,50,35641,6,0,P|103:75|89:125,1,110
63,154,36135,2,0,L|85:280,1,110
59,313,36630,1,0,0:0:0:0:
149,375,36960,2,0,P|200:355|266:372,1,110
363,369,37619,2,0,L|432:352,1,55
451,331,37949,1,0,0:0:0:0:
451,331,38113,2,0,P|478:280|460:218,1,110
472,175,38608,1,0,0:0:0:0:
392,99,38938,2,0,L|326:79,1,55
284,83,39267,1,0,0:0:0:0:
183,38,39597,6,0,P|127:32|84:73,1,110
53,107,40091,2,0,L|83:222,1,110
93,272,40586,1,0,0:0:0:0:
93,272,40751,2,0,P|159:306|205:287,1,110
238,271,41245,1,0,0:0:0:0:
343,240,41575,2,0,L|414:244,1,55
444,273,41905,1,0,0:0:0:0:
509,184,42234,6,0,P|520:144|485:82,1,110
436,73,42729,2,0,L|321:56,1,110
273,68,43223,1,0,0:0:0:0:
162,69,43553,2,0,P|178:125|161:191,1,110
121,202,44047,2,0,L|137:324,1,110
168,355,44542,1,0,0:0:0:0:
278,359,44872,6,0,P|321:329|390:338,1,110
429,345,45366,2,0,L|474:241,1,110
496,194,45861,1,0,0:0:0:0:
438,100,46190,2,0,P|393:67|322:77,1,110
298,104,46685,2,0,L|189:123,1,110
137,105,47179,1,0,0:0:0:0:
81,199,47509,6,0,P|72:259|106:311,1,110
132,340,48004,2,0,L|253:338,1,110
293,318,48498,1,0,0:0:0:0:
293,318,48663,2,0,P|322:284|313:212,1,110
292,173,49157,1,0,0:0:0:0:
198,231,49487,2,0,L|133:248,1,55
89,242,49817,5,0,0:0:0:0:
89,242,49982,2,0,P|60:199|79:141,1,110
156,72,50641,2,0,L|273:92,1,110
318,116,51135,1,0,0:0:0:0:
318,116,51300,2,0,P|352:152|346:215,1,110
275,292,51960,1,0,0:0:0:0:
275,292,52124,1,0,0:0:0:0:
165,300,52454,1,0,0:0:0:0:
109,198,52784,6,0,P|92:143|140:102,1,121.000003692627,0|0,3:0|3:0,3:0:0:0:
249,136,53443,2,0,L|322:119,1,60.5000018463135
362,91,53773,1,0,0:0:0:0:
362,91,53938,2,0,P|423:78|475:127,1,121.000003692627
493,165,54432,1,0,0:0:0:0:
441,274,54762,2,0,L|375:286,1,60.5000018463135
323,266,55091,5,0,0:0:0:0:
323,266,55256,2,0,P|284:235|210:239,1,121.000003692627
167,274,55751,1,0,0:0:0:0:
65,208,56080,2,0,L|47:135,1,60.5000018463135
65,93,56410,1,0,0:0:0:0:
65,93,56575,2,0,P|118:71|187:99,1,121.000003692627
225,124,57069,1,0,0:0:0:0:
343,97,57399,2,0,L|411:84,1,60.5000018463135
451,49,57729,1,0,0:0:0:0:
502,158,58058,6,0,P|516:223|480:271,1,121.000003692627
373,306,58718,2,0,L|325:352,2,60.5000018463135
373,245,59212,2,0,P|350:204|265:200,1,121.000003692627
222,176,59707,1,0,0:0:0:0:
115,234,60037,2,0,L|49:216,1,60.5000018463135
21,168,60366,1,0,0:0:0:0:
67,74,60696,6,0,P|126:48|179:74,1,121.000003692627
232,85,61190,2,0,L|364:69,1,121.000003692627
401,34,61685,1,0,0:0:0:0:
491,114,62015,2,0,P|498:177|452:223,1,121.000003692627
408,245,62509,2,0,L|274:228,1,121.000003692627
237,196,63004,1,0,0:0:0:0:
121,232,63333,6,0,P|84:288|112:348,1,121.000003692627
212,378,63993,2,0,L|272:364,1,60.5000018463135
335,364,64322,1,0,0:0:0:0:
335,364,64487,2,0,P|374:335|367:261,1,121.000003692627
334,219,64982,1,0,0:0:0:0:
221,167,65311,2,0,L|148:145,1,60.5000018463135
134,102,65641,5,0,0:0:0:0:
134,102,65806,2,0,P|167:53|231:53,1,121.000003692627
284,60,66300,1,0,0:0:0:0:
386,126,66630,2,0,L|458:115,2,60.5000018463135
347,173,67124,2,0,P|291:168|231:219,1,121.000003692627
185,231,67619,2,0,L|106:219,1,60.5000018463135
69,196,67949,1,0,0:0:0:0:
31,310,68278,2,0,L|90:327,1,60.5000018463135
136,365,68608,6,0,P|196:334|267:351,1,121.000003692627
310,334,69102,1,0,0:0:0:0:
310,334,69267,2,0,L|328:263,1,60.5000018463135
291,225,69597,2,0,L|283:152,1,60.5000018463135
307,108,69927,1,0,0:0:0:0:
490,244,71245,6,0,L|423:236,1,60.5000018463135
388,200,71575,1,0,0:0:0:0:
388,200,71740,2,0,P|325:197|285:245,1,110
252,264,72234,1,0,0:0:0:0:
142,258,72564,2,0,L|76:244,1,55
48,208,72894,1,0,0:0:0:0:
56,98,73223,2,0,L|124:81,1,55
161,102,73553,2,0,L|214:115,1,55
269,120,73883,6,0,P|329:122|365:68,1,110
407,57,74377,1,0,0:0:0:0:
407,57,74542,2,0,L|466:87,1,55
496,119,74872,1,0,0:0:0:0:
506,228,75201,2,0,P|459:264|403:250,1,110
358,242,75696,1,0,0:0:0:0:
358,242,75861,2,0,L|294:251,1,55
261,285,76190,1,0,0:0:0:0:
174,353,76520,6,0,P|158:304|93:272,1,110
63,244,77015,1,0,0:0:0:0:
63,244,77179,2,0,L|45:175,1,55
29,139,77509,1,0,0:0:0:0:
98,53,77839,6,0,P|150:29|216:51,1,110
247,66,78333,1,0,0:0:0:0:
247,66,78498,2,0,L|319:57,1,55
353,40,78828,1,0,0:0:0:0:
462,51,79157,6,0,P|501:94|487:157,1,110
473,195,79652,1,0,0:0:0:0:
473,195,79817,2,0,L|404:215,1,55
365,202,80146,1,0,0:0:0:0:
271,144,80476,6,0,P|221:133|159:163,1,110
124,187,80971,1,0,0:0:0:0:
124,187,81135,2,0,L|162:310,1,110
255,340,81795,6,0,P|311:350|357:307,1,110
430,244,82454,2,0,L|440:183,1,55
426,135,82784,1,0,0:0:0:0:
325,178,83113,6,0,P|282:160|215:173,1,110
113,197,83773,2,0,L|57:189,1,55
13,156,84102,1,0,0:0:0:0:
77,66,84432,2,0,P|112:44|191:55,1,110
269,110,85091,2,0,L|331:98,1,55
371,72,85421,1,0,0:0:0:0:
460,136,85751,6,0,P|480:183|464:242,1,110
358,258,86410,2,0,L|302:253,2,55
436,335,87069,2,0,P|377:372|322:357,1,110
229,373,87729,2,0,L|162:370,1,55
122,350,88058,1,0,0:0:0:0:
56,261,88388,6,0,P|43:210|72:158,1,110
163,106,89047,2,0,L|232:90,1,55
270,106,89377,1,0,0:0:0:0:
375,75,89707,2,0,P|404:118|391:179,1,110
309,241,90366,2,0,L|234:228,1,55
199,237,90696,2,0,L|144:246,1,55
92,264,91026,6,0,P|64:306|97:358,1,110
196,381,91685,2,0,L|262:359,1,55
301,346,92015,1,0,0:0:0:0:
336,242,92344,1,0,0:0:0:0:
37,93,101575,6,0,L|162:72,1,121.000003692627
192,24,102069,2,0,P|258:18|302:63,1,121.000003692627
320,107,102564,1,0,0:0:0:0:
244,201,102894,2,0,L|187:181,1,60.5000018463135
126,172,103223,6,0,P|59:179|36:237,1,121.000003692627
75,341,103883,1,0,0:0:0:0:
75,341,104047,2,0,L|217:315,1,121.000003692627
248,346,104542,2,0,L|314:332,1,60.5000018463135
368,337,104872,2,0,P|399:305|370:229,1,121.000003692627
336,196,105366,6,0,L|209:225,1,121.000003692627
157,212,105861,1,0,0:0:0:0:
83,116,106190,2,0,L|131:53,1,60.5000018463135
163,25,106520,1,0,0:0:0:0:
163,25,106685,2,0,P|219:20|264:61,1,121.000003692627
314,94,107179,1,0,0:0:0:0:
405,173,107509,2,0,L|386:250,1,60.5000018463135
353,280,107839,2,0,L|281:298,1,60.5000018463135
233,296,108168,6,0,P|181:265|112:293,1,121.000003692627
10,241,108828,2,0,L|-5:178,1,60.5000018463135
22,127,109157,1,0,0:0:0:0:
22,127,109322,2,0,P|77:102|150:126,1,121.000003692627
184,148,109817,1,0,0:0:0:0:
295,100,110146,2,0,L|356:84,1,60.5000018463135
412,67,110476,2,0,L|470:82,1,60.5000018463135
496,137,110806,6,0,P|504:200|453:230,1,121.000003692627
420,273,111300,1,0,0:0:0:0:
420,273,111465,2,0,L|347:289,1,60.5000018463135
301,271,111795,2,0,L|229:262,1,60.5000018463135
186,289,112124,1,0,0:0:0:0:
25,71,113443,6,0,P|62:47|137:60,1,121.000003692627
199,58,113938,1,0,0:0:0:0:
199,58,114102,2,0,L|275:48,1,60.5000018463135
318,62,114432,1,0,0:0:0:0:
437,44,114762,2,0,P|482:88|469:146,1,121.000003692627
471,204,115256,1,0,0:0:0:0:
471,204,115421,2,0,L|400:213,1,60.5000018463135
352,193,115751,1,0,0:0:0:0:
243,176,116080,6,0,P|193:196|130:172,1,110
93,152,116575,1,0,0:0:0:0:
93,152,116740,2,0,L|26:171,1,55
6,210,117069,1,0,0:0:0:0:
53,309,117399,2,0,L|116:321,1,55
143,361,117729,2,0,L|197:350,1,55
246,327,118058,2,0,P|283:294|342:296,1,110
429,230,118718,6,0,L|446:96,1,110
423,69,119212,1,0,0:0:0:0:
423,69,119377,2,0,L|348:45,1,55
315,52,119707,1,0,0:0:0:0:
207,30,120037,2,0,L|135:44,1,55
114,81,120366,2,0,L|60:70,1,55
6,86,120696,2,0,P|-10:142|12:192,1,110
87,264,121355,6,0,L|211:250,1,110
250,231,121850,1,0,0:0:0:0:
250,231,122015,2,0,L|330:230,1,55
353,255,122344,1,0,0:0:0:0:
461,238,122674,2,0,P|482:205|471:124,1,110
437,98,123168,2,0,L|312:68,1,110
274,70,123663,1,0,0:0:0:0:
173,114,123993,1,0,0:0:0:0:
