osu file format v14

[General]
AudioFilename: audio.mp3
AudioLeadIn: 0
PreviewTime: 31290
Countdown: 0
SampleSet: Soft
StackLeniency: 0.7
Mode: 0
LetterboxInBreaks: 0
WidescreenStoryboard: 0

[Editor]
DistanceSpacing: 0.9
BeatDivisor: 4
GridSize: 8
TimelineZoom: 1.8

[Metadata]
Title:Mizuoto to Curtain
TitleUnicode:水音とカーテン
Artist:MIMI feat. Hatsune Miku
ArtistUnicode:MIMI feat. 初音ミク
Creator:Mak Kau Hijau
Version:Normal
Source:
Tags:佐藤主税 vocaloid japanese novelty
BeatmapID:2106454
BeatmapSetID:1001653

[Difficulty]
HPDrainRate:3
CircleSize:3
OverallDifficulty:5
ApproachRate:6
SliderMultiplier:1.05
SliderTickRate:1

[Events]
//Background and Video events
0,0,"wowo.jpg",0,0
//Break Periods
2,55620,56951
2,73685,82669
2,104652,112669
2,140781,144693
//Storyboard Layer 0 (Background)
//Storyboard Layer 1 (Fail)
//Storyboard Layer 2 (Pass)
//Storyboard Layer 3 (Foreground)
//Storyboard Layer 4 (Overlay)
//Storyboard Sound Samples

[TimingPoints]
1227,322.58064516129,4,2,1,50,1,0
1227,-100,4,2,1,50,0,0
11549,-100,4,2,2,50,0,0
21872,-100,4,2,1,40,0,0
28888,-100,4,2,1,5,0,0
28968,-100,4,2,1,40,0,0
29210,-100,4,2,1,5,0,0
29291,-100,4,2,1,40,0,0
29533,-100,4,2,1,5,0,0
29614,-100,4,2,1,40,0,0
31226,-100,4,2,1,40,0,0
31549,-100,4,2,1,50,0,0
31872,-100,4,2,1,45,0,0
32194,-100,4,2,3,70,0,1
52839,-100,4,2,3,60,0,0
55420,-100,4,2,3,60,0,0
73485,-100,4,2,1,40,0,0
83807,-100,4,2,2,50,0,0
94130,-100,4,2,2,50,0,0
103323,-100,4,2,1,50,0,0
104452,-100,4,2,1,40,0,0
113807,-100,4,2,1,40,0,0
114130,-100,4,2,1,50,0,0
114775,-100,4,2,3,70,0,1
125097,-100,4,2,1,40,0,0
125420,-100,4,2,3,70,0,1
135420,-100,4,2,3,70,0,0
145743,-100,4,2,3,65,0,1
156065,-100,4,2,1,40,0,0
166388,-100,4,2,1,5,0,0

[Colours]
Combo1 : 45,45,255
Combo2 : 255,128,64
Combo3 : 0,255,255
Combo4 : 255,40,40

[HitObjects]
26,215,1227,6,0,P|73:204|125:226,1,105,6|0,0:0|0:0,0:0:0:0:
155,259,1710,2,0,P|202:279|252:269,1,105,2|0,0:0|0:0,0:0:0:0:
298,254,2194,1,2,0:0:0:0:
380,300,2517,6,0,L|392:192,1,105,0|2,0:0|0:0,0:0:0:0:
393,149,3001,2,0,P|335:154|285:122,1,105,2|2,0:0|0:0,0:0:0:0:
265,95,3485,1,2,0:0:0:0:
184,46,3807,6,0,L|80:59,1,105,0|0,0:0|0:0,0:0:0:0:
61,102,4291,2,0,P|76:139|58:210,1,105,2|0,0:0|0:0,0:0:0:0:
51,246,4775,1,2,0:0:0:0:
100,326,5097,6,0,P|153:306|213:322,1,105,0|2,0:0|0:0,0:0:0:0:
242,334,5581,2,0,P|281:298|287:243,1,105,2|0,0:0|0:0,0:0:0:0:
276,202,6065,1,2,0:0:0:0:
235,116,6388,6,0,P|291:119|347:87,1,105,6|2,0:0|0:0,0:0:0:0:
373,71,6872,1,0,0:0:0:0:
420,74,7033,1,2,0:0:0:0:
485,142,7356,1,2,0:0:0:0:
403,188,7678,6,0,L|411:296,1,105,0|2,0:0|0:0,0:0:0:0:
392,336,8162,2,0,P|353:317|287:338,1,105,2|0,0:0|0:0,0:0:0:0:
260,362,8646,1,2,0:0:0:0:
165,368,8968,6,0,P|132:327|130:271,1,105,6|2,0:0|0:0,0:0:0:0:
152,235,9452,1,0,0:0:0:0:
141,188,9614,1,2,0:0:0:0:
53,222,9936,1,2,0:0:0:0:
0,144,10259,6,0,L|24:28,1,105,0|2,0:0|0:0,0:0:0:0:
68,39,10743,2,0,P|114:52|172:30,1,105,2|0,0:0|0:0,0:0:0:0:
213,28,11226,1,2,0:0:0:0:
293,78,11549,6,0,L|304:198,1,105,0|0,3:0|0:0,0:0:0:0:
309,229,12033,1,0,3:0:0:0:
313,275,12194,1,8,0:0:0:0:
250,345,12517,1,0,0:0:0:0:
161,313,12839,6,0,P|127:268|122:207,1,105,0|0,3:0|0:0,0:0:0:0:
143,180,13323,1,0,3:0:0:0:
190,176,13485,1,8,0:0:0:0:
266,231,13807,1,0,0:0:0:0:
349,187,14130,6,0,L|338:72,1,105,0|0,3:0|0:0,0:0:0:0:
331,35,14614,1,0,3:0:0:0:
292,7,14775,1,8,0:0:0:0:
223,71,15097,1,0,0:0:0:0:
128,72,15420,5,0,3:0:0:0:
128,72,15581,2,0,P|129:141|96:187,1,105,0|0,3:0|3:0,0:0:0:0:
80,205,16065,1,8,0:0:0:0:
37,289,16388,1,4,0:0:0:0:
126,318,16710,6,0,L|238:326,1,105,0|0,3:0|0:0,0:0:0:0:
277,329,17194,1,0,3:0:0:0:
324,333,17356,1,8,0:0:0:0:
400,277,17678,1,0,0:0:0:0:
318,229,18001,6,0,P|336:184|326:129,1,105,0|0,3:0|0:0,0:0:0:0:
284,110,18485,1,0,3:0:0:0:
239,126,18646,1,8,0:0:0:0:
175,195,18968,1,0,0:0:0:0:
89,154,19291,6,0,L|71:33,1,105,0|0,3:0|0:0,0:0:0:0:
113,24,19775,1,0,3:0:0:0:
159,31,19936,1,8,0:0:0:0:
233,89,20259,1,0,0:0:0:0:
321,55,20581,6,0,L|316:163,1,105,0|0,3:0|0:0,0:0:0:0:
314,207,21065,1,0,3:0:0:0:
310,254,21226,1,8,0:0:0:0:
227,301,21549,1,0,0:0:0:0:
144,346,21872,6,0,P|133:300|162:237,1,105,6|0,0:0|0:0,0:0:0:0:
226,187,22517,2,0,P|233:146|202:88,1,105,2|0,0:0|0:0,0:0:0:0:
162,70,23001,2,0,P|201:72|270:49,1,105,2|0,0:0|0:0,0:0:0:0:
305,30,23485,1,2,0:0:0:0:
376,91,23807,1,2,0:0:0:0:
452,34,24130,1,2,0:0:0:0:
485,122,24452,6,0,L|477:235,1,105,2|0,0:0|0:0,0:0:0:0:
502,318,25097,2,0,P|444:318|397:280,1,105,2|2,0:0|0:0,0:0:0:0:
365,268,25581,2,0,P|320:240|269:242,1,105,2|2,0:0|0:0,0:0:0:0:
227,263,26065,1,2,0:0:0:0:
205,304,26226,1,2,0:0:0:0:
77,105,27033,6,0,L|187:93,1,105,6|0,0:0|0:0,0:0:0:0:
222,178,27678,2,0,L|117:189,1,105,2|2,0:0|0:0,0:0:0:0:
73,206,28162,2,0,P|70:240|105:304,1,105,2|0,0:0|0:0,0:0:0:0:
144,321,28646,1,2,0:0:0:0:
231,356,28968,1,2,0:0:0:0:
292,284,29291,1,2,0:0:0:0:
361,347,29614,6,0,P|382:301|364:229,1,105,2|0,0:0|0:0,0:0:0:0:
351,207,30097,2,0,P|409:210|455:178,1,105,2|2,0:0|0:0,0:0:0:0:
478,150,30581,1,2,0:0:0:0:
463,104,30743,1,2,0:0:0:0:
323,80,31226,6,0,L|307:195,2,105,4|2|2,0:0|0:0|0:0,0:0:0:0:
231,58,32194,6,0,P|191:53|127:102,1,105,6|8,3:0|0:0,0:0:0:0:
112,125,32678,2,0,L|126:253,1,105,2|2,0:0|0:0,0:0:0:0:
132,275,33162,1,10,0:0:0:0:
140,321,33323,1,2,0:0:0:0:
234,329,33646,2,0,L|240:383,2,52.5,2|10|2,0:0|0:0|0:0,0:0:0:0:
317,284,34291,2,0,L|311:230,2,52.5,2|10|2,0:0|0:0|0:0,0:0:0:0:
328,330,34775,6,0,P|393:333|438:311,1,105,2|10,3:0|0:0,0:0:0:0:
463,229,35420,2,0,L|454:171,1,52.5,2|2,3:0|0:0,0:0:0:0:
447,130,35743,1,10,0:0:0:0:
440,83,35904,2,0,P|379:75|325:98,1,105,2|0,0:0|0:0,0:0:0:0:
304,121,36388,1,10,0:0:0:0:
250,201,36710,1,2,3:0:0:0:
296,283,37033,1,10,0:0:0:0:
239,359,37356,6,0,L|132:351,1,105,2|8,3:0|0:0,0:0:0:0:
87,343,37839,2,0,P|68:308|74:241,1,105,2|2,0:0|0:0,0:0:0:0:
104,209,38323,1,10,0:0:0:0:
148,191,38485,1,2,0:0:0:0:
239,214,38807,2,0,P|242:182|232:146,2,52.5,2|10|2,0:0|0:0|0:0,0:0:0:0:
313,272,39452,2,0,P|310:304|320:340,2,52.5,2|10|2,0:0|0:0|0:0,0:0:0:0:
356,253,39936,6,0,P|418:273|472:248,1,105,2|10,3:0|0:0,0:0:0:0:
487,227,40420,2,0,P|495:189|462:115,1,105,2|2,0:0|0:0,0:0:0:0:
392,79,41065,1,2,0:0:0:0:
273,156,41549,2,0,P|266:207|281:257,1,105,10|2,0:0|3:0,0:0:0:0:
327,339,42194,1,10,0:0:0:0:
232,347,42517,6,0,P|182:322|121:344,1,105,6|8,3:0|0:0,0:0:0:0:
88,336,43001,2,0,P|72:296|90:231,1,105,2|2,0:0|0:0,0:0:0:0:
124,210,43485,1,10,0:0:0:0:
171,213,43646,1,2,0:0:0:0:
259,246,43968,2,0,L|265:299,2,52.5,2|10|2,0:0|0:0|0:0,0:0:0:0:
343,202,44614,2,0,L|337:149,2,52.5,2|10|0,0:0|0:0|0:0,0:0:0:0:
354,247,45097,6,0,P|416:236|474:259,1,105,2|10,3:0|0:0,0:0:0:0:
441,341,45743,2,0,L|378:339,1,52.5,2|2,3:0|0:0,0:0:0:0:
341,339,46065,1,10,0:0:0:0:
293,339,46226,1,2,0:0:0:0:
216,219,46710,1,10,0:0:0:0:
137,271,47033,2,0,L|127:158,1,105,2|10,3:0|0:0,0:0:0:0:
210,120,47678,6,0,P|259:150|319:149,1,105,2|8,3:0|0:0,0:0:0:0:
351,138,48162,1,2,0:0:0:0:
425,79,48485,2,0,L|433:15,2,52.5,2|10|2,0:0|0:0|0:0,0:0:0:0:
481,155,49130,2,0,L|487:207,2,52.5,2|10|2,0:0|0:0|0:0,0:0:0:0:
404,210,49775,2,0,L|410:262,2,52.5,2|10|0,0:0|0:0|0:0,0:0:0:0:
358,195,50259,6,0,P|314:194|267:152,1,105,2|10,3:0|0:0,0:0:0:0:
262,108,50743,2,0,P|210:111|172:146,1,105,2|2,0:0|0:0,0:0:0:0:
115,220,51388,2,0,L|125:329,1,105,2|0,0:0|0:0,0:0:0:0:
163,352,51872,1,8,0:0:0:0:
210,349,52033,2,0,P|265:331|316:347,1,105,0|8,0:0|0:0,0:0:0:0:
355,355,52517,1,8,0:0:0:0:
431,299,52839,1,6,3:0:0:0:
256,192,53162,12,0,55420,3:0:0:0:
73,109,58001,6,0,L|182:99,1,105,0|8,3:0|0:0,0:0:0:0:
224,96,58485,2,0,P|241:132|223:208,1,105,2|2,0:0|0:0,0:0:0:0:
200,230,58968,1,10,0:0:0:0:
110,262,59291,6,0,P|145:312|208:328,1,105,0|8,3:0|0:0,0:0:0:0:
231,322,59775,2,0,P|287:298|349:317,1,105,2|2,0:0|0:0,0:0:0:0:
371,327,60259,1,10,0:0:0:0:
460,356,60581,6,0,L|451:243,1,105,0|8,3:0|0:0,0:0:0:0:
448,203,61065,2,0,P|393:209|344:178,1,105,2|2,0:0|0:0,0:0:0:0:
324,146,61549,1,10,0:0:0:0:
261,75,61872,6,0,P|232:125|233:175,1,105,0|8,3:0|0:0,0:0:0:0:
252,214,62356,2,0,P|250:265|223:309,1,105,2|10,0:0|0:0,0:0:0:0:
174,309,62839,2,0,P|136:297|111:298,2,52.5,10|10|6,0:0|0:0|3:0,0:0:0:0:
255,358,63485,5,8,0:0:0:0:
255,358,63646,2,0,L|372:330,1,105,2|2,0:0|0:0,0:0:0:0:
403,322,64130,1,10,0:0:0:0:
484,369,64452,6,0,P|495:313|468:261,1,105,0|8,3:0|0:0,0:0:0:0:
447,232,64936,2,0,P|404:230|360:180,1,105,2|2,0:0|0:0,0:0:0:0:
354,140,65420,1,10,0:0:0:0:
448,137,65743,6,0,L|452:31,1,105,0|8,3:0|0:0,0:0:0:0:
404,30,66226,2,0,P|348:41|291:30,1,105,2|2,0:0|0:0,0:0:0:0:
255,20,66710,1,10,0:0:0:0:
164,46,67033,6,0,B|138:82|138:82|145:155,1,105,0|8,3:0|0:0,0:0:0:0:
162,186,67517,2,0,P|210:207|271:189,1,105,2|2,0:0|0:0,0:0:0:0:
303,177,68001,2,0,L|310:234,2,52.5,10|2|0,0:0|0:0|3:0,0:0:0:0:
395,158,68646,5,8,0:0:0:0:
395,158,68807,2,0,L|409:278,1,105,2|2,0:0|0:0,0:0:0:0:
414,309,69291,1,10,0:0:0:0:
323,337,69614,6,0,L|199:306,1,105,0|8,3:0|0:0,0:0:0:0:
175,299,70097,2,0,B|147:256|147:256|170:187,1,105,2|2,0:0|0:0,0:0:0:0:
189,165,70581,1,10,0:0:0:0:
276,201,70904,6,0,P|325:227|391:212,1,105,0|8,3:0|0:0,0:0:0:0:
412,195,71388,2,0,L|401:90,1,105,2|2,0:0|0:0,0:0:0:0:
395,43,71872,1,10,0:0:0:0:
314,92,72194,6,0,P|282:81|206:101,1,105,0|8,3:0|0:0,0:0:0:0:
189,135,72678,2,0,P|147:151|74:134,1,105,2|2,0:0|0:0,0:0:0:0:
46,120,73162,2,0,P|59:93|56:55,1,52.5,10|0,0:0|0:0,0:0:0:0:
38,28,73485,1,6,0:0:0:0:
61,66,83807,6,0,L|177:51,1,105,0|0,3:0|0:0,0:0:0:0:
212,50,84291,1,0,3:0:0:0:
259,46,84452,1,8,0:0:0:0:
433,119,85097,6,0,P|447:152|434:218,1,105,0|0,3:0|0:0,0:0:0:0:
398,249,85581,1,0,3:0:0:0:
351,256,85743,1,8,0:0:0:0:
273,202,86065,1,0,0:0:0:0:
181,226,86388,6,0,L|167:350,1,105,0|0,3:0|0:0,0:0:0:0:
126,350,86872,1,0,3:0:0:0:
79,341,87033,1,8,0:0:0:0:
27,261,87356,1,0,0:0:0:0:
81,184,87678,5,0,3:0:0:0:
81,184,87839,2,0,L|190:173,1,105,0|0,3:0|3:0,0:0:0:0:
232,171,88323,1,8,0:0:0:0:
294,99,88646,1,4,0:0:0:0:
221,38,88968,6,0,P|189:35|124:83,1,105,0|0,3:0|0:0,0:0:0:0:
103,112,89452,1,0,3:0:0:0:
114,158,89614,1,8,0:0:0:0:
188,215,89936,1,0,0:0:0:0:
268,165,90259,2,0,P|297:156|365:193,1,105,0|0,3:0|0:0,0:0:0:0:
381,229,90743,1,0,3:0:0:0:
376,275,90904,1,8,0:0:0:0:
294,321,91226,1,0,0:0:0:0:
207,282,91549,6,0,P|152:283|108:306,1,105,0|0,3:0|0:0,0:0:0:0:
67,329,92033,1,0,3:0:0:0:
20,322,92194,1,8,0:0:0:0:
44,230,92517,1,0,0:0:0:0:
21,138,92839,6,0,L|126:130,1,105,0|0,3:0|0:0,0:0:0:0:
173,128,93323,1,0,3:0:0:0:
220,128,93485,1,8,0:0:0:0:
292,187,93807,1,4,0:0:0:0:
373,139,94130,6,0,L|384:255,2,105,0|0|0,3:0|3:0|3:0,0:0:0:0:
308,69,95097,1,0,3:0:0:0:
225,109,95420,2,0,P|175:119|123:104,2,105,0|0|0,3:0|3:0|3:0,0:0:0:0:
281,184,96388,1,0,3:0:0:0:
194,222,96710,6,0,L|181:337,2,105,0|0|0,3:0|3:0|3:0,0:0:0:0:
272,275,97678,1,0,3:0:0:0:
348,218,98001,2,0,P|397:207|437:166,2,105,0|0|0,3:0|3:0|3:0,0:0:0:0:
285,147,98968,1,4,0:0:0:0:
191,164,99291,6,0,P|151:169|84:215,1,105,0|0,3:0|3:0,0:0:0:0:
157,273,99936,2,0,P|197:268|264:222,1,105,0|0,3:0|3:0,0:0:0:0:
302,155,100581,2,0,P|293:120|243:68,2,105,0|0|0,3:0|3:0|3:0,0:0:0:0:
355,232,101549,1,0,3:0:0:0:
430,179,101872,6,0,L|445:71,1,105,0|0,3:0|3:0,0:0:0:0:
354,45,102517,2,0,P|302:63|245:52,1,105,0|0,3:0|3:0,0:0:0:0:
165,21,103162,1,0,3:0:0:0:
165,21,103323,2,0,L|149:140,1,105,2|2,0:0|0:0,0:0:0:0:
257,336,104452,5,4,0:0:0:0:
61,179,113807,6,0,P|116:148|168:155,2,105,6|2|4,0:0|0:0|0:0,0:0:0:0:
132,240,114775,6,0,L|157:354,1,105,4|8,3:0|0:0,0:0:0:0:
201,348,115259,2,0,P|261:351|298:311,1,105,2|2,0:0|3:0,0:0:0:0:
302,276,115743,1,10,0:0:0:0:
290,230,115904,1,2,0:0:0:0:
211,177,116226,2,0,L|204:120,2,52.5,2|10|2,3:0|3:0|3:0,0:0:0:0:
129,225,116872,2,0,L|135:277,2,52.5,2|10|2,3:0|0:0|0:0,0:0:0:0:
117,179,117356,6,0,P|62:194|14:177,1,105,2|10,3:0|0:0,0:0:0:0:
66,98,118001,2,0,P|81:73|121:59,1,52.5,2|2,3:0|3:0,0:0:0:0:
148,60,118323,1,10,0:0:0:0:
192,79,118485,2,0,P|245:97|305:84,1,105,2|0,0:0|3:0,0:0:0:0:
334,66,118968,1,10,0:0:0:0:
420,27,119291,1,2,0:0:0:0:
485,94,119614,1,10,0:0:0:0:
415,157,119936,6,0,P|406:185|433:264,1,105,2|8,3:0|0:0,0:0:0:0:
454,295,120420,2,0,P|402:280|336:307,1,105,2|2,0:0|3:0,0:0:0:0:
317,322,120904,1,10,0:0:0:0:
286,357,121065,1,2,0:0:0:0:
209,300,121388,2,0,L|199:237,2,52.5,2|10|2,0:0|0:0|0:0,0:0:0:0:
114,299,122033,2,0,L|122:350,2,52.5,2|10|2,3:0|0:0|0:0,0:0:0:0:
101,253,122517,6,0,P|46:230|32:187,1,105,2|8,3:0|0:0,0:0:0:0:
40,143,123001,2,0,B|157:135,1,105,2|2,0:0|3:0,0:0:0:0:
239,131,123646,1,2,0:0:0:0:
368,73,124130,6,0,P|349:115|368:178,1,105,10|2,0:0|0:0,0:0:0:0:
454,197,124775,1,10,3:0:0:0:
418,285,125097,2,0,L|310:292,1,105,6|4,0:0|3:0,0:0:0:0:
265,295,125581,5,0,0:0:0:0:
174,267,125904,2,0,P|161:301|163:336,2,52.5,2|10|2,3:0|0:0|0:0,0:0:0:0:
265,295,126549,2,0,P|278:261|276:226,2,52.5,2|10|2,3:0|3:0|3:0,0:0:0:0:
358,308,127194,2,0,L|372:373,2,52.5,2|10|2,3:0|0:0|0:0,0:0:0:0:
372,262,127678,6,0,P|420:277|483:257,1,105,2|10,3:0|0:0,0:0:0:0:
423,183,128323,2,0,L|411:124,1,52.5,2|2,3:0|3:0,0:0:0:0:
404,84,128646,1,10,0:0:0:0:
395,37,128807,2,0,P|341:23|290:42,1,105,2|0,0:0|3:0,0:0:0:0:
262,71,129291,1,10,0:0:0:0:
200,143,129614,1,2,3:0:0:0:
271,205,129936,1,8,0:0:0:0:
316,288,130259,6,0,P|251:300|204:264,1,105,2|8,3:0|0:0,0:0:0:0:
181,254,130743,2,0,L|162:369,1,105,2|2,0:0|3:0,0:0:0:0:
117,363,131226,1,10,0:0:0:0:
72,345,131388,1,2,0:0:0:0:
74,250,131710,2,0,L|16:242,2,52.5,2|10|2,0:0|0:0|0:0,0:0:0:0:
121,168,132356,2,0,L|179:176,2,52.5,2|10|2,3:0|0:0|0:0,0:0:0:0:
73,166,132839,6,0,P|85:119|57:67,1,105,2|10,3:0|0:0,0:0:0:0:
100,44,133323,2,0,P|144:26|205:39,1,105,2|2,0:0|3:0,0:0:0:0:
286,71,133968,2,0,L|304:189,1,105,2|0,0:0|3:0,0:0:0:0:
310,221,134452,1,8,0:0:0:0:
317,267,134614,6,0,P|277:256|214:277,1,105,0|8,3:0|3:0,0:0:0:0:
183,306,135097,1,10,0:0:0:0:
98,264,135420,1,6,3:0:0:0:
256,192,135743,12,0,140581,3:0:0:0:
43,120,145743,6,0,P|76:99|148:106,1,105,6|8,3:0|0:0,0:0:0:0:
172,135,146226,2,0,P|223:141|268:116,1,105,2|2,0:0|0:0,0:0:0:0:
302,83,146710,1,10,0:0:0:0:
392,55,147033,6,0,L|404:170,1,105,0|8,3:0|0:0,0:0:0:0:
409,206,147517,2,0,P|374:201|313:237,1,105,2|2,0:0|0:0,0:0:0:0:
298,278,148001,1,10,0:0:0:0:
224,337,148323,6,0,P|177:335|130:289,1,105,0|8,3:0|0:0,0:0:0:0:
117,254,148807,2,0,P|151:215|155:164,1,105,2|2,0:0|0:0,0:0:0:0:
125,127,149291,1,10,0:0:0:0:
44,77,149614,6,0,P|72:49|144:35,1,105,0|8,3:0|0:0,0:0:0:0:
177,52,150097,2,0,P|228:65|289:46,1,105,2|2,0:0|0:0,0:0:0:0:
319,29,150581,1,10,0:0:0:0:
399,77,150904,6,0,L|405:185,1,105,0|8,3:0|0:0,0:0:0:0:
406,229,151388,2,0,P|359:214|297:221,1,105,2|2,0:0|0:0,0:0:0:0:
260,236,151872,2,0,P|218:238|204:228,1,52.5,10|2,0:0|0:0,0:0:0:0:
177,199,152194,1,0,3:0:0:0:
93,244,152517,1,8,0:0:0:0:
93,244,152678,2,0,L|87:131,1,105,2|2,0:0|0:0,0:0:0:0:
84,91,153162,1,10,0:0:0:0:
170,52,153485,6,0,P|208:36|285:50,1,105,0|8,3:0|0:0,0:0:0:0:
309,68,153968,2,0,P|360:75|409:58,1,105,2|2,0:0|0:0,0:0:0:0:
454,45,154452,2,0,L|460:110,1,52.5,10|2,0:0|0:0,0:0:0:0:
462,144,154775,1,0,3:0:0:0:
413,224,155097,1,8,0:0:0:0:
413,224,155259,2,0,L|298:218,1,105,2|2,0:0|0:0,0:0:0:0:
260,221,155743,1,10,0:0:0:0:
192,286,156065,6,0,P|168:211|186:172,1,105,6|0,0:0|0:0,0:0:0:0:
199,148,156549,2,0,P|153:131|97:140,1,105,0|2,0:0|0:0,0:0:0:0:
56,160,157033,1,2,0:0:0:0:
22,71,157356,6,0,P|84:48|136:41,1,105,2|0,0:0|0:0,0:0:0:0:
169,42,157839,2,0,P|231:65|283:72,1,105,0|2,0:0|0:0,0:0:0:0:
316,67,158323,1,2,0:0:0:0:
401,25,158646,6,0,L|410:134,1,105,2|0,0:0|0:0,0:0:0:0:
412,177,159130,2,0,P|380:173|306:204,1,105,0|2,0:0|0:0,0:0:0:0:
287,237,159614,2,0,P|256:250|233:250,1,52.5,2|2,0:0|0:0,0:0:0:0:
192,237,159936,5,2,0:0:0:0:
134,312,160259,1,2,0:0:0:0:
134,312,160420,2,0,P|108:283|107:212,1,105,0|2,0:0|0:0,0:0:0:0:
112,172,160904,2,0,P|148:164|174:136,1,52.5,2|2,0:0|0:0,0:0:0:0:
185,115,161226,5,6,0:0:0:0:
277,133,161549,1,0,0:0:0:0:
277,133,161710,2,0,L|289:241,1,105,0|2,0:0|0:0,0:0:0:0:
298,283,162194,2,0,P|329:299|363:288,1,52.5,2|2,0:0|0:0,0:0:0:0:
390,281,162517,5,2,0:0:0:0:
468,332,162839,1,0,0:0:0:0:
468,332,163001,2,0,P|479:276|460:224,1,105,0|2,0:0|0:0,0:0:0:0:
430,198,163485,2,0,P|426:169|434:139,1,52.5,2|2,0:0|0:0,0:0:0:0:
461,110,163807,5,2,0:0:0:0:
379,62,164130,1,0,0:0:0:0:
379,62,164291,2,0,P|323:51|271:70,1,105,0|2,0:0|0:0,0:0:0:0:
239,92,164775,2,0,P|206:98|172:87,1,52.5,2|2,0:0|0:0,0:0:0:0:
147,69,165097,6,0,L|138:181,1,105,2|2,0:0|0:0,0:0:0:0:
135,220,165581,1,2,0:0:0:0:
131,267,165743,1,6,0:0:0:0:
256,192,166388,12,0,167839,0:0:0:0:
