osu file format v14

[General]
AudioFilename: audio.mp3
AudioLeadIn: 0
PreviewTime: 31290
Countdown: 0
SampleSet: Soft
StackLeniency: 0.7
Mode: 0
LetterboxInBreaks: 0
WidescreenStoryboard: 0

[Editor]
Bookmarks: 42096,73548
DistanceSpacing: 1.1
BeatDivisor: 4
GridSize: 8
TimelineZoom: 1.8

[Metadata]
Title:Mizuoto to Curtain
TitleUnicode:水音とカーテン
Artist:MIMI feat. Hatsune Miku
ArtistUnicode:MIMI feat. 初音ミク
Creator:Mak Kau Hijau
Version:Insane
Source:
Tags:佐藤主税 vocaloid japanese novelty
BeatmapID:2096799
BeatmapSetID:1001653

[Difficulty]
HPDrainRate:6
CircleSize:4
OverallDifficulty:8
ApproachRate:9
SliderMultiplier:1.45
SliderTickRate:1

[Events]
//Background and Video events
0,0,"wowo.jpg",0,0
//Break Periods
2,104652,113207
//Storyboard Layer 0 (Background)
//Storyboard Layer 1 (Fail)
//Storyboard Layer 2 (Pass)
//Storyboard Layer 3 (Foreground)
//Storyboard Layer 4 (Overlay)
//Storyboard Sound Samples

[TimingPoints]
1227,322.58064516129,4,2,1,50,1,0
1227,-142.857142857143,4,2,1,50,0,0
11549,-125,4,2,2,50,0,0
21872,-133.333333333333,4,2,1,40,0,0
28888,-133.333333333333,4,2,1,5,0,0
28968,-133.333333333333,4,2,1,40,0,0
29210,-133.333333333333,4,2,1,5,0,0
29291,-133.333333333333,4,2,1,40,0,0
29533,-133.333333333333,4,2,1,5,0,0
29614,-133.333333333333,4,2,1,40,0,0
31226,-250,4,2,1,40,0,0
31549,-125,4,2,1,50,0,0
31872,-142.857142857143,4,2,1,45,0,0
32194,-90.9090909090909,4,2,3,70,0,1
52839,-100,4,2,3,60,0,0
55420,-100,4,2,3,60,0,0
73485,-166.666666666667,4,2,1,40,0,0
83807,-142.857142857143,4,2,2,50,0,0
94130,-125,4,2,2,50,0,0
103323,-125,4,2,1,50,0,0
104452,-133.333333333333,4,2,1,40,0,0
113807,-250,4,2,1,40,0,0
114130,-125,4,2,1,50,0,0
114452,-142.857142857143,4,2,1,50,0,0
114775,-90.9090909090909,4,2,3,70,0,1
125097,-200,4,2,1,40,0,0
125420,-90.9090909090909,4,2,3,70,0,1
135420,-100,4,2,3,70,0,0
145743,-76.9230769230769,4,2,3,65,0,1
156065,-111.111111111111,4,2,1,40,0,0
166388,-111.111111111111,4,2,1,5,0,0

[Colours]
Combo1 : 45,45,255
Combo2 : 255,128,64
Combo3 : 0,255,255
Combo4 : 255,40,40

[HitObjects]
70,156,743,5,2,0:0:0:0:
131,87,904,1,2,0:0:0:0:
197,157,1065,1,2,0:0:0:0:
197,157,1227,6,0,L|207:263,1,101.499996902466,6|0,0:0|0:0,0:0:0:0:
270,316,1710,1,2,0:0:0:0:
151,327,1872,2,0,P|132:314|118:291,1,50.749998451233,2|0,0:0|0:0,0:0:0:0:
205,243,2194,1,2,0:0:0:0:
205,243,2356,6,0,L|306:237,1,101.499996902466,2|0,0:0|0:0,0:0:0:0:
365,178,2839,1,2,0:0:0:0:
416,264,3001,1,2,0:0:0:0:
496,69,3323,1,2,0:0:0:0:
458,155,3485,1,2,0:0:0:0:
388,82,3646,6,0,P|326:85|292:63,1,101.499996902466,2|2,0:0|0:0,0:0:0:0:
210,20,4130,1,0,0:0:0:0:
135,94,4291,1,2,0:0:0:0:
62,37,4452,2,0,P|110:53|136:95,1,101.499996902466,2|2,0:0|0:0,0:0:0:0:
24,161,4936,6,0,L|124:173,1,101.499996902466,2|2,0:0|0:0,0:0:0:0:
228,187,5420,1,2,0:0:0:0:
154,269,5581,1,2,0:0:0:0:
303,346,6065,1,2,0:0:0:0:
243,268,6226,1,2,0:0:0:0:
352,256,6388,6,0,P|357:233|348:199,1,50.749998451233,6|0,0:0|0:0,0:0:0:0:
244,144,6710,2,0,P|267:139|301:148,1,50.749998451233,2|0,0:0|0:0,0:0:0:0:
502,134,7033,2,0,L|400:141,1,101.499996902466,2|2,0:0|0:0,0:0:0:0:
364,60,7517,2,0,L|417:56,1,50.749998451233,2|0,0:0|0:0,0:0:0:0:
269,45,7839,1,2,0:0:0:0:
252,146,8001,1,2,0:0:0:0:
176,80,8162,1,2,0:0:0:0:
100,251,8646,1,2,0:0:0:0:
136,166,8807,1,0,0:0:0:0:
207,226,8968,6,0,P|233:234|252:252,1,50.749998451233,6|0,0:0|0:0,0:0:0:0:
156,333,9291,2,0,P|182:325|201:307,1,50.749998451233,2|0,0:0|0:0,0:0:0:0:
390,320,9614,2,0,L|285:323,1,101.499996902466,2|2,0:0|0:0,0:0:0:0:
351,227,10097,1,2,0:0:0:0:
350,226,10259,2,0,L|410:224,1,50.749998451233,0|2,0:0|0:0,0:0:0:0:
474,288,10581,1,2,0:0:0:0:
402,136,10743,1,2,0:0:0:0:
271,245,11065,5,0,0:0:0:0:
237,125,11226,1,2,0:0:0:0:
167,205,11388,1,0,0:0:0:0:
92,116,11549,6,0,P|137:101|222:116,1,116,0|0,3:0|0:0,0:0:0:0:
167,205,12033,1,0,3:0:0:0:
161,262,12194,2,0,L|168:189,1,58,8|0,0:0|0:0,0:0:0:0:
296,165,12517,2,0,L|289:238,1,58,0|0,0:0|0:0,0:0:0:0:
400,109,12839,6,0,L|412:233,1,116,0|0,3:0|0:0,0:0:0:0:
337,329,13323,1,0,3:0:0:0:
337,329,13485,2,0,P|309:290|309:260,1,58,8|0,0:0|0:0,0:0:0:0:
385,218,13807,1,0,0:0:0:0:
224,231,13968,1,0,0:0:0:0:
224,231,14130,6,0,L|229:347,1,116,0|0,3:0|0:0,0:0:0:0:
140,304,14614,1,0,3:0:0:0:
58,342,14775,2,0,P|47:304|63:274,1,58,8|0,0:0|0:0,0:0:0:0:
112,200,15097,1,0,0:0:0:0:
224,231,15259,1,0,0:0:0:0:
189,110,15420,5,0,3:0:0:0:
189,110,15581,2,0,L|70:118,1,116,0|0,3:0|3:0,0:0:0:0:
225,195,16065,2,0,P|263:172|277:143,1,58,8|0,0:0|0:0,0:0:0:0:
332,57,16388,1,4,0:0:0:0:
390,157,16549,1,0,0:0:0:0:
238,67,16710,6,0,L|170:54,1,58,0|0,3:0|0:0,0:0:0:0:
168,205,17033,2,0,L|224:194,1,58,0|0,0:0|3:0,0:0:0:0:
360,171,17356,2,0,B|379:201|379:201|362:283,1,116,8|0,0:0|0:0,0:0:0:0:
277,266,17839,1,0,0:0:0:0:
176,288,18001,6,0,P|231:299|281:257,1,116,0|0,3:0|0:0,0:0:0:0:
208,204,18485,1,0,3:0:0:0:
85,232,18646,2,0,L|93:305,1,58,8|0,0:0|0:0,0:0:0:0:
128,134,18968,1,0,0:0:0:0:
128,134,19130,1,0,0:0:0:0:
208,204,19291,6,0,L|279:195,1,58,0|0,3:0|0:0,0:0:0:0:
337,84,19614,2,0,L|280:91,1,58,0|0,0:0|3:0,0:0:0:0:
164,104,19936,2,0,L|281:90,1,116,8|0,0:0|0:0,0:0:0:0:
424,151,20581,5,0,3:0:0:0:
424,151,20743,2,0,L|430:272,1,116,0|0,3:0|3:0,0:0:0:0:
336,332,21226,1,8,0:0:0:0:
203,233,21549,2,0,P|162:243|139:291,1,87,0|0,0:0|0:0,0:0:0:0:
69,317,21872,6,0,L|193:325,1,108.750004148483,6|0,0:0|0:0,0:0:0:0:
275,184,22517,2,0,P|292:227|290:255,1,54.3750020742417,2|0,0:0|0:0,0:0:0:0:
247,309,22839,1,0,0:0:0:0:
335,347,23001,2,0,L|411:335,1,54.3750020742417,2|0,0:0|0:0,0:0:0:0:
473,274,23323,1,0,0:0:0:0:
473,274,23485,6,0,P|431:257|420:236,1,54.3750020742417,2|0,0:0|0:0,0:0:0:0:
426,154,23807,2,0,P|468:171|479:192,1,54.3750020742417,2|0,0:0|0:0,0:0:0:0:
343,187,24130,2,0,L|334:122,1,54.3750020742417,2|0,0:0|0:0,0:0:0:0:
373,42,24452,6,0,L|251:52,1,108.750004148483,2|0,0:0|0:0,0:0:0:0:
118,186,25097,2,0,P|154:158|139:79,1,108.750004148483,2|2,0:0|0:0,0:0:0:0:
64,114,25581,1,2,0:0:0:0:
18,192,25743,2,0,L|32:253,1,54.3750020742417,0|2,0:0|0:0,0:0:0:0:
105,326,26065,1,2,0:0:0:0:
191,255,26226,1,2,0:0:0:0:
316,326,26549,5,2,0:0:0:0:
314,231,26710,1,0,0:0:0:0:
399,283,26872,1,2,0:0:0:0:
387,177,27033,6,0,P|354:153|278:152,1,108.750004148483,6|0,0:0|0:0,0:0:0:0:
190,234,27678,2,0,L|206:114,1,108.750004148483,2|2,0:0|0:0,0:0:0:0:
289,51,28162,2,0,P|353:64|409:44,1,108.750004148483,2|0,0:0|0:0,0:0:0:0:
461,141,28646,6,0,P|477:183|453:238,1,81.5625031113626,2|0,0:0|0:0,0:0:0:0:
398,266,28968,6,0,P|382:224|406:169,1,81.5625031113626,2|0,0:0|0:0,0:0:0:0:
453,339,29291,6,0,L|348:343,1,81.5625031113626,2|0,0:0|0:0,0:0:0:0:
213,324,29614,6,0,P|268:322|314:263,1,108.750004148483,2|0,0:0|0:0,0:0:0:0:
224,132,30097,2,0,L|235:246,1,108.750004148483,2|2,0:0|0:0,0:0:0:0:
132,97,30581,1,2,0:0:0:0:
57,162,30743,1,2,0:0:0:0:
234,78,31226,6,0,P|262:76|285:84,1,43.5,4|0,0:0|0:0,0:0:0:0:
290,157,31549,6,0,P|333:138|357:84,1,87,2|0,0:0|0:0,0:0:0:0:
431,41,31872,6,0,L|440:135,1,76.1249976768494,2|0,0:0|0:0,0:0:0:0:
482,240,32194,6,0,L|323:255,1,159.500004867554,6|8,3:0|0:0,0:0:0:0:
244,345,32678,2,0,P|224:299|232:266,1,79.7500024337769,2|0,0:0|3:0,0:0:0:0:
278,158,33001,1,2,0:0:0:0:
157,229,33162,1,10,0:0:0:0:
269,52,33323,6,0,L|282:210,1,159.500004867554,2|2,0:0|0:0,0:0:0:0:
171,129,33807,1,10,0:0:0:0:
269,52,33968,2,0,P|323:64|375:49,1,79.7500024337769,2|0,0:0|3:0,0:0:0:0:
472,72,34291,1,2,0:0:0:0:
419,177,34452,2,0,P|379:174|341:185,1,79.7500024337769,10|2,0:0|0:0,0:0:0:0:
220,307,34775,5,2,3:0:0:0:
227,153,34936,1,2,0:0:0:0:
311,268,35097,1,10,0:0:0:0:
301,104,35259,1,2,0:0:0:0:
162,222,35420,2,0,L|74:216,1,79.7500024337769,2|2,3:0|0:0,0:0:0:0:
227,153,35743,1,10,0:0:0:0:
283,262,35904,6,0,L|302:89,1,159.500004867554,2|0,0:0|0:0,0:0:0:0:
322,28,36388,2,0,P|283:27|247:43,1,79.7500024337769,10|0,0:0|0:0,0:0:0:0:
122,152,36710,2,0,P|161:153|197:137,1,79.7500024337769,2|0,3:0|0:0,0:0:0:0:
146,48,37033,1,10,0:0:0:0:
255,221,37194,1,2,3:0:0:0:
255,221,37275,1,2,3:0:0:0:
255,221,37356,6,0,L|426:211,1,159.500004867554,2|8,3:0|0:0,0:0:0:0:
477,273,37839,2,0,P|501:224|496:194,1,79.7500024337769,2|0,0:0|3:0,0:0:0:0:
420,127,38162,1,2,0:0:0:0:
336,210,38323,1,10,0:0:0:0:
320,39,38485,2,0,L|327:124,1,79.7500024337769,2|0,0:0|3:0,0:0:0:0:
232,234,38807,1,2,0:0:0:0:
190,117,38968,1,10,0:0:0:0:
87,332,39130,6,0,L|100:158,1,159.500004867554,2|2,0:0|0:0,0:0:0:0:
226,82,39614,1,10,0:0:0:0:
98,172,39775,1,2,0:0:0:0:
232,234,39936,6,0,P|297:248|383:197,1,159.500004867554,2|10,3:0|0:0,0:0:0:0:
447,143,40420,2,0,P|413:118|375:116,1,79.7500024337769,2|0,0:0|3:0,0:0:0:0:
232,234,40743,2,0,P|244:193|274:169,1,79.7500024337769,2|8,0:0|0:0,0:0:0:0:
373,313,41065,1,2,0:0:0:0:
373,313,41226,6,0,L|363:226,1,79.7500024337769,0|0,3:0|0:0,0:0:0:0:
241,154,41549,2,0,L|231:233,1,79.7500024337769,10|0,0:0|0:0,0:0:0:0:
128,323,41872,1,2,3:0:0:0:
43,215,42033,2,0,L|46:163,2,39.8750012168885,8|8|10,0:0|0:0|0:0,0:0:0:0:
127,61,42356,1,8,0:0:0:0:
127,61,42436,1,8,0:0:0:0:
127,61,42517,6,0,L|286:50,1,159.500004867554,6|8,3:0|0:0,0:0:0:0:
366,7,43001,2,0,P|379:57|365:99,1,79.7500024337769,2|0,0:0|3:0,0:0:0:0:
259,189,43323,1,2,0:0:0:0:
286,49,43485,1,10,0:0:0:0:
457,157,43646,6,0,L|293:184,1,159.500004867554,2|2,0:0|0:0,0:0:0:0:
156,205,44130,1,10,0:0:0:0:
261,355,44291,2,0,L|275:269,1,79.7500024337769,2|0,0:0|3:0,0:0:0:0:
209,109,44614,1,2,0:0:0:0:
156,205,44775,2,0,L|69:202,1,79.7500024337769,10|0,0:0|0:0,0:0:0:0:
122,111,45097,5,2,3:0:0:0:
239,221,45259,1,2,0:0:0:0:
300,49,45420,1,10,0:0:0:0:
228,119,45581,1,2,0:0:0:0:
373,206,45743,2,0,L|365:118,1,79.7500024337769,2|2,3:0|0:0,0:0:0:0:
239,221,46065,1,10,0:0:0:0:
300,49,46226,6,0,L|468:40,1,159.500004867554,2|0,0:0|0:0,0:0:0:0:
228,119,46710,2,0,P|194:139|144:136,1,79.7500024337769,10|0,0:0|0:0,0:0:0:0:
70,27,47033,2,0,P|109:27|143:47,1,79.7500024337769,2|0,3:0|0:0,0:0:0:0:
48,151,47356,1,10,0:0:0:0:
204,241,47517,1,2,3:0:0:0:
64,309,47678,6,0,L|48:151,1,159.500004867554,2|8,3:0|0:0,0:0:0:0:
204,241,48162,2,0,L|192:350,1,79.7500024337769,2|0,0:0|3:0,0:0:0:0:
127,189,48485,1,2,0:0:0:0:
212,145,48646,1,10,0:0:0:0:
288,201,48807,6,0,P|327:207|390:178,1,79.7500024337769,2|0,0:0|3:0,0:0:0:0:
390,93,49130,1,2,0:0:0:0:
453,256,49291,1,10,0:0:0:0:
469,90,49452,2,0,L|386:93,1,79.7500024337769,2|0,0:0|3:0,0:0:0:0:
288,201,49775,1,2,0:0:0:0:
272,27,49936,2,0,L|281:128,1,79.7500024337769,10|0,0:0|0:0,0:0:0:0:
215,244,50259,6,0,P|261:278|360:242,1,159.500004867554,2|10,3:0|0:0,0:0:0:0:
215,163,50743,2,0,P|172:170|136:206,1,79.7500024337769,2|0,0:0|3:0,0:0:0:0:
90,335,51065,2,0,L|82:244,1,79.7500024337769,2|8,0:0|0:0,0:0:0:0:
16,135,51388,1,2,0:0:0:0:
16,135,51549,6,0,L|182:117,1,159.500004867554,0|8,3:0|0:0,0:0:0:0:
266,51,52033,1,0,0:0:0:0:
355,123,52194,2,0,L|366:203,1,79.7500024337769,2|8,3:0|3:0,0:0:0:0:
376,244,52436,1,8,3:0:0:0:
376,244,52517,1,8,3:0:0:0:
253,317,52678,1,8,3:0:0:0:
253,317,52759,1,8,3:0:0:0:
253,317,52839,1,6,3:0:0:0:
256,192,52920,12,2,55259,0:0:0:0:
94,223,55420,6,0,L|88:146,1,72.5,0|2,3:0|0:0,0:0:0:0:
148,74,55743,1,10,0:0:0:0:
148,74,55904,1,2,0:0:0:0:
214,143,56065,2,0,P|257:152|306:134,1,72.5,2|2,3:0|0:0,0:0:0:0:
364,49,56388,2,0,P|328:43|294:53,1,72.5,8|2,0:0|0:0,0:0:0:0:
440,122,56710,5,0,3:0:0:0:
440,122,56872,1,0,0:0:0:0:
360,192,57033,2,0,L|364:275,1,72.5,10|2,0:0|0:0,0:0:0:0:
267,328,57356,1,2,3:0:0:0:
217,213,57517,1,2,0:0:0:0:
165,344,57678,1,10,0:0:0:0:
260,188,57839,1,2,0:0:0:0:
38,195,58001,6,0,L|118:198,1,72.5,0|0,3:0|0:0,0:0:0:0:
183,103,58323,2,0,L|110:105,1,72.5,8|2,0:0|0:0,0:0:0:0:
249,33,58646,1,2,3:0:0:0:
249,33,58807,1,2,0:0:0:0:
304,181,58968,1,10,0:0:0:0:
349,82,59130,1,2,0:0:0:0:
218,188,59291,6,0,L|207:288,1,72.5,0|0,3:0|0:0,0:0:0:0:
325,339,59614,2,0,L|314:239,1,72.5,8|2,0:0|0:0,0:0:0:0:
425,133,59936,1,2,3:0:0:0:
425,133,60097,1,2,0:0:0:0:
304,181,60259,1,10,0:0:0:0:
416,247,60420,1,2,0:0:0:0:
349,82,60581,6,0,L|262:75,1,72.5,0|0,3:0|0:0,0:0:0:0:
127,159,60904,2,0,L|199:153,1,72.5,8|2,0:0|0:0,0:0:0:0:
120,74,61226,1,2,3:0:0:0:
120,74,61388,1,2,0:0:0:0:
43,232,61549,1,10,0:0:0:0:
21,120,61710,1,2,0:0:0:0:
141,239,61872,6,0,L|152:326,1,72.5,0|0,3:0|0:0,0:0:0:0:
277,198,62194,1,8,0:0:0:0:
243,291,62356,1,2,0:0:0:0:
218,102,62517,1,2,3:0:0:0:
353,260,62678,2,0,L|399:256,2,36.25,10|8|10,0:0|0:0|0:0,0:0:0:0:
463,102,63001,1,10,0:0:0:0:
463,102,63081,1,8,0:0:0:0:
463,102,63162,6,0,L|303:116,1,145,6|8,3:0|0:0,0:0:0:0:
240,194,63646,1,2,0:0:0:0:
173,104,63807,1,2,3:0:0:0:
151,265,63968,1,2,0:0:0:0:
77,159,64130,2,0,L|70:74,1,72.5,10|2,0:0|0:0,0:0:0:0:
16,264,64452,6,0,P|61:285|168:251,1,145,0|8,3:0|0:0,0:0:0:0:
224,163,64936,1,2,0:0:0:0:
289,286,65097,1,2,3:0:0:0:
320,113,65259,1,2,0:0:0:0:
206,245,65420,2,0,P|155:219|142:194,1,72.5,10|0,0:0|0:0,0:0:0:0:
242,76,65743,6,0,L|400:62,1,145,0|8,3:0|0:0,0:0:0:0:
462,208,66226,1,2,0:0:0:0:
372,76,66388,1,2,3:0:0:0:
358,234,66549,1,2,0:0:0:0:
430,18,66710,2,0,P|453:52|456:87,1,72.5,10|2,0:0|0:0,0:0:0:0:
418,185,67033,6,0,P|382:162|293:195,1,145,0|8,3:0|0:0,0:0:0:0:
258,282,67517,1,2,0:0:0:0:
180,152,67678,1,2,3:0:0:0:
180,152,67839,1,2,0:0:0:0:
115,292,68001,1,10,0:0:0:0:
115,292,68162,1,2,0:0:0:0:
35,167,68323,6,0,L|181:151,1,145,0|8,3:0|0:0,0:0:0:0:
253,82,68807,1,2,0:0:0:0:
379,167,68968,1,2,3:0:0:0:
265,195,69130,1,2,0:0:0:0:
431,96,69291,1,10,0:0:0:0:
325,24,69452,1,2,0:0:0:0:
478,175,69614,6,0,L|491:324,1,145,0|8,3:0|0:0,0:0:0:0:
352,351,70097,1,2,0:0:0:0:
370,226,70259,1,2,3:0:0:0:
266,304,70420,1,2,0:0:0:0:
314,130,70581,1,10,0:0:0:0:
429,294,70743,1,2,0:0:0:0:
222,209,70904,6,0,L|76:202,1,145,0|8,3:0|0:0,0:0:0:0:
52,99,71388,1,2,0:0:0:0:
243,44,71549,1,2,3:0:0:0:
243,44,71710,1,2,0:0:0:0:
134,192,71872,1,10,0:0:0:0:
136,16,72033,1,2,0:0:0:0:
253,167,72194,6,0,L|259:313,1,145,0|8,3:0|0:0,0:0:0:0:
393,241,72678,1,2,0:0:0:0:
382,89,72839,2,0,L|388:181,1,72.5,2|2,3:0|0:0,0:0:0:0:
187,124,73162,2,0,L|182:51,1,72.5,10|0,0:0|0:0,0:0:0:0:
95,64,73485,6,0,P|68:62|46:73,3,43.4999986724854,6|0|0|0,0:0|0:0|0:0|0:0,0:0:0:0:
70,151,74130,1,2,0:0:0:0:
168,208,74291,1,2,0:0:0:0:
152,122,74452,1,2,0:0:0:0:
82,267,74614,1,2,0:0:0:0:
227,304,74775,6,0,P|254:309|277:308,3,43.4999986724854,2|0|0|0,0:0|0:0|0:0|0:0,0:0:0:0:
264,219,75420,1,2,0:0:0:0:
345,110,75581,1,2,0:0:0:0:
353,195,75743,1,2,0:0:0:0:
262,75,75904,1,2,0:0:0:0:
414,56,76065,6,0,P|432:51|463:56,3,43.4999986724854,2|0|0|0,0:0|0:0|0:0|0:0,0:0:0:0:
445,141,76710,1,2,0:0:0:0:
395,226,76872,1,2,0:0:0:0:
336,135,77033,1,2,0:0:0:0:
324,311,77194,1,2,0:0:0:0:
395,226,77356,6,0,L|459:221,1,43.4999986724854,2|0,0:0|0:0,0:0:0:0:
336,135,77678,2,0,L|284:139,1,43.4999986724854,2|0,0:0|0:0,0:0:0:0:
212,211,78001,1,2,0:0:0:0:
133,131,78162,2,0,P|119:101|118:81,1,43.4999986724854,2|2,0:0|0:0,0:0:0:0:
210,49,78485,1,2,0:0:0:0:
33,88,78646,6,0,L|20:189,1,86.9999973449708,6|0,0:0|0:0,0:0:0:0:
71,255,79130,1,0,0:0:0:0:
159,197,79291,1,2,0:0:0:0:
239,270,79452,1,2,0:0:0:0:
312,202,79614,2,0,P|314:166|300:143,1,43.4999986724854,2|2,0:0|0:0,0:0:0:0:
248,79,79936,6,0,L|349:66,1,86.9999973449708,2|0,0:0|0:0,0:0:0:0:
449,62,80420,1,0,0:0:0:0:
381,164,80581,1,2,0:0:0:0:
493,218,80743,1,2,0:0:0:0:
400,322,80904,2,0,L|394:263,1,43.4999986724854,2|2,0:0|0:0,0:0:0:0:
295,229,81226,6,0,P|251:247|195:234,1,86.9999973449708,2|0,0:0|0:0,0:0:0:0:
127,164,81710,1,0,0:0:0:0:
56,239,81872,1,2,0:0:0:0:
113,72,82033,1,2,0:0:0:0:
239,161,82194,2,0,L|244:224,1,43.4999986724854,2|2,0:0|0:0,0:0:0:0:
168,326,82517,2,0,P|214:317|270:333,1,86.9999973449708,2|2,0:0|0:0,0:0:0:0:
366,361,83001,1,0,0:0:0:0:
320,245,83162,1,6,0:0:0:0:
446,116,83807,6,0,L|340:121,1,101.499996902466,0|0,3:0|0:0,0:0:0:0:
249,125,84291,1,0,3:0:0:0:
232,34,84452,2,0,P|221:75|251:127,1,101.499996902466,8|0,0:0|0:0,0:0:0:0:
320,199,84936,1,0,0:0:0:0:
218,215,85097,6,0,P|195:208|164:210,1,50.749998451233,0|0,3:0|0:0,0:0:0:0:
61,255,85420,1,0,0:0:0:0:
160,361,85581,1,0,3:0:0:0:
160,361,85743,2,0,L|152:258,1,101.499996902466,8|0,0:0|0:0,0:0:0:0:
84,141,86226,1,0,0:0:0:0:
84,141,86388,6,0,P|127:145|175:112,1,101.499996902466,0|0,3:0|0:0,0:0:0:0:
237,36,86872,1,0,3:0:0:0:
303,114,87033,2,0,L|311:166,1,50.749998451233,8|0,0:0|0:0,0:0:0:0:
371,42,87356,1,0,0:0:0:0:
311,164,87517,1,0,0:0:0:0:
460,226,87678,5,0,3:0:0:0:
460,226,87839,2,0,L|352:239,1,101.499996902466,0|0,3:0|3:0,0:0:0:0:
281,289,88323,2,0,L|225:283,1,50.749998451233,8|0,0:0|0:0,0:0:0:0:
168,209,88646,1,4,0:0:0:0:
118,335,88807,1,0,0:0:0:0:
41,271,88968,6,0,L|35:213,1,50.749998451233,0|0,3:0|0:0,0:0:0:0:
103,110,89291,2,0,L|97:168,1,50.749998451233,0|0,0:0|3:0,0:0:0:0:
33,59,89614,2,0,P|59:36|125:26,1,101.499996902466,8|0,0:0|0:0,0:0:0:0:
209,97,90097,1,0,0:0:0:0:
209,97,90259,6,0,P|222:109|258:114,1,50.749998451233,0|0,3:0|0:0,0:0:0:0:
330,51,90581,1,0,0:0:0:0:
402,121,90743,1,0,3:0:0:0:
402,121,90904,2,0,P|418:168|413:218,1,101.499996902466,8|0,0:0|0:0,0:0:0:0:
342,279,91388,1,0,0:0:0:0:
276,212,91549,6,0,L|223:207,1,50.749998451233,0|0,3:0|0:0,0:0:0:0:
121,274,91872,2,0,L|172:267,1,50.749998451233,0|0,0:0|3:0,0:0:0:0:
70,211,92194,2,0,P|41:247|44:301,1,101.499996902466,8|0,0:0|0:0,0:0:0:0:
122,353,92678,1,0,0:0:0:0:
213,294,92839,6,0,L|205:240,1,50.749998451233,0|0,3:0|0:0,0:0:0:0:
148,132,93162,1,0,0:0:0:0:
70,211,93323,1,0,3:0:0:0:
148,132,93485,2,0,L|259:133,1,101.499996902466,8|4,0:0|0:0,0:0:0:0:
319,199,93968,1,0,0:0:0:0:
407,138,94130,6,0,P|411:99|398:71,1,58,0|0,3:0|0:0,0:0:0:0:
320,20,94452,2,0,P|312:47|317:76,1,58,0|0,3:0|0:0,0:0:0:0:
319,199,94775,2,0,P|291:191|262:196,1,58,0|0,3:0|0:0,0:0:0:0:
202,293,95097,2,0,P|230:298|258:290,1,58,0|0,3:0|0:0,0:0:0:0:
136,181,95420,6,0,L|129:243,1,58,0|4,3:0|0:0,0:0:0:0:
41,128,95743,2,0,L|47:185,1,58,0|0,3:0|0:0,0:0:0:0:
120,92,96065,2,0,P|154:82|190:84,1,58,0|4,3:0|0:0,0:0:0:0:
238,165,96388,1,0,3:0:0:0:
273,34,96549,1,4,0:0:0:0:
368,128,96710,5,0,3:0:0:0:
368,128,96872,2,0,L|373:188,1,58,0|0,0:0|3:0,0:0:0:0:
478,117,97194,1,0,0:0:0:0:
478,117,97356,2,0,L|483:57,1,58,0|0,3:0|0:0,0:0:0:0:
392,32,97678,1,0,3:0:0:0:
368,128,97839,1,0,0:0:0:0:
273,34,98001,6,0,L|214:40,1,58,0|0,3:0|0:0,0:0:0:0:
174,130,98323,1,0,3:0:0:0:
108,53,98485,1,0,0:0:0:0:
70,207,98646,2,0,L|62:140,1,58,0|0,3:0|0:0,0:0:0:0:
174,130,98968,1,4,0:0:0:0:
149,258,99130,1,0,0:0:0:0:
245,209,99291,6,0,P|273:208|309:226,1,58,0|0,3:0|0:0,0:0:0:0:
310,303,99614,2,0,P|338:304|374:286,1,58,0|0,3:0|0:0,0:0:0:0:
512,216,99936,2,0,L|393:208,1,116,0|0,3:0|3:0,0:0:0:0:
402,57,100420,6,0,P|425:88|422:130,1,58,0|0,0:0|3:0,0:0:0:0:
334,130,100743,2,0,P|303:153|261:150,1,58,0|0,0:0|3:0,0:0:0:0:
220,75,101065,1,0,0:0:0:0:
135,126,101226,2,0,L|139:211,1,58,0|0,3:0|0:0,0:0:0:0:
149,322,101549,1,0,3:0:0:0:
56,248,101710,1,4,0:0:0:0:
226,232,101872,6,0,P|262:222|288:227,1,58,0|0,3:0|0:0,0:0:0:0:
413,337,102194,1,0,3:0:0:0:
395,201,102356,1,0,0:0:0:0:
291,340,102517,2,0,L|280:212,1,116,0|0,3:0|3:0,0:0:0:0:
320,122,103001,2,0,P|275:132|244:119,1,58,0|0,0:0|3:0,0:0:0:0:
160,83,103323,1,2,0:0:0:0:
160,83,103485,1,2,0:0:0:0:
242,29,103646,1,2,0:0:0:0:
253,187,104452,5,4,0:0:0:0:
201,254,113807,6,0,P|168:244|157:232,1,43.5,6|0,0:0|0:0,0:0:0:0:
277,214,114130,6,0,L|285:303,1,87,2|0,0:0|0:0,0:0:0:0:
364,357,114452,6,0,L|373:259,1,76.1249976768494,4|0,0:0|0:0,0:0:0:0:
459,189,114775,6,0,L|277:175,1,159.500004867554,4|8,3:0|0:0,0:0:0:0:
192,159,115259,2,0,P|198:111|230:78,1,79.7500024337769,2|0,0:0|3:0,0:0:0:0:
333,52,115581,1,2,3:0:0:0:
299,176,115743,1,10,0:0:0:0:
192,49,115904,6,0,L|111:41,1,79.7500024337769,2|0,0:0|3:0,0:0:0:0:
25,114,116226,1,2,3:0:0:0:
134,177,116388,1,10,3:0:0:0:
58,273,116549,2,0,P|42:229|61:176,1,79.7500024337769,2|0,3:0|0:0,0:0:0:0:
134,177,116872,1,2,3:0:0:0:
208,261,117033,2,0,L|218:345,1,79.7500024337769,10|2,0:0|0:0,0:0:0:0:
347,282,117356,5,2,3:0:0:0:
279,159,117517,1,2,0:0:0:0:
266,320,117678,1,10,0:0:0:0:
384,196,117839,1,2,0:0:0:0:
239,236,118001,2,0,P|197:216|182:172,1,79.7500024337769,2|2,3:0|3:0,0:0:0:0:
300,74,118323,1,10,0:0:0:0:
437,176,118485,6,0,L|273:158,1,159.500004867554,2|0,0:0|3:0,0:0:0:0:
129,114,118968,2,0,L|208:105,1,79.7500024337769,10|0,0:0|3:0,0:0:0:0:
296,16,119291,1,2,0:0:0:0:
325,169,119452,1,2,3:0:0:0:
216,27,119614,1,10,0:0:0:0:
197,187,119775,1,2,3:0:0:0:
368,102,119936,6,0,L|374:274,1,159.500004867554,2|8,3:0|0:0,0:0:0:0:
296,342,120420,2,0,P|254:340|211:297,1,79.7500024337769,2|0,0:0|3:0,0:0:0:0:
255,187,120743,1,2,3:0:0:0:
134,304,120904,1,10,0:0:0:0:
152,138,121065,6,0,L|157:224,1,79.7500024337769,2|0,0:0|3:0,0:0:0:0:
246,92,121388,1,2,0:0:0:0:
255,187,121549,1,10,0:0:0:0:
72,148,121710,2,0,L|157:137,1,79.7500024337769,2|0,0:0|3:0,0:0:0:0:
341,30,122033,1,2,3:0:0:0:
246,92,122194,1,10,0:0:0:0:
350,145,122356,1,2,0:0:0:0:
447,82,122517,6,0,B|469:130|469:130|438:242,1,159.500004867554,2|8,3:0|0:0,0:0:0:0:
338,349,123001,2,0,L|332:259,1,79.7500024337769,2|0,0:0|3:0,0:0:0:0:
225,191,123323,2,0,L|219:281,1,79.7500024337769,2|8,3:0|0:0,0:0:0:0:
129,342,123646,1,2,0:0:0:0:
80,229,123807,6,0,L|1:224,1,79.7500024337769,0|0,3:0|0:0,0:0:0:0:
73,113,124130,1,10,0:0:0:0:
73,113,124291,2,0,L|152:118,1,79.7500024337769,0|2,3:0|0:0,0:0:0:0:
279,125,124614,2,0,P|279:91|272:72,2,39.8750012168885,8|8|10,3:0|3:0|3:0,0:0:0:0:
200,233,124936,2,0,P|234:233|253:226,1,39.8750012168885,8|8,3:0|3:0,0:0:0:0:
316,255,125097,6,0,P|319:223|303:193,1,54.375,6|0,0:0|0:0,0:0:0:0:
208,146,125420,6,0,L|369:117,1,159.500004867554,4|0,3:0|0:0,0:0:0:0:
453,54,125904,1,2,3:0:0:0:
400,201,126065,1,10,0:0:0:0:
299,40,126226,6,0,L|282:134,1,79.7500024337769,2|0,0:0|3:0,0:0:0:0:
400,201,126549,1,2,3:0:0:0:
284,118,126710,1,10,3:0:0:0:
414,279,126872,2,0,L|399:200,1,79.7500024337769,2|0,3:0|0:0,0:0:0:0:
303,210,127194,1,2,3:0:0:0:
195,301,127356,2,0,L|274:311,1,79.7500024337769,10|2,0:0|0:0,0:0:0:0:
135,212,127678,5,2,3:0:0:0:
65,292,127839,1,2,0:0:0:0:
53,150,128001,1,10,0:0:0:0:
165,259,128162,1,2,0:0:0:0:
214,133,128323,2,0,P|222:85|212:54,1,79.7500024337769,2|2,3:0|3:0,0:0:0:0:
95,36,128646,1,10,0:0:0:0:
94,179,128807,6,0,L|265:161,1,159.500004867554,2|0,0:0|3:0,0:0:0:0:
358,65,129291,2,0,L|347:153,1,79.7500024337769,10|0,0:0|0:0,0:0:0:0:
311,274,129614,1,2,3:0:0:0:
219,145,129775,1,2,3:0:0:0:
209,322,129936,1,8,0:0:0:0:
295,190,130097,1,2,3:0:0:0:
126,265,130259,6,0,P|88:228|86:173,1,79.7500024337769,2|0,3:0|0:0,0:0:0:0:
171,75,130581,1,8,0:0:0:0:
54,37,130743,2,0,L|37:130,1,79.7500024337769,2|0,0:0|3:0,0:0:0:0:
163,187,131065,1,2,3:0:0:0:
39,115,131226,1,10,0:0:0:0:
171,75,131388,6,0,L|257:63,1,79.7500024337769,2|0,0:0|3:0,0:0:0:0:
356,173,131710,1,2,0:0:0:0:
265,243,131872,1,10,0:0:0:0:
364,93,132033,2,0,L|355:179,1,79.7500024337769,2|0,0:0|3:0,0:0:0:0:
456,333,132356,1,2,3:0:0:0:
429,241,132517,1,10,0:0:0:0:
328,326,132678,1,2,0:0:0:0:
328,326,132839,6,0,L|168:321,1,159.500004867554,2|10,3:0|0:0,0:0:0:0:
109,261,133323,2,0,P|84:310|86:349,1,79.7500024337769,2|0,0:0|3:0,0:0:0:0:
56,198,133646,2,0,P|105:173|144:175,1,79.7500024337769,2|8,3:0|0:0,0:0:0:0:
203,238,133968,1,2,0:0:0:0:
269,87,134130,6,0,L|256:165,1,79.7500024337769,0|0,3:0|3:0,0:0:0:0:
361,278,134452,1,8,0:0:0:0:
361,278,134614,2,0,L|348:199,1,79.7500024337769,0|0,3:0|0:0,0:0:0:0:
423,109,134936,2,0,L|472:105,2,39.8750012168885,8|8|10,3:0|3:0|3:0,0:0:0:0:
272,39,135259,1,8,3:0:0:0:
272,39,135339,1,8,3:0:0:0:
272,39,135420,1,6,3:0:0:0:
256,192,135501,12,2,139130,0:0:0:0:
81,175,139291,6,0,L|166:190,1,72.5,0|0,3:0|0:0,0:0:0:0:
237,270,139614,2,0,L|165:282,1,72.5,10|2,0:0|0:0,0:0:0:0:
258,157,139936,1,2,3:0:0:0:
258,157,140097,1,2,0:0:0:0:
343,296,140259,2,0,L|335:198,1,72.5,10|2,0:0|0:0,0:0:0:0:
390,132,140581,6,0,P|322:121|251:165,1,145,0|8,3:0|0:0,0:0:0:0:
183,227,141065,1,2,0:0:0:0:
135,105,141226,1,2,3:0:0:0:
97,192,141388,1,2,0:0:0:0:
224,109,141549,2,0,P|222:71|202:37,1,72.5,10|2,0:0|0:0,0:0:0:0:
39,43,141872,6,0,L|197:24,1,145,0|8,3:0|0:0,0:0:0:0:
335,95,142356,1,2,0:0:0:0:
240,178,142517,1,2,3:0:0:0:
276,25,142678,1,2,0:0:0:0:
361,169,142839,2,0,P|405:138|412:96,1,72.5,10|2,0:0|0:0,0:0:0:0:
250,106,143162,6,0,L|229:258,1,145,0|8,3:0|0:0,0:0:0:0:
345,353,143646,1,2,0:0:0:0:
315,241,143807,1,2,3:0:0:0:
216,351,143968,1,2,0:0:0:0:
315,241,144130,2,0,L|408:231,1,72.5,10|2,0:0|0:0,0:0:0:0:
394,121,144452,6,0,L|247:105,1,145,0|8,3:0|0:0,0:0:0:0:
165,177,144936,1,2,0:0:0:0:
78,71,145097,2,0,L|69:155,1,72.5,2|8,3:0|3:0,0:0:0:0:
70,143,145339,1,8,3:0:0:0:
70,143,145420,1,10,3:0:0:0:
112,265,145581,1,10,3:0:0:0:
112,265,145662,1,8,3:0:0:0:
112,265,145743,6,0,P|202:280|265:204,1,188.499991371155,6|8,3:0|0:0,0:0:0:0:
308,107,146226,1,2,0:0:0:0:
378,189,146388,2,0,L|479:174,1,94.2499956855776,2|2,3:0|0:0,0:0:0:0:
424,298,146710,2,0,L|330:284,1,94.2499956855776,10|2,0:0|0:0,0:0:0:0:
268,352,147033,6,0,P|233:266|296:197,1,188.499991371155,0|8,3:0|0:0,0:0:0:0:
330,284,147517,1,2,0:0:0:0:
298,105,147678,2,0,L|287:204,1,94.2499956855776,2|2,3:0|0:0,0:0:0:0:
171,141,148001,2,0,L|160:42,1,94.2499956855776,10|2,0:0|0:0,0:0:0:0:
60,151,148323,6,0,L|249:172,1,188.499991371155,0|8,3:0|0:0,0:0:0:0:
366,75,148807,1,2,0:0:0:0:
313,213,148968,1,2,3:0:0:0:
273,46,149130,1,2,0:0:0:0:
411,144,149291,2,0,P|443:94|439:50,1,94.2499956855776,10|2,0:0|0:0,0:0:0:0:
273,46,149614,6,0,L|254:237,1,188.499991371155,0|8,3:0|0:0,0:0:0:0:
182,345,150097,1,2,0:0:0:0:
114,195,150259,1,2,3:0:0:0:
254,233,150420,1,2,0:0:0:0:
114,280,150581,2,0,P|59:267|30:231,1,94.2499956855776,10|2,0:0|0:0,0:0:0:0:
219,132,150904,6,0,L|231:239,1,94.2499956855776,0|0,3:0|0:0,0:0:0:0:
354,224,151226,1,8,0:0:0:0:
360,60,151388,1,2,0:0:0:0:
306,137,151549,2,0,P|250:149|207:118,1,94.2499956855776,2|2,3:0|0:0,0:0:0:0:
360,60,151872,2,0,P|402:42|446:55,1,94.2499956855776,10|2,0:0|0:0,0:0:0:0:
426,236,152194,6,0,L|414:133,1,94.2499956855776,0|0,3:0|0:0,0:0:0:0:
306,137,152517,1,8,0:0:0:0:
215,245,152678,1,2,0:0:0:0:
212,126,152839,2,0,L|312:137,1,94.2499956855776,2|2,3:0|0:0,0:0:0:0:
215,245,153162,2,0,L|121:234,1,94.2499956855776,10|2,0:0|0:0,0:0:0:0:
326,240,153485,6,0,L|336:333,1,94.2499956855776,0|0,3:0|0:0,0:0:0:0:
198,357,153807,1,8,0:0:0:0:
215,245,153968,1,2,0:0:0:0:
31,306,154130,2,0,L|130:290,1,94.2499956855776,2|2,3:0|0:0,0:0:0:0:
141,177,154452,2,0,L|47:192,1,94.2499956855776,10|2,0:0|0:0,0:0:0:0:
196,111,154775,6,0,P|229:166|213:221,1,94.2499956855776,0|0,3:0|0:0,0:0:0:0:
111,71,155097,1,8,0:0:0:0:
141,177,155259,1,2,0:0:0:0:
262,36,155420,2,0,L|363:24,1,94.2499956855776,2|2,3:0|0:0,0:0:0:0:
320,182,155743,2,0,L|226:193,1,94.2499956855776,10|2,0:0|0:0,0:0:0:0:
47,288,156065,6,0,L|38:357,3,65.2499980087281,6|0|0|0,0:0|0:0|0:0|0:0,0:0:0:0:
128,241,156710,2,0,P|165:237|204:261,1,65.2499980087281,2|2,0:0|0:0,0:0:0:0:
197,334,157033,2,0,P|228:338|259:327,1,65.2499980087281,2|2,0:0|0:0,0:0:0:0:
328,246,157356,6,0,L|319:181,3,65.2499980087281,2|0|0|0,0:0|0:0|0:0|0:0,0:0:0:0:
373,95,158001,2,0,P|331:83|302:90,1,65.2499980087281,2|2,0:0|0:0,0:0:0:0:
234,149,158323,2,0,P|192:161|163:154,1,65.2499980087281,2|2,0:0|0:0,0:0:0:0:
113,82,158646,6,0,L|44:73,3,65.2499980087281,2|0|0|0,0:0|0:0|0:0|0:0,0:0:0:0:
234,149,159291,2,0,L|243:234,1,65.2499980087281,2|2,0:0|0:0,0:0:0:0:
106,146,159614,2,0,L|115:61,1,65.2499980087281,2|2,0:0|0:0,0:0:0:0:
233,45,159936,6,0,P|283:41|304:51,1,65.2499980087281,2|0,0:0|0:0,0:0:0:0:
375,165,160259,2,0,P|332:138|321:118,1,65.2499980087281,2|0,0:0|0:0,0:0:0:0:
405,80,160581,1,2,0:0:0:0:
405,80,160743,1,2,0:0:0:0:
489,170,160904,1,2,0:0:0:0:
465,18,161065,1,2,0:0:0:0:
375,165,161226,6,0,L|359:318,1,130.499996017456,6|0,0:0|0:0,0:0:0:0:
283,338,161710,1,0,0:0:0:0:
217,281,161872,2,0,P|181:273|151:283,1,65.2499980087281,2|2,0:0|0:0,0:0:0:0:
72,343,162194,1,2,0:0:0:0:
103,203,162356,1,2,0:0:0:0:
217,281,162517,6,0,L|209:147,1,130.499996017456,2|0,0:0|0:0,0:0:0:0:
123,120,163001,1,0,0:0:0:0:
192,56,163162,2,0,P|226:46|257:53,1,65.2499980087281,2|2,0:0|0:0,0:0:0:0:
342,153,163485,1,2,0:0:0:0:
479,38,163646,1,2,0:0:0:0:
479,38,163807,6,0,L|325:52,1,130.499996017456,2|0,0:0|0:0,0:0:0:0:
306,135,164291,1,0,0:0:0:0:
410,223,164452,2,0,P|411:168|395:135,1,65.2499980087281,2|2,0:0|0:0,0:0:0:0:
310,261,164775,1,2,0:0:0:0:
439,351,164936,1,2,0:0:0:0:
439,351,165097,6,0,L|367:346,1,65.2499980087281,2|0,0:0|0:0,0:0:0:0:
298,234,165420,1,2,0:0:0:0:
226,354,165581,1,2,0:0:0:0:
155,241,165743,6,0,B|136:54|136:54|182:121,1,260.999992034912,6|0,0:0|0:0,0:0:0:0:
256,192,166710,12,0,167839,0:0:0:0:
