osu file format v14

[General]
AudioFilename: audio.mp3
AudioLeadIn: 0
PreviewTime: 10568
Countdown: 1
SampleSet: Normal
StackLeniency: 0.7
Mode: 0
LetterboxInBreaks: 0
WidescreenStoryboard: 0

[Editor]
DistanceSpacing: 5.5
BeatDivisor: 4
GridSize: 4
TimelineZoom: 1.8

[Metadata]
Title:Marshmary (Ringtone Size)
TitleUnicode:Marshmary (Ringtone Size)
Artist:MIMI feat. Hatsune Miku
ArtistUnicode:MIMI feat. Hatsune Miku
Creator:Bustabonejones
Version:Extreme
Source:
Tags:pog
BeatmapID:2040674
BeatmapSetID:974946

[Difficulty]
HPDrainRate:6
CircleSize:3.8
OverallDifficulty:9
ApproachRate:9.4
SliderMultiplier:1.6
SliderTickRate:1

[Events]
//Background and Video events
0,0,"bgowo.jpg",0,0
//Break Periods
//Storyboard Layer 0 (Background)
//Storyboard Layer 1 (Fail)
//Storyboard Layer 2 (Pass)
//Storyboard Layer 3 (Foreground)
//Storyboard Sound Samples

[TimingPoints]
101,329.67032967033,4,1,0,100,1,0
101,-100,4,1,0,85,0,0
1000,-100,4,1,0,85,0,0
9084,-133.333333333333,4,1,0,85,0,0
10320,-100,4,1,0,75,0,0
29936,-100,4,1,0,80,0,0
30430,-100,4,1,0,65,0,0
30595,-100,4,1,0,40,0,0
30760,-100,4,1,0,25,0,0
30925,-100,4,1,0,15,0,0
31172,-100,4,1,0,5,0,0

[HitObjects]
97,277,101,6,0,P|123:246|127:188,2,80
193,171,595,2,0,P|162:145|104:141,2,80
380,323,1254,6,0,P|416:279|406:178,1,160
284,106,1749,1,0,0:0:0:0:
192,172,1914,5,0,0:0:0:0:
240,192,1996,1,0,0:0:0:0:
292,200,2079,2,0,L|390:184,1,80
442,78,2408,2,0,L|346:64,1,80
82,84,2738,2,0,P|76:125|94:177,2,80
233,256,3232,2,0,P|239:215|222:162,1,80
160,52,3562,1,0,0:0:0:0:
164,292,3892,6,0,P|237:329|304:283,1,160
373,126,4386,1,0,0:0:0:0:
235,261,4551,1,0,0:0:0:0:
235,261,4881,1,0,0:0:0:0:
176,88,5046,1,0,0:0:0:0:
372,295,5375,6,0,P|398:264|400:201,2,80
467,188,5870,2,0,P|436:162|377:157,2,80
202,315,6529,2,0,P|125:286|79:208,1,160,0|0,0:3|0:3,0:3:0:0:
144,87,7024,1,0,0:0:0:0:
78,146,7188,5,0,0:0:0:0:
126,166,7270,1,0,0:0:0:0:
178,174,7353,2,0,L|277:154,1,80
382,67,7683,2,0,L|286:51,1,80
310,255,8013,6,0,P|336:224|340:162,2,80
73,132,8672,2,0,P|114:102|168:103,1,80
276,136,9002,1,0,0:0:0:0:
194,289,9166,2,0,P|265:279|152:240,1,367.500014019013
221,223,10650,5,4,0:0:0:0:
442,166,10815,1,0,0:0:0:0:
185,155,10980,5,0,0:0:0:0:
445,238,11144,1,0,0:0:0:0:
140,220,11309,5,0,0:0:0:0:
433,90,11474,2,0,P|466:64|523:50,2,80
118,203,11969,5,0,0:0:0:0:
412,126,12133,1,0,0:0:0:0:
203,336,12298,1,0,0:0:0:0:
239,66,12463,1,0,0:0:0:0:
407,284,12628,1,0,0:0:0:0:
118,203,12793,1,0,0:0:0:0:
412,126,12958,1,0,0:0:0:0:
203,336,13122,1,0,0:0:0:0:
400,318,13287,5,0,0:0:0:0:
112,316,13452,1,0,0:0:0:0:
440,216,13617,5,0,0:0:0:0:
72,216,13782,1,0,0:0:0:0:
496,120,13947,5,0,0:0:0:0:
32,124,14111,2,0,P|79:117|122:131,2,80
96,344,14606,5,0,0:0:0:0:
181,60,14771,1,0,0:0:0:0:
226,303,14936,5,0,0:0:0:0:
188,60,15101,1,0,0:0:0:0:
357,227,15265,5,0,0:0:0:0:
186,63,15430,1,0,0:0:0:0:
392,88,15595,5,0,0:0:0:0:
181,60,15760,1,0,0:0:0:0:
74,326,15925,5,0,0:0:0:0:
47,63,16090,1,0,0:0:0:0:
258,331,16254,1,0,0:0:0:0:
303,71,16419,1,0,0:0:0:0:
56,200,16584,1,0,0:0:0:0:
380,205,16749,2,0,P|431:207|480:221,2,80
56,200,17243,5,0,0:0:0:0:
360,332,17408,1,0,0:0:0:0:
151,73,17573,5,0,0:0:0:0:
195,344,17738,1,0,0:0:0:0:
300,74,17903,5,0,0:0:0:0:
90,287,18068,1,0,0:0:0:0:
312,320,18232,5,0,0:0:0:0:
36,168,18397,1,0,0:0:0:0:
371,179,18562,5,0,0:0:0:0:
139,99,18727,1,0,0:0:0:0:
286,337,18892,1,0,0:0:0:0:
284,21,19057,1,0,0:0:0:0:
110,323,19221,1,0,0:0:0:0:
400,70,19386,2,0,P|444:62|488:34,2,80
80,130,19881,5,0,0:0:0:0:
398,212,20046,1,0,0:0:0:0:
42,334,20210,1,0,0:0:0:0:
220,76,20375,2,0,P|296:79|351:145,1,160
234,336,20870,1,0,0:0:0:0:
92,96,21035,1,0,0:0:0:0:
295,160,21199,5,0,0:0:0:0:
70,218,21364,1,0,0:0:0:0:
327,228,21529,5,0,0:0:0:0:
67,145,21693,1,0,0:0:0:0:
372,164,21858,5,0,0:0:0:0:
84,295,22023,2,0,P|51:320|1:345,2,80
394,180,22518,5,0,0:0:0:0:
100,258,22682,1,0,0:0:0:0:
291,43,22847,1,0,0:0:0:0:
273,318,23012,1,0,0:0:0:0:
105,100,23177,1,0,0:0:0:0:
394,180,23342,1,0,0:0:0:0:
100,258,23507,1,0,0:0:0:0:
291,43,23672,1,0,0:0:0:0:
112,66,23836,5,0,0:0:0:0:
255,302,24001,1,0,0:0:0:0:
72,168,24166,5,0,0:0:0:0:
395,267,24331,1,0,0:0:0:0:
16,264,24496,5,0,0:0:0:0:
375,127,24661,2,0,P|351:170|312:204,2,80
368,12,25155,5,0,0:0:0:0:
235,278,25320,1,0,0:0:0:0:
290,29,25485,5,0,0:0:0:0:
316,296,25650,1,0,0:0:0:0:
236,84,25814,5,0,0:0:0:0:
404,300,25980,1,0,0:0:0:0:
216,160,26144,1,0,0:0:0:0:
488,272,26309,1,0,0:0:0:0:
438,58,26474,5,0,0:0:0:0:
376,308,26639,1,0,0:0:0:0:
225,49,26803,1,0,0:0:0:0:
276,309,26968,1,0,0:0:0:0:
456,184,27133,1,0,0:0:0:0:
131,177,27298,2,0,P|80:175|31:164,2,80
466,263,27792,5,0,0:0:0:0:
235,68,27957,1,0,0:0:0:0:
381,302,28122,5,0,0:0:0:0:
317,40,28287,1,0,0:0:0:0:
208,276,28452,5,0,0:0:0:0:
422,97,28617,1,0,0:0:0:0:
148,108,28782,1,0,0:0:0:0:
446,210,28947,1,0,0:0:0:0:
141,204,29111,5,0,0:0:0:0:
373,285,29276,1,0,0:0:0:0:
226,47,29441,1,0,0:0:0:0:
227,362,29606,1,0,0:0:0:0:
402,61,29770,1,0,0:0:0:0:
112,314,29936,2,0,P|68:321|25:353,2,80
432,254,30430,5,0,0:0:0:0:
114,172,30595,1,0,0:0:0:0:
469,50,30759,1,0,0:0:0:0:
292,308,30925,2,0,P|216:305|156:223,1,160
