osu file format v14

[General]
AudioFilename: audio.mp3
AudioLeadIn: 0
PreviewTime: 159124
Countdown: 0
SampleSet: Soft
StackLeniency: 0.4
Mode: 0
LetterboxInBreaks: 0
WidescreenStoryboard: 1

[Editor]
Bookmarks: 448,47506,66330,103977,141624,160448,198095
DistanceSpacing: 1.5
BeatDivisor: 4
GridSize: 4
TimelineZoom: 2.532

[Metadata]
Title:Ai no Sukima
TitleUnicode:哀の隙間
Artist:MIMI feat. Hatsune Miku
ArtistUnicode:MIMI feat. 初音ミク
Creator:theramdans
Version:theCrisdans' Expert
Source:osu!
Tags:vocaloid sorrow gap 佐藤主税 sato chiiro Cris- Pyrozen featured artist fa mappers' guild mpg japanese pop jpop j-pop
BeatmapID:2748904
BeatmapSetID:1323207

[Difficulty]
HPDrainRate:6
CircleSize:4.2
OverallDifficulty:8.2
ApproachRate:9.2
SliderMultiplier:1.35
SliderTickRate:1

[Events]
//Background and Video events
0,0,"mikuowo.jpg",0,0
//Break Periods
//Storyboard Layer 0 (Background)
//Storyboard Layer 1 (Fail)
//Storyboard Layer 2 (Pass)
//Storyboard Layer 3 (Foreground)
Sprite,Foreground,Centre,"sb\theramdansCris-.png",0,0 M,0,13683,,320,320 S,0,13683,,0.4444444 F,2,13683,14565,0,1 F,4,18095,19271,1,0
//Storyboard Layer 4 (Overlay)
//Storyboard Sound Samples

[TimingPoints]
448,294.117647058824,4,2,1,35,1,0
448,-133.333333333333,4,2,1,35,0,0
9345,-200,4,2,1,50,0,0
9565,-200,4,2,1,20,0,0
9859,-100,4,2,1,60,0,0
28683,-133.333333333333,4,2,1,20,0,0
30962,-133.333333333333,4,2,1,5,0,0
31036,-133.333333333333,4,2,1,20,0,0
35668,-133.333333333333,4,2,1,5,0,0
35742,-133.333333333333,4,2,1,20,0,0
37212,-200,4,2,1,20,0,0
37506,-200,4,2,1,5,0,0
38095,-100,4,2,1,40,0,0
40374,-100,4,2,1,5,0,0
40448,-100,4,2,1,40,0,0
45080,-100,4,2,1,5,0,0
45153,-100,4,2,1,40,0,0
46330,-100,4,2,1,46,0,0
46624,-100,4,2,1,52,0,0
46918,-100,4,2,1,58,0,0
47212,-100,4,2,1,64,0,0
47506,-71.4285714285714,4,2,1,70,0,1
55962,-71.4285714285714,4,2,1,5,0,1
56036,-71.4285714285714,4,2,1,70,0,1
66330,-100,4,2,1,60,0,0
85153,-133.333333333333,4,2,1,40,0,0
87433,-133.333333333333,4,2,1,20,0,0
87506,-133.333333333333,4,2,1,40,0,0
92139,-133.333333333333,4,2,1,20,0,0
92212,-133.333333333333,4,2,1,40,0,0
94565,-100,4,2,1,50,0,0
101550,-100,4,2,1,5,0,0
101624,-100,4,2,1,50,0,0
102800,-100,4,2,1,55,0,0
103242,-100,4,2,1,60,0,0
103683,-100,4,2,1,65,0,0
103977,-71.4285714285714,4,2,1,70,0,1
122359,-71.4285714285714,4,2,1,70,0,0
122800,-71.4285714285714,4,2,1,70,0,1
123095,-71.4285714285714,4,2,1,70,0,1
141624,-166.666666666667,4,2,1,30,0,0
159492,-166.666666666667,4,2,1,5,0,0
159565,-142.857142857143,4,2,1,55,0,0
159786,-142.857142857143,4,2,1,5,0,0
159859,-125,4,2,1,60,0,0
160080,-125,4,2,1,5,0,0
160153,-111.111111111111,4,2,1,65,0,0
160374,-111.111111111111,4,2,1,5,0,0
160448,-71.4285714285714,4,2,1,70,0,1
168903,-71.4285714285714,4,2,1,5,0,1
168977,-71.4285714285714,4,2,1,70,0,1
178315,-71.4285714285714,4,2,1,5,0,1
178389,-71.4285714285714,4,2,1,70,0,1
178977,-71.4285714285714,4,2,1,70,0,0
179271,-71.4285714285714,4,2,1,80,0,1
187727,-71.4285714285714,4,2,1,5,0,1
187800,-71.4285714285714,4,2,1,80,0,1
197800,-71.4285714285714,4,2,1,80,0,0
198095,-100,4,2,1,70,0,1
198389,-100,4,2,1,70,0,0
207506,-133.333333333333,4,2,1,40,0,0

[Colours]
Combo1 : 81,217,189
Combo2 : 51,143,247
Combo3 : 90,207,157
Combo4 : 57,181,240

[HitObjects]
363,94,448,6,0,L|415:86,2,50.6250019311906,2|2|2,0:0|0:0|0:0,0:0:0:0:
312,168,1036,2,0,L|319:218,1,50.6250019311906,2|2,0:0|0:0,0:0:0:0:
357,285,1330,2,0,L|349:335,1,50.6250019311906,2|2,0:0|0:0,0:0:0:0:
274,339,1624,6,0,B|208:354|208:354|179:335,1,101.250003862381,2|2,0:0|0:0,0:0:0:0:
142,252,2212,1,2,0:0:0:0:
96,249,2359,2,0,L|44:261,2,50.6250019311906,2|2|2,0:0|0:0|0:0,0:0:0:0:
124,179,2800,6,0,B|180:169|180:169|229:186,1,101.250003862381,2|2,0:0|0:0,0:0:0:0:
298,232,3389,2,0,L|301:285,2,50.6250019311906,0|0|2,0:0|0:0|0:0,0:0:0:0:
361,166,3977,2,0,L|363:115,2,50.6250019311906,0|0|2,0:0|0:0|0:0,0:0:0:0:
277,129,4565,1,2,0:0:0:0:
261,114,5153,6,0,L|263:56,2,50.6250019311906,2|2|2,0:0|0:0|0:0,0:0:0:0:
218,194,5742,2,0,L|167:197,1,50.6250019311906,2|2,0:0|0:0,0:0:0:0:
127,261,6036,2,0,L|76:265,1,50.6250019311906,2|2,0:0|0:0,0:0:0:0:
38,201,6330,6,0,P|18:149|35:91,1,101.250003862381,2|2,0:0|0:0,0:0:0:0:
118,67,6918,1,2,0:0:0:0:
155,92,7065,2,0,L|157:143,2,50.6250019311906,2|2|2,0:0|0:0|0:0,0:0:0:0:
216,48,7506,6,0,P|269:65|320:33,1,101.250003862381,2|2,0:0|0:0,0:0:0:0:
389,99,8095,2,0,L|439:99,2,50.6250019311906,0|0|2,0:0|0:0|0:0,0:0:0:0:
373,188,8683,2,0,L|427:188,2,50.6250019311906,0|0|2,0:0|0:0|0:0,0:0:0:0:
252,154,9271,6,0,P|224:86|175:141,1,177.187506759167,2|0,0:0|0:0,0:0:0:0:
198,223,9859,5,6,3:2:0:0:
115,252,10006,1,2,0:0:0:0:
174,335,10153,2,0,L|247:325,1,67.5,10|0,0:0|0:0,0:0:0:0:
283,181,10448,1,2,3:2:0:0:
203,129,10595,1,2,3:2:0:0:
198,223,10742,1,10,0:0:0:0:
283,181,10889,1,2,3:2:0:0:
270,94,11036,6,0,P|334:72|415:119,2,135,2|8|0,3:2|0:0|0:0,0:0:0:0:
333,164,11771,1,2,3:2:0:0:
257,221,11918,2,0,P|247:252|247:286,1,67.5,10|2,0:0|3:2,0:0:0:0:
70,222,12212,6,0,P|80:253|80:287,1,67.5,2|0,3:2|0:0,0:0:0:0:
164,185,12506,2,0,L|180:115,1,67.5,8|0,0:0|0:0,0:0:0:0:
286,71,12800,1,2,3:2:0:0:
286,71,12948,1,2,3:2:0:0:
399,143,13095,2,0,L|331:146,1,67.5,10|0,0:0|0:0,0:0:0:0:
164,185,13389,5,2,3:2:0:0:
164,185,13537,1,2,3:2:0:0:
250,261,13684,2,0,L|318:258,1,67.5,10|0,0:0|0:0,0:0:0:0:
202,340,13977,2,0,P|177:317|163:288,1,67.5,2|0,3:2|3:2,0:0:0:0:
124,132,14271,2,0,P|149:154|164:185,1,67.5,8|0,0:0|3:2,0:0:0:0:
18,122,14565,5,2,3:2:0:0:
29,236,14712,1,2,0:0:0:0:
124,132,14859,2,0,L|191:134,1,67.5,8|0,0:0|0:0,0:0:0:0:
265,213,15153,1,2,3:2:0:0:
316,144,15300,1,2,3:2:0:0:
360,233,15448,1,10,0:0:0:0:
411,165,15595,1,2,0:0:0:0:
475,226,15742,6,0,L|496:361,2,135,2|8|0,3:2|0:0|0:0,0:0:0:0:
360,233,16477,1,2,3:2:0:0:
295,295,16624,2,0,L|307:373,1,67.5,10|2,0:0|3:2,0:0:0:0:
182,253,16918,6,0,L|168:182,1,67.5,2|0,3:2|0:0,0:0:0:0:
288,103,17212,2,0,P|254:100|222:108,1,67.5,8|0,0:0|0:0,0:0:0:0:
360,233,17506,1,2,3:2:0:0:
360,233,17653,1,2,3:2:0:0:
416,154,17800,2,0,P|422:121|422:88,1,67.5,10|0,0:0|0:0,0:0:0:0:
269,187,18095,5,2,3:2:0:0:
269,187,18242,1,2,3:2:0:0:
360,233,18389,2,0,P|373:269|379:307,1,67.5,10|0,0:0|0:0,0:0:0:0:
303,343,18683,2,0,P|270:354|237:358,1,67.5,2|0,3:2|3:2,0:0:0:0:
250,271,18977,1,8,0:0:0:0:
114,300,19124,1,2,3:2:0:0:
114,300,19198,1,2,3:2:0:0:
114,300,19271,6,0,L|107:383,1,67.5,2|2,3:2|0:0,0:0:0:0:
60,199,19565,2,0,B|65:129,1,67.5,8|0,0:0|0:0,0:0:0:0:
192,104,19859,1,2,3:2:0:0:
284,73,20006,1,2,3:2:0:0:
185,10,20153,1,10,0:0:0:0:
94,40,20300,1,2,3:2:0:0:
192,104,20448,6,0,P|200:170|171:229,2,135,2|8|0,3:2|0:0|0:0,0:0:0:0:
112,155,21183,1,2,3:2:0:0:
69,255,21330,2,0,L|78:329,1,67.5,10|2,0:0|3:2,0:0:0:0:
171,229,21624,6,0,P|175:196|193:168,1,67.5,2|0,3:2|0:0,0:0:0:0:
342,200,21918,2,0,P|348:232|337:264,1,67.5,8|0,0:0|0:0,0:0:0:0:
232,336,22212,1,2,3:2:0:0:
232,336,22359,1,2,3:2:0:0:
194,168,22506,2,0,P|228:176|253:197,1,67.5,10|0,0:0|0:0,0:0:0:0:
69,255,22800,5,2,3:2:0:0:
69,255,22948,1,2,3:2:0:0:
232,336,23095,2,0,P|261:350|295:348,1,67.5,10|0,0:0|0:0,0:0:0:0:
354,263,23389,2,0,P|356:230|342:200,1,67.5,2|0,3:2|3:2,0:0:0:0:
255,146,23683,2,0,P|222:149|194:168,1,67.5,8|0,0:0|3:2,0:0:0:0:
131,317,23977,5,2,3:2:0:0:
69,255,24124,1,2,0:0:0:0:
126,161,24271,2,0,B|194:167,1,67.5,8|0,0:0|0:0,0:0:0:0:
297,217,24565,1,2,3:2:0:0:
271,309,24712,1,2,3:2:0:0:
361,286,24859,1,10,0:0:0:0:
297,217,25006,1,2,3:2:0:0:
336,369,25153,6,0,P|407:363|449:303,2,135,2|8|0,3:2|0:0|0:0,0:0:0:0:
361,286,25889,1,2,3:2:0:0:
205,208,26036,2,0,L|236:287,1,67.5,10|2,0:0|3:2,0:0:0:0:
298,133,26330,6,0,L|365:130,1,67.5,2|0,3:2|0:0,0:0:0:0:
428,281,26624,2,0,L|361:286,1,67.5,8|0,0:0|0:0,0:0:0:0:
205,208,26919,1,2,3:2:0:0:
205,208,27065,1,2,3:2:0:0:
123,320,27212,2,0,L|120:253,1,67.5,10|0,0:0|0:0,0:0:0:0:
269,320,27506,5,2,3:2:0:0:
269,320,27652,1,2,3:2:0:0:
360,277,27800,2,0,L|427:281,1,67.5,10|0,0:0|0:0,0:0:0:0:
450,90,28095,2,0,P|441:129|416:159,1,67.5,2|0,3:2|3:2,0:0:0:0:
360,277,28389,2,0,P|323:256|301:223,1,67.5,10|0,0:0|3:2,0:0:0:0:
199,166,28683,6,0,B|215:212|215:212|205:265,2,101.250003862381,6|0|2,3:2|0:0|0:0,0:0:0:0:
348,80,29565,1,2,0:0:0:0:
348,80,29712,1,2,0:0:0:0:
348,80,29859,6,0,B|338:131|338:131|354:177,2,101.250003862381,2|0|2,0:0|0:0|0:0,0:0:0:0:
230,306,30742,2,0,L|154:309,1,75.9375028967858,2|0,0:0|0:0,0:0:0:0:
154,309,31036,6,0,B|134:272|134:272|145:213,2,101.250003862381,2|0|2,0:0|0:0|0:0,0:0:0:0:
264,215,31918,1,2,0:0:0:0:
264,215,32065,1,2,0:0:0:0:
264,215,32212,6,0,L|379:207,2,101.250003862381,2|0|2,0:0|0:0|0:0,0:0:0:0:
238,344,33095,2,0,L|178:342,1,50.6250019311906,2|2,0:0|0:0,0:0:0:0:
177,250,33389,6,0,B|138:269|138:269|70:255,2,101.250003862381,2|0|2,0:0|0:0|0:0,0:0:0:0:
232,118,34271,2,0,L|289:123,1,50.6250019311906,2|2,0:0|0:0,0:0:0:0:
357,80,34565,6,0,B|370:137|370:137|350:175,1,101.250003862381,2|2,0:0|0:0,0:0:0:0:
199,195,35153,1,2,0:0:0:0:
308,303,35448,2,0,B|345:312|345:312|383:306,1,75.9375028967858,2|0,0:0|0:0,0:0:0:0:
383,306,35742,6,0,B|452:296|452:296|487:316,1,101.250003862381,2|2,0:0|0:0,0:0:0:0:
512,148,36330,2,0,B|443:158|443:158|408:138,1,101.250003862381,2|2,0:0|0:0,0:0:0:0:
252,33,36918,1,2,0:0:0:0:
252,33,37065,1,2,0:0:0:0:
252,33,37212,2,0,P|312:56|367:21,1,135,2|0,0:0|0:0,0:0:0:0:
252,33,38095,6,0,L|89:13,2,135,2|2|0,3:2|0:0|3:2,0:0:0:0:
388,13,38830,1,2,0:0:0:0:
466,51,38977,2,0,P|472:84|476:117,1,67.5,2|2,0:0|0:0,0:0:0:0:
376,158,39271,6,0,P|400:220|378:282,1,135,2|2,3:2|0:0,0:0:0:0:
321,348,39712,1,2,0:0:0:0:
249,299,39859,2,0,P|208:307|170:307,1,67.5,0|2,3:2|0:0,0:0:0:0:
113,182,40153,2,0,P|162:172|213:179,1,101.25,2|0,0:0|0:0,0:0:0:0:
212,179,40448,6,0,P|232:115|217:50,1,135,2|2,3:2|0:0,0:0:0:0:
325,20,40889,2,0,L|401:6,1,67.5,2|0,0:0|3:2,0:0:0:0:
458,92,41183,1,2,0:0:0:0:
383,170,41330,2,0,P|387:204|386:238,1,67.5,2|2,0:0|0:0,0:0:0:0:
433,330,41624,6,0,P|369:344|314:308,1,135,2|2,3:2|0:0,0:0:0:0:
252,246,42065,1,2,0:0:0:0:
197,314,42212,2,0,L|122:318,1,67.5,0|0,3:2|0:0,0:0:0:0:
51,357,42506,2,0,P|39:325|47:293,1,67.5,2|2,3:2|0:0,0:0:0:0:
71,147,42800,6,0,P|136:144|178:193,1,135,2|2,3:2|0:0,0:0:0:0:
252,246,43242,1,0,0:0:0:0:
285,130,43389,2,0,L|363:134,1,67.5,2|0,3:2|0:0,0:0:0:0:
437,230,43683,1,2,0:0:0:0:
437,230,43830,1,2,0:0:0:0:
437,230,43977,6,0,P|455:295|435:359,1,135,2|2,3:2|0:0,0:0:0:0:
366,293,44418,1,2,0:0:0:0:
273,272,44565,2,0,L|269:204,1,67.5,0|0,3:2|0:0,0:0:0:0:
260,73,44859,2,0,P|296:37|344:22,1,101.25,2|0,0:0|0:0,0:0:0:0:
374,27,45153,6,0,P|411:56|429:87,1,67.5,2|0,3:2|0:0,0:0:0:0:
343,114,45448,2,0,P|350:147|349:181,1,67.5,2|0,0:0|0:0,0:0:0:0:
253,180,45742,2,0,P|252:146|260:113,1,67.5,2|0,3:2|0:0,0:0:0:0:
174,95,46036,2,0,P|189:65|212:41,1,67.5,2|0,0:0|0:0,0:0:0:0:
159,184,46330,6,0,P|127:175|94:174,1,67.5,2|0,3:2|0:0,0:0:0:0:
63,248,46624,2,0,P|36:270|16:297,1,67.5,2|0,3:2|0:0,0:0:0:0:
118,332,46918,2,0,P|142:311|161:284,1,67.5,2|0,3:2|0:0,0:0:0:0:
305,252,47212,2,0,P|295:219|279:190,1,67.5,2|0,3:2|0:0,0:0:0:0:
206,378,47506,6,0,B|256:404|300:366|276:347|323:304|369:331,1,188.999994232178,6|10,3:2|0:0,0:0:0:0:
183,204,47948,2,0,P|107:225|162:281,1,188.999994232178,2|0,3:2|3:2,0:0:0:0:
263,114,48389,2,0,P|309:109|340:141,1,94.4999971160889,10|0,0:0|0:0,0:0:0:0:
166,51,48683,6,0,P|122:66|78:83,1,94.4999971160889,2|0,3:2|0:0,0:0:0:0:
288,7,48977,1,10,0:0:0:0:
183,204,49124,2,0,B|246:227|317:253|317:253|277:275,1,188.999994232178,2|0,3:2|3:2,0:0:0:0:
102,347,49565,2,0,P|84:303|68:258,1,94.4999971160889,10|0,0:0|3:2,0:0:0:0:
245,367,49859,5,2,3:2:0:0:
310,164,50006,1,2,3:2:0:0:
240,384,50153,1,10,0:0:0:0:
315,147,50300,1,2,3:2:0:0:
159,229,50448,2,0,P|205:224|236:256,1,94.4999971160889,2|2,3:2|3:2,0:0:0:0:
83,138,50742,1,10,0:0:0:0:
202,112,50889,1,2,3:2:0:0:
54,282,51036,6,0,B|80:232|42:188|23:212|-20:165|7:119,1,188.999994232178,2|10,3:2|0:0,0:0:0:0:
170,320,51477,2,0,P|83:351|-7:384,1,188.999994232178,2|0,3:2|3:2,0:0:0:0:
159,229,51918,2,0,P|203:246|247:262,1,94.4999971160889,10|0,0:0|0:0,0:0:0:0:
8,118,52212,6,0,P|21:195|82:146,1,188.999994232178,2|10,3:2|0:0,0:0:0:0:
280,77,52653,2,0,B|351:93|365:174|332:216|288:189|302:160,1,188.999994232178,2|0,3:2|3:2,0:0:0:0:
217,26,53095,2,0,P|248:-6|294:-1,1,94.4999971160889,10|0,0:0|0:0,0:0:0:0:
82,145,53389,6,0,P|65:101|49:57,1,94.4999971160889,2|0,3:2|0:0,0:0:0:0:
126,270,53683,1,10,0:0:0:0:
280,77,53830,2,0,B|396:120|396:120|418:103|418:103|386:88,1,188.999994232178,2|0,3:2|3:2,0:0:0:0:
201,153,54271,2,0,P|245:170|289:186,1,94.4999971160889,10|0,0:0|3:2,0:0:0:0:
486,314,54565,5,2,3:2:0:0:
283,379,54712,1,2,3:2:0:0:
503,309,54859,1,10,0:0:0:0:
266,384,55006,1,2,3:2:0:0:
348,234,55153,2,0,P|381:265|378:309,1,94.4999971160889,2|2,3:2|3:2,0:0:0:0:
301,128,55447,1,10,0:0:0:0:
228,226,55594,1,0,0:0:0:0:
423,98,55742,6,0,B|382:111|353:78|373:66|341:35|304:46,1,141.749995674133,2|0,3:2|0:0,0:0:0:0:
218,88,56036,2,0,P|201:43|184:0,1,94.4999971160889,10|0,0:0|0:0,0:0:0:0:
301,128,56330,2,0,P|284:172|267:216,1,94.4999971160889,2|0,3:2|3:2,0:0:0:0:
474,39,56624,2,0,P|507:70|502:115,1,94.4999971160889,10|0,0:0|3:2,0:0:0:0:
312,17,56918,6,0,B|249:40|178:66|178:66|218:88,1,188.999994232178,2|10,3:2|0:0,0:0:0:0:
390,236,57359,2,0,B|439:172|379:114|379:114|387:142|372:164,1,188.999994232178,2|0,3:2|3:2,0:0:0:0:
265,332,57800,2,0,P|310:326|341:359,1,94.4999971160889,10|0,0:0|0:0,0:0:0:0:
209,170,58095,6,0,P|165:187|121:204,1,94.4999971160889,2|0,3:2|3:2,0:0:0:0:
44,152,58315,1,2,3:2:0:0:
44,152,58389,1,10,0:0:0:0:
282,211,58536,2,0,B|317:167|289:116|266:136|233:81|270:40,1,188.999994232178,2|0,3:2|3:2,0:0:0:0:
211,254,58977,2,0,P|237:292|282:294,1,94.4999971160889,10|0,0:0|0:0,0:0:0:0:
137,140,59271,5,2,3:2:0:0:
340,75,59418,1,2,3:2:0:0:
120,145,59565,1,10,0:0:0:0:
357,70,59712,1,2,3:2:0:0:
282,211,59859,2,0,P|249:180|252:136,1,94.4999971160889,2|2,3:2|3:2,0:0:0:0:
319,317,60153,1,10,0:0:0:0:
398,231,60300,1,2,3:2:0:0:
205,338,60448,6,0,P|161:321|117:304,1,94.4999971160889,2|2,3:2|3:2,0:0:0:0:
44,356,60668,1,2,3:2:0:0:
44,356,60742,1,10,0:0:0:0:
248,195,60889,2,0,B|281:210|281:210|259:227|259:227|143:184,1,188.999994232178,2|0,3:2|3:2,0:0:0:0:
34,17,61330,2,0,P|17:61|0:105,1,94.4999971160889,10|0,0:0|0:0,0:0:0:0:
269,7,61624,6,0,B|288:-18|332:6|312:54|234:81|186:28,1,188.999994232178,2|10,3:2|0:0,0:0:0:0:
263,237,62065,2,0,B|308:169|382:207|382:207|353:209|337:230,1,188.999994232178,2|0,3:2|0:0,0:0:0:0:
135,136,62506,2,0,P|101:167|106:212,1,94.4999971160889,10|0,0:0|0:0,0:0:0:0:
305,68,62800,6,0,P|349:85|393:102,1,94.4999971160889,2|0,3:2|0:0,0:0:0:0:
185,27,63095,1,10,0:0:0:0:
241,270,63242,2,0,B|197:235|146:263|166:286|111:319|70:282,1,188.999994232178,2|0,3:2|3:2,0:0:0:0:
293,206,63683,2,0,P|326:237|321:282,1,94.4999971160889,10|0,0:0|3:2,0:0:0:0:
155,120,63977,5,2,3:2:0:0:
358,55,64124,1,2,3:2:0:0:
138,125,64271,1,10,0:0:0:0:
375,50,64418,1,2,3:2:0:0:
293,206,64566,2,0,P|298:160|266:129,1,94.4999971160889,2|2,3:2|3:2,0:0:0:0:
395,265,64860,1,10,0:0:0:0:
295,321,65007,1,2,3:2:0:0:
391,146,65153,6,0,P|462:178|455:100,1,188.999994232178,2|10,3:2|0:0,0:0:0:0:
279,245,65595,2,0,P|192:214|102:181,1,188.999994232178,2|0,3:2|3:2,0:0:0:0:
383,287,66036,2,0,P|339:304|295:321,1,94.4999971160889,8|8,0:0|3:2,0:0:0:0:
504,275,66330,5,6,3:2:0:0:
449,344,66477,1,2,0:0:0:0:
372,191,66624,2,0,L|374:124,1,67.5,10|0,0:0|0:0,0:0:0:0:
251,88,66918,1,2,3:2:0:0:
165,128,67065,1,2,3:2:0:0:
205,213,67212,1,10,0:0:0:0:
291,173,67359,1,2,3:2:0:0:
165,128,67506,6,0,P|97:126|30:132,2,135,2|8|0,3:2|0:0|0:0,0:0:0:0:
251,88,68242,1,2,3:2:0:0:
338,102,68389,2,0,L|396:149,1,67.5,10|2,0:0|3:2,0:0:0:0:
338,315,68683,6,0,L|396:268,1,67.5,2|0,3:2|0:0,0:0:0:0:
260,206,68977,2,0,B|218:201|218:201|194:209,1,67.5,8|0,0:0|0:0,0:0:0:0:
98,317,69271,1,2,3:2:0:0:
98,317,69418,1,2,3:2:0:0:
41,173,69565,2,0,L|52:243,1,67.5,10|0,0:0|0:0,0:0:0:0:
194,208,69859,5,2,3:2:0:0:
194,208,70006,1,2,3:2:0:0:
129,106,70153,2,0,L|196:94,1,67.5,10|0,0:0|0:0,0:0:0:0:
282,184,70448,2,0,P|278:217|283:251,1,67.5,2|0,3:2|3:2,0:0:0:0:
354,115,70742,2,0,P|358:82|353:49,1,67.5,8|0,0:0|3:2,0:0:0:0:
179,8,71036,5,2,3:2:0:0:
195,94,71183,1,2,0:0:0:0:
93,56,71330,2,0,L|76:121,1,67.5,8|0,0:0|0:0,0:0:0:0:
171,184,71624,1,2,3:2:0:0:
268,215,71771,1,2,3:2:0:0:
236,311,71918,1,10,0:0:0:0:
140,281,72065,1,2,3:2:0:0:
96,99,72212,6,0,B|8:96|8:96|-29:142,2,135,2|8|0,3:2|0:0|0:0,0:0:0:0:
171,184,72948,1,2,3:2:0:0:
140,281,73095,2,0,P|134:336|135:362,1,67.5,10|2,0:0|3:2,0:0:0:0:
316,281,73389,6,0,P|322:336|321:362,1,67.5,2|0,3:2|0:0,0:0:0:0:
372,206,73683,2,0,P|340:194|307:190,1,67.5,8|0,0:0|0:0,0:0:0:0:
140,281,73977,1,2,3:2:0:0:
140,281,74124,1,2,3:2:0:0:
30,244,74271,2,0,L|34:317,1,67.5,10|0,0:0|0:0,0:0:0:0:
156,194,74565,5,2,3:2:0:0:
156,194,74712,1,2,3:2:0:0:
288,280,74859,2,0,L|297:347,1,67.5,10|0,0:0|0:0,0:0:0:0:
372,206,75153,2,0,L|363:139,1,67.5,2|0,3:2|3:2,0:0:0:0:
284,41,75448,1,8,0:0:0:0:
156,194,75595,1,2,3:2:0:0:
156,194,75668,1,2,3:2:0:0:
156,194,75742,6,0,L|75:186,1,67.5,2|2,3:2|0:0,0:0:0:0:
133,57,76036,2,0,P|169:56|212:54,1,67.5,8|0,0:0|0:0,0:0:0:0:
239,172,76330,1,2,3:2:0:0:
343,213,76477,1,2,3:2:0:0:
374,303,76624,1,10,0:0:0:0:
270,262,76771,1,2,3:2:0:0:
184,378,76918,6,0,P|133:335|114:271,2,135,2|8|0,3:2|0:0|0:0,0:0:0:0:
304,345,77653,1,2,3:2:0:0:
270,262,77800,2,0,L|265:171,1,67.5,8|2,0:0|3:2,0:0:0:0:
361,87,78095,6,0,P|357:120|348:153,1,67.5,2|0,3:2|0:0,0:0:0:0:
209,90,78389,2,0,P|242:90|275:99,1,67.5,8|0,0:0|0:0,0:0:0:0:
270,262,78683,1,2,3:2:0:0:
270,262,78830,1,2,3:2:0:0:
196,199,78977,2,0,B|181:224|181:224|178:262,1,67.5,10|0,0:0|0:0,0:0:0:0:
370,262,79271,5,2,3:2:0:0:
370,262,79418,1,2,3:2:0:0:
444,199,79565,2,0,B|458:224|458:224|462:263,1,67.5,10|0,0:0|0:0,0:0:0:0:
333,344,79859,2,0,B|304:350|304:350|267:339,1,67.5,2|0,3:2|3:2,0:0:0:0:
189,264,80153,2,0,B|184:236|184:236|195:199,1,67.5,8|0,0:0|3:2,0:0:0:0:
321,82,80448,5,2,3:2:0:0:
246,32,80595,1,2,3:2:0:0:
395,21,80742,2,0,P|409:51|414:84,1,67.5,8|0,0:0|0:0,0:0:0:0:
359,170,81036,1,2,3:2:0:0:
343,272,81183,1,2,3:2:0:0:
242,234,81330,1,10,0:0:0:0:
203,345,81477,1,2,3:2:0:0:
342,271,81624,6,0,P|402:299|458:266,2,135,2|8|0,3:2|0:0|0:0,0:0:0:0:
284,364,82359,1,2,3:2:0:0:
109,297,82506,2,0,L|119:366,1,67.5,10|2,0:0|3:2,0:0:0:0:
67,174,82800,6,0,L|0:177,1,67.5,2|0,3:2|0:0,0:0:0:0:
107,58,83095,2,0,L|174:61,1,67.5,8|0,0:0|0:0,0:0:0:0:
306,146,83389,1,2,3:2:0:0:
306,146,83536,1,2,3:2:0:0:
219,231,83683,2,0,B|216:271|216:271|225:297,1,67.5,10|0,0:0|0:0,0:0:0:0:
345,318,83977,5,2,3:2:0:0:
345,318,84124,1,2,3:2:0:0:
448,219,84271,2,0,B|457:245|457:245|454:285,1,67.5,10|0,0:0|0:0,0:0:0:0:
219,231,84565,2,0,P|227:262|245:291,1,67.5,2|0,3:2|3:2,0:0:0:0:
311,234,84859,2,0,P|335:202|344:172,1,67.5,8|0,0:0|3:2,0:0:0:0:
272,61,85153,6,0,P|321:68|360:37,2,101.250003862381,6|2|8,3:2|0:3|0:0,0:0:0:0:
132,178,86036,1,2,3:3:0:0:
132,178,86183,1,2,0:0:0:0:
132,178,86330,6,0,P|83:171|44:202,2,101.250003862381,2|2|8,0:0|3:3|0:0,0:0:0:0:
204,288,87212,2,0,P|241:279|279:285,1,75.9375028967858,2|0,0:3|0:0,0:0:0:0:
320,333,87506,6,0,P|305:286|322:239,2,101.250003862381,2|2|8,3:2|0:3|0:0,0:0:0:0:
447,296,88242,1,2,0:0:0:0:
447,296,88389,2,0,P|423:290|398:288,1,50.6250019311906,2|2,3:3|0:0,0:0:0:0:
378,175,88683,6,0,P|433:181|491:193,2,101.250003862381,0|0|8,0:0|3:3|0:0,0:0:0:0:
239,118,89565,2,0,P|234:81|247:56,1,50.6250019311906,2|2,0:3|0:0,0:0:0:0:
287,19,89859,6,0,B|238:31|238:31|184:15,2,101.250003862381,2|2|8,3:2|0:3|0:0,0:0:0:0:
394,126,90742,1,2,3:3:0:0:
394,126,90889,1,2,0:0:0:0:
394,126,91036,6,0,L|399:238,2,101.250003862381,2|2|8,0:0|3:3|0:0,0:0:0:0:
278,206,91918,2,0,L|202:207,1,75.9375028967858,2|0,0:3|0:0,0:0:0:0:
202,207,92212,6,0,B|216:253|216:253|197:302,1,101.250003862381,2|2,3:2|0:3,0:0:0:0:
75,245,92653,1,0,3:2:0:0:
75,245,92800,2,0,L|125:247,1,50.6250019311906,10|0,0:0|0:0,0:0:0:0:
14,186,93095,2,0,L|4:119,1,67.5000025749207,2|2,0:3|0:0,0:0:0:0:
22,52,93389,6,0,P|69:37|115:54,1,101.250003862381,2|10,3:2|0:0,0:0:0:0:
191,162,93830,1,2,0:0:0:0:
191,162,94271,1,8,0:0:0:0:
265,135,94418,1,8,0:0:0:0:
312,244,94565,6,0,P|360:231|345:158,1,135,2|2,3:2|0:3,0:0:0:0:
229,229,95006,1,2,0:0:0:0:
229,229,95153,2,0,B|223:264|223:264|237:296,1,67.5,8|0,3:2|0:0,0:0:0:0:
104,227,95448,2,0,B|110:192|110:192|96:160,1,67.5,2|2,0:3|0:0,0:0:0:0:
31,57,95742,6,0,B|92:77|92:77|159:54,1,135,2|2,3:2|0:3,0:0:0:0:
279,117,96183,1,2,0:0:0:0:
279,117,96330,2,0,B|241:131|241:131|212:120,1,67.5,8|0,3:2|0:0,0:0:0:0:
367,83,96624,2,0,B|375:118|375:118|367:150,1,67.5,2|0,0:3|0:0,0:0:0:0:
241,268,96918,6,0,P|298:284|363:233,1,135,2|2,3:2|0:3,0:0:0:0:
279,117,97359,1,2,0:0:0:0:
279,117,97506,2,0,L|287:184,1,67.5,8|2,3:2|0:0,0:0:0:0:
207,72,97800,2,0,L|199:5,1,67.5,2|2,0:3|0:0,0:0:0:0:
148,134,98095,6,0,B|81:165|86:108|18:133,1,135,2|2,3:2|0:3,0:0:0:0:
63,282,98536,1,2,0:0:0:0:
63,282,98683,2,0,P|54:249|55:215,1,67.5,8|0,3:2|0:0,0:0:0:0:
148,134,98977,1,2,3:3:0:0:
107,56,99124,1,2,0:0:0:0:
148,134,99271,6,0,B|191:112|191:112|287:129,1,135,2|2,3:2|0:3,0:0:0:0:
325,226,99712,1,2,0:0:0:0:
325,226,99859,2,0,L|310:305,1,67.5,8|0,3:2|0:0,0:0:0:0:
413,134,100153,2,0,L|425:200,1,67.5,2|2,0:3|0:0,0:0:0:0:
472,88,100448,6,0,B|417:117|417:117|340:90,1,135,0|2,3:2|0:3,0:0:0:0:
214,49,100889,1,2,0:0:0:0:
214,49,101036,2,0,B|250:36|250:36|286:44,1,67.5,8|0,3:2|0:0,0:0:0:0:
303,170,101330,2,0,B|246:180|246:180|206:162,1,101.25,2|0,0:3|0:0,0:0:0:0:
181,144,101624,6,0,L|166:278,1,135,2|2,3:2|0:3,0:0:0:0:
270,348,102065,1,2,0:0:0:0:
270,348,102212,2,0,P|300:310|305:283,1,67.5,10|0,3:2|0:0,0:0:0:0:
366,234,102506,2,0,P|382:263|385:297,1,67.5,2|2,0:3|0:3,0:0:0:0:
304,188,102800,6,0,P|329:166|362:157,2,67.5,8|2|2,3:2|0:3|0:3,0:0:0:0:
457,186,103242,1,8,0:0:0:0:
457,186,103389,2,0,L|465:263,1,67.5,2|2,0:3|0:3,0:0:0:0:
498,112,103683,2,0,L|490:35,1,67.5,10|2,0:0|0:3,0:0:0:0:
260,153,103977,6,0,P|334:180|324:102,1,188.999994232178,6|10,3:2|0:0,0:0:0:0:
143,245,104418,2,0,B|127:174|46:160|4:193|31:237|60:223,1,188.999994232178,2|0,3:2|3:2,0:0:0:0:
264,360,104859,2,0,P|279:316|296:272,1,94.4999971160889,10|0,0:0|0:0,0:0:0:0:
60,381,105153,6,0,P|30:346|39:301,1,94.4999971160889,2|2,3:2|3:2,0:0:0:0:
115,328,105374,1,2,3:2:0:0:
116,328,105448,1,10,0:0:0:0:
16,86,105595,2,0,B|-17:101|-17:101|4:118|4:118|120:75,1,188.999994232178,2|0,3:2|3:2,0:0:0:0:
345,203,106036,2,0,P|300:186|256:170,1,94.4999971160889,10|0,0:0|3:2,0:0:0:0:
39,302,106330,5,2,3:2:0:0:
242,367,106477,1,2,3:2:0:0:
22,297,106624,1,10,0:0:0:0:
259,372,106771,1,2,3:2:0:0:
174,217,106918,2,0,P|179:263|147:294,1,94.4999971160889,2|2,3:2|3:2,0:0:0:0:
210,99,107213,1,10,0:0:0:0:
97,131,107360,1,2,3:2:0:0:
331,62,107506,6,0,P|347:106|363:150,1,94.4999971160889,2|2,3:2|3:2,0:0:0:0:
394,224,107727,1,2,3:2:0:0:
394,224,107800,1,10,0:0:0:0:
233,18,107948,2,0,B|183:-8|139:30|163:49|116:92|68:64,1,188.999994232178,2|0,3:2|3:2,0:0:0:0:
381,0,108389,2,0,P|413:31|408:77,1,94.4999971160889,10|0,0:0|0:0,0:0:0:0:
188,229,108683,6,0,B|171:186|171:186|242:212|305:235,1,188.999994232178,2|10,3:2|0:0,0:0:0:0:
72,331,109124,2,0,B|109:259|39:212|39:212|52:238|41:263,1,188.999994232178,2|0,3:2|3:2,0:0:0:0:
285,307,109565,2,0,P|252:338|257:384,1,94.4999971160889,10|0,0:0|0:0,0:0:0:0:
162,169,109859,6,0,P|206:154|250:137,1,94.4999971160889,2|0,3:2|0:0,0:0:0:0:
40,212,110153,1,10,0:0:0:0:
285,307,110300,2,0,B|169:264|169:264|147:281|147:281|180:296,1,188.999994232178,2|0,3:2|3:2,0:0:0:0:
363,150,110742,2,0,P|395:181|390:227,1,94.4999971160889,10|0,0:0|3:2,0:0:0:0:
225,70,111036,5,2,3:2:0:0:
428,5,111183,1,2,3:2:0:0:
208,75,111330,1,10,0:0:0:0:
445,0,111477,1,2,3:2:0:0:
363,150,111624,2,0,P|330:119|333:75,1,94.4999971160889,2|2,3:2|3:2,0:0:0:0:
407,257,111918,1,10,0:0:0:0:
480,162,112065,1,2,3:2:0:0:
261,306,112212,6,0,B|311:280|355:318|331:337|378:380|424:353,1,188.999994232178,2|8,3:2|0:0,0:0:0:0:
215,205,112654,1,2,0:0:0:0:
429,99,112800,2,0,P|395:130|400:175,1,94.4999971160889,2|0,3:2|3:2,0:0:0:0:
185,20,113095,2,0,P|218:51|213:96,1,94.4999971160889,10|0,0:0|3:2,0:0:0:0:
485,0,113389,6,0,P|398:31|308:64,1,188.999994232178,2|10,3:2|0:0,0:0:0:0:
38,162,113830,2,0,P|112:188|101:110,1,188.999994232178,2|0,3:2|3:2,0:0:0:0:
294,255,114271,2,0,P|289:209|322:178,1,94.4999971160889,10|0,0:0|0:0,0:0:0:0:
108,333,114565,6,0,P|64:318|20:301,1,94.4999971160889,2|2,3:2|3:2,0:0:0:0:
230,377,114859,1,10,0:0:0:0:
38,162,115006,2,0,B|5:177|5:177|27:194|27:194|144:150,1,188.999994232178,2|0,3:2|3:2,0:0:0:0:
384,57,115448,2,0,P|339:41|295:24,1,94.4999971160889,10|0,0:0|3:2,0:0:0:0:
208,207,115742,5,2,3:2:0:0:
411,142,115889,1,2,3:2:0:0:
191,212,116036,1,10,0:0:0:0:
428,137,116183,1,2,3:2:0:0:
353,278,116330,2,0,P|320:247|323:203,1,94.4999971160889,2|2,3:2|3:2,0:0:0:0:
399,384,116624,1,10,0:0:0:0:
470,291,116771,1,2,3:2:0:0:
166,376,116918,6,0,B|193:328|150:281|131:305|93:261|119:211,1,188.999994232178,2|10,3:2|0:0,0:0:0:0:
353,278,117359,2,0,P|278:251|289:329,1,188.999994232178,2|0,3:2|3:2,0:0:0:0:
356,126,117800,2,0,P|398:141|444:158,1,94.4999971160889,10|0,0:0|0:0,0:0:0:0:
168,66,118095,6,0,B|143:47|167:3|215:23|242:101|187:150,1,188.999994232178,2|10,3:2|0:0,0:0:0:0:
448,29,118536,2,0,B|481:44|481:44|459:61|459:61|343:18,1,188.999994232178,2|0,3:2|3:2,0:0:0:0:
263,261,118977,2,0,P|307:244|351:228,1,94.4999971160889,10|0,0:0|0:0,0:0:0:0:
86,120,119271,6,0,P|69:164|52:208,1,94.4999971160889,2|0,3:2|0:0,0:0:0:0:
130,0,119566,1,10,0:0:0:0:
263,261,119712,2,0,P|273:182|199:209,1,188.999994232178,2|0,3:2|3:2,0:0:0:0:
420,92,120153,2,0,P|453:123|448:168,1,94.4999971160889,10|0,0:0|0:0,0:0:0:0:
211,70,120448,5,2,3:2:0:0:
414,5,120595,1,2,3:2:0:0:
194,75,120742,1,10,0:0:0:0:
431,0,120889,1,2,3:2:0:0:
363,157,121036,2,0,P|330:126|333:82,1,94.4999971160889,2|2,3:2|3:2,0:0:0:0:
411,268,121330,1,10,0:0:0:0:
295,253,121477,1,2,3:2:0:0:
475,58,121624,6,0,B|425:84|381:46|405:27|358:-16|312:11,1,188.999994232178,2|10,3:2|0:0,0:0:0:0:
127,183,122065,2,0,P|94:152|97:108,1,94.4999971160889,2|0,3:2|0:0,0:0:0:0:
187,318,122359,1,2,3:2:0:0:
225,220,122506,1,10,0:0:0:0:
91,281,122653,1,2,3:2:0:0:
321,382,122800,6,0,P|336:337|351:292,1,94.4999971160889,6|0,3:2|0:0,0:0:0:0:
195,130,123095,2,0,P|210:175|225:220,1,94.4999971160889,10|0,0:0|0:0,0:0:0:0:
424,140,123389,1,2,3:2:0:0:
419,155,123536,1,2,0:0:0:0:
257,56,123683,1,10,0:0:0:0:
252,71,123830,1,2,0:0:0:0:
428,167,123977,5,2,3:2:0:0:
423,182,124124,1,2,3:2:0:0:
237,79,124271,1,10,0:0:0:0:
232,94,124418,1,2,3:2:0:0:
483,15,124565,2,0,P|498:60|513:105,1,94.4999971160889,2|0,3:2|0:0,0:0:0:0:
356,0,124859,2,0,P|341:45|326:90,1,94.4999971160889,10|0,0:0|0:0,0:0:0:0:
136,250,125153,6,0,P|102:218|107:173,1,94.4999971160889,2|0,3:2|0:0,0:0:0:0:
183,371,125448,1,10,0:0:0:0:
190,384,125595,1,2,0:0:0:0:
44,261,125742,1,2,3:2:0:0:
28,254,125889,1,2,0:0:0:0:
210,195,126036,1,10,0:0:0:0:
223,184,126183,1,2,0:0:0:0:
52,380,126330,5,2,3:2:0:0:
126,328,126477,1,2,3:2:0:0:
0,104,126624,1,10,0:0:0:0:
74,52,126771,1,2,3:2:0:0:
74,52,126918,2,0,P|119:67|164:82,1,94.4999971160889,2|0,3:2|0:0,0:0:0:0:
18,191,127212,1,10,0:0:0:0:
230,33,127359,1,2,3:2:0:0:
5,201,127506,6,0,P|50:216|95:231,1,94.4999971160889,2|0,3:2|0:0,0:0:0:0:
284,353,127800,2,0,P|239:368|194:383,1,94.4999971160889,10|0,0:0|0:0,0:0:0:0:
297,188,128095,1,2,3:2:0:0:
312,193,128242,1,2,0:0:0:0:
131,132,128389,1,10,0:0:0:0:
116,137,128536,1,2,0:0:0:0:
318,209,128683,5,2,3:2:0:0:
333,214,128830,1,2,3:2:0:0:
101,128,128977,1,10,0:0:0:0:
86,133,129124,1,2,3:2:0:0:
321,24,129271,2,0,P|366:39|411:54,1,94.4999971160889,2|0,3:2|0:0,0:0:0:0:
231,0,129565,2,0,P|186:15|141:30,1,94.4999971160889,10|0,0:0|0:0,0:0:0:0:
318,209,129859,6,0,P|314:163|347:132,1,94.4999971160889,2|0,3:2|0:0,0:0:0:0:
171,275,130153,1,10,0:0:0:0:
166,261,130300,1,2,0:0:0:0:
407,197,130448,2,0,P|448:216|458:261,1,94.4999971160889,2|0,3:2|0:0,0:0:0:0:
238,131,130742,1,8,0:0:0:0:
243,117,130889,1,2,0:0:0:0:
372,280,131036,5,2,3:2:0:0:
372,280,131183,2,0,P|334:306|290:292,1,94.4999971160889,2|10,0:0|0:0,0:0:0:0:
318,209,131477,1,2,0:0:0:0:
81,108,131624,5,2,3:2:0:0:
155,56,131771,1,2,3:2:0:0:
318,209,131918,1,10,0:0:0:0:
392,157,132065,1,2,3:2:0:0:
81,108,132212,6,0,P|55:145|68:189,1,94.4999971160889,2|0,3:2|0:0,0:0:0:0:
303,81,132506,2,0,P|316:37|290:0,1,94.4999971160889,10|0,0:0|0:0,0:0:0:0:
148,164,132800,1,2,3:2:0:0:
163,169,132947,1,2,0:0:0:0:
336,276,133094,1,10,0:0:0:0:
321,281,133241,1,2,0:0:0:0:
175,160,133388,5,2,3:2:0:0:
190,165,133535,1,2,3:2:0:0:
313,296,133682,1,10,0:0:0:0:
298,301,133829,1,2,3:2:0:0:
391,62,133977,2,0,P|436:77|481:92,1,94.4999971160889,2|0,3:2|0:0,0:0:0:0:
280,195,134271,2,0,P|235:180|190:165,1,94.4999971160889,10|0,0:0|0:0,0:0:0:0:
348,384,134565,6,0,P|380:350|425:355,1,94.4999971160889,2|0,3:2|0:0,0:0:0:0:
209,254,134859,1,10,0:0:0:0:
194,253,135006,1,2,0:0:0:0:
374,191,135153,1,2,3:2:0:0:
389,181,135300,1,2,0:0:0:0:
345,367,135447,1,10,0:0:0:0:
348,384,135594,1,2,0:0:0:0:
284,135,135742,5,2,3:2:0:0:
308,232,135888,1,2,3:2:0:0:
72,347,136036,1,10,0:0:0:0:
48,250,136182,1,2,3:2:0:0:
48,250,136329,2,0,P|93:265|138:280,1,94.4999971160889,2|0,3:2|0:0,0:0:0:0:
366,162,136623,1,10,0:0:0:0:
120,76,136770,1,2,3:2:0:0:
381,168,136917,6,0,P|414:136|409:91,1,94.4999971160889,2|0,3:2|0:0,0:0:0:0:
252,301,137212,2,0,P|218:269|223:224,1,94.4999971160889,10|0,0:0|0:0,0:0:0:0:
452,348,137506,1,2,3:2:0:0:
447,363,137653,1,2,0:0:0:0:
508,182,137800,1,8,0:0:0:0:
503,167,137947,1,2,0:0:0:0:
431,369,138094,5,2,3:2:0:0:
426,384,138241,1,2,3:2:0:0:
512,152,138388,1,10,0:0:0:0:
507,137,138535,1,2,3:2:0:0:
302,235,138683,2,0,P|347:230|378:264,1,94.4999971160889,2|0,3:2|0:0,0:0:0:0:
370,34,138977,2,0,P|400:67|446:63,1,94.4999971160889,10|0,0:0|0:0,0:0:0:0:
202,149,139271,6,0,P|187:104|172:59,1,94.4999971160889,2|0,3:2|0:0,0:0:0:0:
370,157,139565,1,10,0:0:0:0:
375,143,139712,1,2,0:0:0:0:
185,238,139859,2,0,P|153:273|122:308,1,94.4999971160889,2|0,3:2|0:0,0:0:0:0:
77,117,140153,1,10,0:0:0:0:
72,103,140300,1,0,0:0:0:0:
272,206,140448,5,2,3:2:0:0:
272,206,140595,2,0,P|318:215|364:225,1,94.4999971160889,0|10,0:0|0:0,0:0:0:0:
335,134,140889,1,2,0:0:0:0:
123,308,141036,5,2,3:2:0:0:
197,360,141183,1,2,3:2:0:0:
433,155,141330,1,10,0:0:0:0:
507,207,141477,1,2,3:2:0:0:
256,32,141624,5,6,3:2:0:0:
138,193,142506,1,2,0:0:0:0:
138,171,142800,1,2,3:2:0:0:
376,293,143683,1,2,0:0:0:0:
360,278,143977,6,0,P|322:289|298:320,1,80.9999975280763,2|2,3:2|0:0,0:0:0:0:
244,173,144565,2,0,P|222:206|226:246,1,80.9999975280763,2|2,0:0|0:0,0:0:0:0:
423,128,145153,2,0,P|375:91|315:87,1,121.499996292114,2|2,3:2|0:0,0:0:0:0:
316,87,146036,1,2,0:0:0:0:
300,102,146330,5,2,3:2:0:0:
124,222,147212,1,2,0:0:0:0:
141,238,147506,1,2,3:2:0:0:
334,360,148389,1,2,0:0:0:0:
350,345,148683,6,0,P|370:301|368:270,1,80.9999975280763,2|2,3:2|0:0,0:0:0:0:
220,377,149271,2,0,P|195:335|168:319,1,80.9999975280763,2|2,0:0|0:0,0:0:0:0:
79,186,149859,2,0,P|88:127|130:85,1,121.499996292114,2|2,3:2|0:0,0:0:0:0:
130,85,150742,1,2,0:0:0:0:
202,179,151036,6,0,B|246:180|246:180|294:104,2,121.499996292114,2|2|2,3:2|0:0|0:0,0:0:0:0:
145,286,152212,2,0,B|101:285|101:285|53:361,2,121.499996292114,2|2|2,3:2|0:0|0:0,0:0:0:0:
294,230,153389,6,0,B|306:194|306:194|295:133,1,80.9999975280763,2|2,3:2|0:0,0:0:0:0:
206,100,153977,2,0,B|194:136|194:136|205:197,1,80.9999975280763,2|2,0:0|0:0,0:0:0:0:
145,286,154565,2,0,L|240:292,1,80.9999975280763,2|2,3:2|0:0,0:0:0:0:
301,238,155006,1,2,0:0:0:0:
301,238,155153,2,0,L|384:212,1,80.9999975280763,2|2,3:2|0:0,0:0:0:0:
465,148,155742,6,0,P|490:101|467:29,2,121.499996292114,2|2|2,3:2|0:0|0:0,0:0:0:0:
338,148,156918,2,0,P|312:101|336:29,2,121.499996292114,2|2|2,3:2|0:0|0:0,0:0:0:0:
273,260,158095,6,0,B|229:266|229:266|183:235,1,80.9999975280763,2|0,3:2|0:0,0:0:0:0:
106,194,158536,1,0,0:0:0:0:
106,194,158683,2,0,B|136:162|136:162|191:158,1,80.9999975280763,2|2,0:0|0:0,0:0:0:0:
338,161,159271,6,0,P|353:186|350:215,1,60.7499981460572,2|0,0:0|0:0,0:0:0:0:
338,161,159565,6,0,P|371:169|393:196,1,70.8749978370667,2|0,0:0|0:0,0:0:0:0:
338,161,159859,6,0,P|371:140|411:144,1,81,2|0,0:0|0:0,0:0:0:0:
338,161,160153,6,0,P|348:117|383:89,1,91.1249972190858,2|0,0:0|0:0,0:0:0:0:
259,207,160448,6,0,B|206:227|166:185|192:168|150:121|101:143,1,188.999994232178,6|10,3:2|0:0,0:0:0:0:
338,252,160889,2,0,B|381:320|316:372|316:372|326:345|313:322,1,188.999994232178,2|0,3:2|3:2,0:0:0:0:
338,161,161331,2,0,P|383:159|412:195,1,94.4999971160889,10|0,0:0|0:0,0:0:0:0:
171,358,161624,6,0,P|155:314|139:270,1,94.4999971160889,2|0,3:2|3:2,0:0:0:0:
187,188,161845,1,0,3:2:0:0:
187,188,161918,1,10,0:0:0:0:
22,26,162065,2,0,B|-12:41|-12:41|9:58|9:58|125:15,1,188.999994232178,2|0,3:2|3:2,0:0:0:0:
73,223,162506,2,0,P|44:187|0:189,1,94.4999971160889,10|0,0:0|3:2,0:0:0:0:
216,93,162801,5,2,3:2:0:0:
151,296,162948,1,2,3:2:0:0:
221,76,163095,1,10,0:0:0:0:
146,313,163242,1,2,3:2:0:0:
298,230,163390,2,0,P|266:197|220:202,1,94.4999971160889,2|2,3:2|3:2,0:0:0:0:
409,277,163684,1,10,0:0:0:0:
313,355,163831,1,2,3:2:0:0:
368,113,163977,6,0,P|412:129|456:145,1,94.4999971160889,2|2,3:2|3:2,0:0:0:0:
381,204,164198,1,2,3:2:0:0:
381,204,164272,1,10,0:0:0:0:
201,26,164418,2,0,B|138:49|67:75|67:75|84:32,1,188.999994232178,2|0,3:2|3:2,0:0:0:0:
273,94,164860,2,0,P|229:111|185:127,1,94.4999971160889,10|0,0:0|0:0,0:0:0:0:
50,349,165153,6,0,P|26:274|103:290,1,188.999994232178,2|10,3:2|0:0,0:0:0:0:
341,196,165595,2,0,B|291:216|250:167|277:151|238:108|185:126,1,188.999994232178,2|0,3:2|3:2,0:0:0:0:
422,181,166037,2,0,P|427:226|395:258,1,94.4999971160889,10|0,0:0|0:0,0:0:0:0:
197,35,166331,6,0,P|241:18|285:2,1,94.4999971160889,2|0,3:2|0:0,0:0:0:0:
73,83,166625,1,10,0:0:0:0:
341,196,166771,2,0,B|286:147|313:69|361:49|385:93|360:112,1,188.999994232178,2|0,3:2|3:2,0:0:0:0:
214,234,167213,2,0,P|169:216|125:200,1,94.4999971160889,10|0,0:0|3:2,0:0:0:0:
352,314,167507,5,2,3:2:0:0:
149,379,167654,1,2,3:2:0:0:
369,309,167801,1,10,0:0:0:0:
132,384,167948,1,2,3:2:0:0:
214,234,168095,2,0,P|209:279|242:310,1,94.4999971160889,2|2,3:2|3:2,0:0:0:0:
171,121,168389,1,10,0:0:0:0:
287,143,168536,1,2,3:2:0:0:
20,246,168684,6,0,B|61:233|90:266|70:278|102:309|139:298,1,141.749995674133,2|0,3:2|0:0,0:0:0:0:
214,234,168978,2,0,P|197:189|180:146,1,94.4999971160889,10|0,0:0|0:0,0:0:0:0:
310,286,169271,2,0,P|293:331|276:374,1,94.4999971160889,2|0,3:2|3:2,0:0:0:0:
433,207,169566,2,0,P|387:212|356:179,1,94.4999971160889,10|0,0:0|3:2,0:0:0:0:
107,51,169859,6,0,B|73:66|73:66|95:83|95:83|211:40,1,188.999994232178,2|10,3:2|0:0,0:0:0:0:
158,252,170300,2,0,B|105:272|65:230|91:213|49:166|0:188,1,188.999994232178,2|0,3:2|3:2,0:0:0:0:
214,314,170742,2,0,P|247:283|241:237,1,94.4999971160889,10|0,0:0|0:0,0:0:0:0:
0,352,171036,6,0,P|44:368|88:384,1,94.4999971160889,2|2,3:2|3:2,0:0:0:0:
75,293,171257,1,2,3:2:0:0:
75,293,171331,1,10,0:0:0:0:
311,384,171477,2,0,P|334:309|257:326,1,188.999994232178,2|0,3:2|3:2,0:0:0:0:
457,224,171918,2,0,P|412:213|394:171,1,94.4999971160889,10|0,0:0|3:2,0:0:0:0:
144,90,172212,5,2,3:2:0:0:
347,25,172359,1,2,3:2:0:0:
127,95,172506,1,10,0:0:0:0:
364,20,172653,1,2,3:2:0:0:
289,160,172800,2,0,P|256:129|259:85,1,94.4999971160889,2|2,3:2|3:2,0:0:0:0:
333,256,173094,1,10,0:0:0:0:
395,171,173241,1,2,3:2:0:0:
122,262,173389,6,0,P|107:218|90:174,1,94.4999971160889,2|2,3:2|3:2,0:0:0:0:
162,384,173683,1,10,0:0:0:0:
395,171,173830,2,0,B|428:186|428:186|406:203|406:203|290:160,1,188.999994232178,2|0,3:2|3:2,0:0:0:0:
94,46,174271,2,0,P|138:29|182:12,1,94.4999971160889,10|0,0:0|0:0,0:0:0:0:
122,262,174565,6,0,B|106:191|25:177|-17:210|10:254|39:240,1,188.999994232178,2|8,3:2|0:0,0:0:0:0:
278,309,175006,2,0,B|323:241|397:279|397:279|368:281|352:302,1,188.999994232178,2|0,3:2|3:2,0:0:0:0:
224,374,175448,2,0,P|190:344|195:299,1,94.4999971160889,10|0,0:0|0:0,0:0:0:0:
325,111,175741,6,0,P|281:94|237:77,1,94.4999971160889,2|0,3:2|0:0,0:0:0:0:
442,158,176036,1,10,0:0:0:0:
180,218,176183,2,0,B|210:170|177:122|156:145|117:93|150:49,1,188.999994232178,2|0,3:2|3:2,0:0:0:0:
195,299,176624,2,0,P|149:304|118:271,1,94.4999971160889,10|0,0:0|0:0,0:0:0:0:
377,361,176918,5,2,3:2:0:0:
442,158,177065,1,2,3:2:0:0:
372,378,177212,1,10,0:0:0:0:
447,141,177359,1,2,3:2:0:0:
291,223,177507,2,0,P|337:218|368:250,1,94.4999971160889,2|0,3:2|0:0,0:0:0:0:
175,186,177801,1,10,0:0:0:0:
263,108,177948,1,2,0:0:0:0:
184,384,178095,6,0,B|214:367|214:367|160:347|113:330,1,141.749995674133,2|0,3:2|0:0,0:0:0:0:
35,273,178389,2,0,P|79:256|123:239,1,94.4999971160889,10|0,0:0|0:0,0:0:0:0:
407,107,178683,5,2,3:2:0:0:
331,316,178830,1,0,3:2:0:0:
198,30,178977,1,10,0:0:0:0:
123,239,179124,1,0,3:2:0:0:
407,107,179271,6,0,B|440:122|440:122|418:139|418:139|300:95,1,188.999994232178,6|10,3:2|0:0,0:0:0:0:
106,384,179712,2,0,B|126:331|84:291|67:317|20:275|42:226,1,188.999994232178,2|0,3:2|3:2,0:0:0:0:
331,316,180154,2,0,P|285:310|253:343,1,94.4999971160889,10|0,0:0|0:0,0:0:0:0:
162,58,180448,6,0,P|206:43|250:26,1,94.4999971160889,2|0,3:2|0:0,0:0:0:0:
3,115,180742,1,10,0:0:0:0:
259,244,180889,2,0,B|299:222|299:222|228:196|165:173,1,188.999994232178,2|0,3:2|3:2,0:0:0:0:
414,101,181330,2,0,P|369:85|325:68,1,94.4999971160889,10|0,0:0|3:2,0:0:0:0:
132,379,181624,5,2,3:2:0:0:
128,87,181771,1,2,3:2:0:0:
303,319,181918,1,10,0:0:0:0:
25,234,182065,1,2,3:2:0:0:
299,140,182212,2,0,P|331:171|326:217,1,94.4999971160889,2|2,3:2|3:2,0:0:0:0:
128,87,182506,1,10,0:0:0:0:
128,87,182653,1,2,3:2:0:0:
417,276,182800,6,0,B|389:228|432:181|451:205|489:161|463:111,1,188.999994232178,2|10,3:2|0:0,0:0:0:0:
303,319,183242,2,0,P|392:350|480:383,1,188.999994232178,2|0,3:2|3:2,0:0:0:0:
210,172,183683,2,0,P|254:157|299:140,1,94.4999971160889,10|0,0:0|0:0,0:0:0:0:
88,312,183977,6,0,B|74:341|118:368|151:326|137:245|66:229,1,188.999994232178,2|10,3:2|0:0,0:0:0:0:
392,351,184418,2,0,B|355:279|425:232|425:232|412:258|422:281,1,188.999994232178,2|0,3:2|3:2,0:0:0:0:
215,357,184859,2,0,P|260:351|292:383,1,94.4999971160889,10|0,0:0|0:0,0:0:0:0:
183,96,185153,6,0,P|139:112|95:128,1,94.4999971160889,2|0,3:2|0:0,0:0:0:0:
342,39,185447,1,8,0:0:0:0:
171,291,185595,2,0,B|137:275|137:275|159:258|159:258|275:301,1,188.999994232178,2|0,3:2|3:2,0:0:0:0:
488,187,186036,2,0,P|441:174|397:161,1,94.4999971160889,10|0,0:0|3:2,0:0:0:0:
150,0,186330,5,2,3:2:0:0:
171,291,186477,1,2,3:2:0:0:
325,44,186624,1,10,0:0:0:0:
56,153,186771,1,2,3:2:0:0:
337,223,186918,2,0,P|367:188|359:144,1,94.4999971160889,2|2,3:2|3:2,0:0:0:0:
171,291,187212,1,10,0:0:0:0:
171,291,187359,1,0,0:0:0:0:
473,384,187507,6,0,B|432:397|403:364|423:352|391:321|354:332,1,141.749995674133,2|0,3:2|0:0,0:0:0:0:
506,214,187801,2,0,P|488:258|472:303,1,94.4999971160889,10|0,0:0|0:0,0:0:0:0:
260,157,188095,2,0,P|277:201|294:245,1,94.4999971160889,2|0,3:2|3:2,0:0:0:0:
512,58,188389,2,0,P|478:89|484:134,1,94.4999971160889,10|0,0:0|3:2,0:0:0:0:
198,0,188683,6,0,B|135:23|64:49|64:49|104:71,1,188.999994232178,2|8,3:2|0:0,0:0:0:0:
390,236,189124,2,0,B|439:172|379:114|379:114|387:142|372:164,1,188.999994232178,2|0,3:2|3:2,0:0:0:0:
199,352,189565,2,0,P|244:346|275:379,1,94.4999971160889,10|0,0:0|0:0,0:0:0:0:
177,122,189860,6,0,P|133:139|89:156,1,94.4999971160889,2|2,3:2|3:2,0:0:0:0:
257,99,190080,1,0,3:2:0:0:
257,99,190154,1,10,0:0:0:0:
199,352,190300,2,0,B|150:374|108:327|134:310|94:268|41:288,1,188.999994232178,2|0,3:2|3:2,0:0:0:0:
334,168,190742,2,0,P|304:202|313:247,1,94.4999971160889,10|0,0:0|3:2,0:0:0:0:
44,138,191036,5,2,3:2:0:0:
325,68,191183,1,2,3:2:0:0:
138,291,191330,1,10,0:0:0:0:
159,0,191477,1,2,3:2:0:0:
314,247,191624,2,0,P|279:277|235:269,1,94.4999971160889,2|2,3:2|3:2,0:0:0:0:
325,68,191918,1,10,0:0:0:0:
325,68,192065,1,2,3:2:0:0:
179,380,192212,6,0,B|163:309|82:295|40:328|67:372|96:358,1,188.999994232178,2|8,3:2|0:0,0:0:0:0:
376,195,192653,2,0,P|388:272|313:247,1,188.999994232178,2|0,3:2|3:2,0:0:0:0:
123,123,193095,2,0,P|79:140|35:157,1,94.4999971160889,10|0,0:0|3:2,0:0:0:0:
329,47,193389,6,0,B|261:92|299:166|299:166|301:137|322:121,1,188.999994232178,2|10,3:2|0:0,0:0:0:0:
0,65,193830,2,0,P|88:32|177:0,1,188.999994232178,2|0,3:2|3:2,0:0:0:0:
432,192,194271,2,0,P|466:161|461:116,1,94.4999971160889,10|0,0:0|0:0,0:0:0:0:
186,264,194565,6,0,P|169:220|152:176,1,94.4999971160889,2|0,3:2|0:0,0:0:0:0:
227,384,194860,1,10,0:0:0:0:
380,130,195006,2,0,B|331:152|289:105|315:88|275:46|222:66,1,188.999994232178,2|0,3:2|3:2,0:0:0:0:
311,316,195448,2,0,P|342:283|387:288,1,94.4999971160889,10|0,0:0|3:2,0:0:0:0:
124,93,195742,5,2,3:2:0:0:
145,384,195889,1,2,3:2:0:0:
299,137,196036,1,10,0:0:0:0:
30,246,196183,1,2,3:2:0:0:
311,316,196330,2,0,P|341:281|333:237,1,94.4999971160889,2|2,3:2|3:2,0:0:0:0:
145,384,196624,1,10,0:0:0:0:
145,384,196771,1,2,3:2:0:0:
238,82,196918,6,0,P|161:101|214:159,1,188.999994232178,2|10,3:2|0:0,0:0:0:0:
15,10,197359,2,0,B|-18:25|-18:25|3:42|3:42|119:0,1,188.999994232178,2|0,3:2|3:2,0:0:0:0:
265,248,197801,2,0,P|221:265|177:282,1,94.4999971160889,8|8,0:0|0:0,0:0:0:0:
425,174,198095,5,6,3:2:0:0:
346,213,198242,1,2,0:0:0:0:
460,337,198389,2,0,P|475:307|475:273,1,67.5,10|0,0:0|0:0,0:0:0:0:
425,174,198683,1,2,3:2:0:0:
330,245,198830,1,2,3:2:0:0:
273,140,198977,1,10,0:0:0:0:
178,211,199124,1,2,3:2:0:0:
103,144,199271,6,0,P|78:206|104:277,2,135,2|8|0,3:2|0:0|0:0,0:0:0:0:
178,211,200006,1,2,3:2:0:0:
214,290,200153,2,0,P|215:333|210:362,1,67.5,10|2,0:0|3:2,0:0:0:0:
302,253,200448,6,0,P|308:286|327:314,1,67.5,2|0,3:2|0:0,0:0:0:0:
454,208,200742,2,0,P|421:239|400:248,1,67.5,10|0,0:0|0:0,0:0:0:0:
358,141,201036,1,2,3:2:0:0:
358,141,201183,1,2,3:2:0:0:
422,81,201330,2,0,P|393:38|371:14,1,67.5,10|0,0:0|0:0,0:0:0:0:
231,43,201624,5,2,3:2:0:0:
231,43,201771,1,2,3:2:0:0:
176,153,201918,2,0,P|153:198|133:223,1,67.5,10|0,0:0|0:0,0:0:0:0:
286,153,202212,2,0,P|310:198|330:223,1,67.5,2|0,3:2|3:2,0:0:0:0:
264,308,202506,2,0,P|230:308|197:310,1,67.5,8|2,0:0|3:2,0:0:0:0:
286,153,202800,5,2,3:2:0:0:
176,153,202948,1,2,0:0:0:0:
214,14,203095,2,0,L|155:46,1,67.5,8|0,0:0|0:0,0:0:0:0:
49,151,203389,1,2,3:2:0:0:
130,225,203536,1,2,3:2:0:0:
37,284,203683,1,10,0:0:0:0:
118,358,203830,1,2,3:2:0:0:
269,231,203977,6,0,P|248:294|267:358,2,135,2|8|0,3:2|0:0|0:0,0:0:0:0:
130,225,204712,1,2,3:2:0:0:
218,101,204859,2,0,L|159:69,1,67.5,10|2,0:0|3:2,0:0:0:0:
365,13,205153,6,0,P|380:43|389:76,1,67.5,2|0,3:2|0:0,0:0:0:0:
269,231,205448,2,0,P|260:199|257:166,1,67.5,8|0,0:0|0:0,0:0:0:0:
411,189,205742,1,2,3:2:0:0:
411,189,205889,1,2,3:2:0:0:
485,263,206036,2,0,P|478:288|452:339,1,67.5,10|0,0:0|0:0,0:0:0:0:
269,231,206330,5,2,3:2:0:0:
269,231,206477,1,0,3:2:0:0:
168,263,206624,2,0,P|180:294|196:324,1,67.5,8|2,0:0|0:0,0:0:0:0:
209,179,206918,2,0,P|202:151|202:93,1,67.5,2|0,3:2|3:2,0:0:0:0:
273,64,207212,2,0,P|287:39|328:0,1,67.5,10|0,0:0|3:2,0:0:0:0:
445,129,207506,6,0,L|510:131,2,50.6250019311906,2|0|0,0:0|0:0|0:0,0:0:0:0:
374,189,208095,2,0,L|357:235,1,50.6250019311906,0|0,0:0|0:0,0:0:0:0:
386,306,208389,2,0,L|368:352,1,50.6250019311906
292,360,208683,6,0,P|257:361|174:346,1,101.250003862381,2|2,0:0|0:0,0:0:0:0:
121,293,209271,1,0,0:0:0:0:
98,253,209418,2,0,L|39:265,2,50.6250019311906,2|0|0,0:0|0:0|0:0,0:0:0:0:
160,210,209859,6,0,P|168:181|176:101,1,101.250003862381,2|0,0:0|0:0,0:0:0:0:
92,72,210448,2,0,L|100:22,2,50.6250019311906,0|0|2,0:0|0:0|0:0,0:0:0:0:
56,155,211036,2,0,L|-2:165,2,50.6250019311906,0|0|2,0:0|0:0|0:0,0:0:0:0:
80,242,211624,1,2,0:0:0:0:
96,257,212212,6,0,L|106:315,2,50.6250019311906,2|0|0,0:0|0:0|0:0,0:0:0:0:
193,279,212800,2,0,P|218:276|242:280,1,50.6250019311906
298,332,213095,2,0,P|323:335|347:331,1,50.6250019311906
379,261,213389,6,0,P|387:207|387:151,1,101.250003862381,2|2,0:0|0:0,0:0:0:0:
328,96,213977,1,0,0:0:0:0:
292,67,214124,2,0,L|294:-4,2,50.6250019311906,2|0|0,0:0|0:0|0:0,0:0:0:0:
227,107,214565,6,0,P|223:155|225:215,1,101.250003862381,2|0,0:0|0:0,0:0:0:0:
281,278,215153,2,0,L|330:288,2,50.6250019311906,0|0|2,0:0|0:0|0:0,0:0:0:0:
203,326,215742,1,0,0:0:0:0:
150,270,215889,1,0,0:0:0:0:
54,365,216036,1,2,0:0:0:0:
28,188,216330,5,2,0:0:0:0:
