osu file format v14

[General]
AudioFilename: audio.mp3
AudioLeadIn: 0
PreviewTime: 159124
Countdown: 0
SampleSet: Soft
StackLeniency: 0.3
Mode: 0
LetterboxInBreaks: 0
WidescreenStoryboard: 1

[Editor]
Bookmarks: 448,9859,28683,47506,85153,103977,141183,150742,160448,179271,198095,207506
DistanceSpacing: 1.5
BeatDivisor: 3
GridSize: 4
TimelineZoom: 2.332

[Metadata]
Title:Ai no Sukima
TitleUnicode:哀の隙間
Artist:MIMI feat. Hatsune Miku
ArtistUnicode:MIMI feat. 初音ミク
Creator:theramdans
Version:Insane
Source:osu!
Tags:vocaloid sorrow gap 佐藤主税 sato chiiro Cris- Pyrozen featured artist fa mappers' guild mpg japanese pop jpop j-pop
BeatmapID:2916911
BeatmapSetID:1323207

[Difficulty]
HPDrainRate:5.5
CircleSize:3.6
OverallDifficulty:7
ApproachRate:9
SliderMultiplier:1.28
SliderTickRate:1

[Events]
//Background and Video events
0,0,"mikuowo.jpg",0,0
//Break Periods
//Storyboard Layer 0 (Background)
//Storyboard Layer 1 (Fail)
//Storyboard Layer 2 (Pass)
//Storyboard Layer 3 (Foreground)
Sprite,Foreground,Centre,"sb\theramdans.png",0,0 M,0,13683,,320,320 S,0,13683,,0.4444444 F,2,13683,14565,0,1 F,4,18095,19271,1,0
//Storyboard Layer 4 (Overlay)
//Storyboard Sound Samples

[TimingPoints]
448,294.117647058824,4,2,1,35,1,0
448,-133.333333333333,4,2,1,35,0,0
9345,-200,4,2,1,50,0,0
9565,-200,4,2,1,20,0,0
9859,-100,4,2,1,60,0,0
10153,-100,4,2,1,60,0,0
18095,-100,4,2,1,50,0,0
19271,-100,4,2,1,60,0,0
27506,-100,4,2,1,50,0,0
28683,-133.333333333333,4,2,1,20,0,0
30962,-133.333333333333,4,2,1,5,0,0
31036,-133.333333333333,4,2,1,20,0,0
35668,-133.333333333333,4,2,1,5,0,0
35742,-133.333333333333,4,2,1,20,0,0
37212,-200,4,2,1,20,0,0
37506,-200,4,2,1,5,0,0
38095,-100,4,2,1,40,0,0
40374,-100,4,2,1,30,0,0
40448,-100,4,2,1,40,0,0
43609,-100,4,2,1,5,0,0
43683,-100,4,2,1,40,0,0
45080,-100,4,2,1,5,0,0
45153,-100,4,2,1,40,0,0
46330,-100,4,2,1,46,0,0
46624,-100,4,2,1,52,0,0
46918,-100,4,2,1,58,0,0
47212,-100,4,2,1,64,0,0
47506,-90.9090909090909,4,2,1,70,0,1
66330,-100,4,2,1,60,0,0
74565,-100,4,2,1,60,0,0
85153,-133.333333333333,4,2,1,40,0,0
87433,-133.333333333333,4,2,1,5,0,0
87506,-133.333333333333,4,2,1,40,0,0
91918,-133.333333333333,4,2,1,30,0,0
92139,-133.333333333333,4,2,1,5,0,0
92212,-133.333333333333,4,2,1,40,0,0
94565,-100,4,2,1,50,0,0
100668,-100,4,2,1,5,0,0
100742,-100,4,2,1,50,0,0
101550,-100,4,2,1,5,0,0
101624,-100,4,2,1,50,0,0
102800,-100,4,2,1,55,0,0
103242,-100,4,2,1,60,0,0
103683,-100,4,2,1,65,0,0
103977,-90.9090909090909,4,2,1,70,0,1
122359,-90.9090909090909,4,2,1,70,0,0
122800,-100,4,2,1,70,0,1
123095,-100,4,2,1,60,0,1
141624,-166.666666666667,4,2,1,30,0,0
159492,-166.666666666667,4,2,1,5,0,0
159565,-142.857142857143,4,2,1,55,0,0
159786,-142.857142857143,4,2,1,5,0,0
159859,-125,4,2,1,60,0,0
160080,-125,4,2,1,5,0,0
160153,-111.111111111111,4,2,1,65,0,0
160374,-111.111111111111,4,2,1,5,0,0
160448,-90.9090909090909,4,2,1,70,0,1
178977,-90.9090909090909,4,2,1,70,0,0
179271,-83.3333333333333,4,2,1,80,0,1
197800,-83.3333333333333,4,2,1,80,0,0
198095,-100,4,2,1,70,0,1
198389,-100,4,2,1,70,0,0
207506,-133.333333333333,4,2,1,40,0,0

[Colours]
Combo1 : 81,217,189
Combo2 : 51,143,247
Combo3 : 90,207,157
Combo4 : 57,181,240

[HitObjects]
52,282,448,6,0,L|58:329,2,48.0000018310548,2|2|2,0:0|0:0|0:0,0:0:0:0:
108,181,1036,2,0,P|129:187|169:187,1,48.0000018310548,2|2,0:0|0:0,0:0:0:0:
215,141,1330,2,0,P|236:135|276:135,1,48.0000018310548,2|2,0:0|0:0,0:0:0:0:
316,187,1624,6,0,L|323:283,2,96.0000036621095,2|2|2,0:0|0:0|0:0,0:0:0:0:
335,112,2359,2,0,P|330:80|332:52,2,48.0000018310548,2|2|2,0:0|0:0|0:0,0:0:0:0:
395,159,2800,6,0,L|504:151,1,96.0000036621095,2|2,0:0|0:0,0:0:0:0:
472,266,3389,2,0,L|481:314,2,48.0000018310548,0|0|2,0:0|0:0|0:0,0:0:0:0:
380,336,3977,2,0,L|371:384,2,48.0000018310548,0|0|2,0:0|0:0|0:0,0:0:0:0:
300,252,4565,1,2,0:0:0:0:
284,237,5153,6,0,L|275:189,2,48.0000018310548,2|2|2,0:0|0:0|0:0,0:0:0:0:
220,333,5742,2,0,L|156:350,1,48.0000018310548,2|2,0:0|0:0,0:0:0:0:
109,302,6036,2,0,L|92:238,1,48.0000018310548,2|2,0:0|0:0,0:0:0:0:
121,182,6330,6,0,B|133:140|133:140|121:88,2,96.0000036621095,2|2|2,0:0|0:0|0:0,0:0:0:0:
46,162,7065,2,0,L|-19:173,2,48.0000018310548,2|2|2,0:0|0:0|0:0,0:0:0:0:
65,86,7506,6,0,B|88:48|88:48|139:35,1,96.0000036621095,2|2,0:0|0:0,0:0:0:0:
228,108,8095,2,0,L|222:174,2,48.0000018310548,0|0|2,0:0|0:0|0:0,0:0:0:0:
326,48,8683,2,0,L|321:0,2,48.0000018310548,0|0|2,0:0|0:0|0:0,0:0:0:0:
426,162,9271,6,0,P|365:208|309:155,1,168.000006408692,2|0,0:0|0:0,0:0:0:0:
223,155,9859,6,0,L|219:218,1,64,6|2,3:2|0:0,0:0:0:0:
124,333,10153,2,0,L|120:269,1,64,10|0,0:0|0:0,0:0:0:0:
26,204,10448,1,2,3:2:0:0:
52,103,10595,1,2,3:2:0:0:
150,80,10742,1,10,0:0:0:0:
223,155,10889,1,2,3:2:0:0:
52,103,11036,6,0,L|19:243,2,128,2|8|0,3:2|0:0|0:0,0:0:0:0:
223,155,11771,1,2,3:2:0:0:
223,155,11918,2,0,L|211:86,1,64,10|2,0:0|3:2,0:0:0:0:
349,193,12212,6,0,B|389:161|389:161|389:84,1,128,2|8,3:2|0:0,0:0:0:0:
224,265,12800,1,2,3:2:0:0:
286,380,12948,1,2,3:2:0:0:
149,330,13095,2,0,L|78:328,1,64,10|0,0:0|0:0,0:0:0:0:
11,193,13389,5,2,3:2:0:0:
137,155,13537,1,2,3:2:0:0:
45,41,13683,2,0,L|55:104,1,64,10|0,0:0|0:0,0:0:0:0:
200,60,13977,2,0,P|239:14|298:29,1,128,2|8,3:2|0:0,0:0:0:0:
322,262,14565,6,0,L|399:255,1,64,2|2,3:2|0:0,0:0:0:0:
486,167,14859,2,0,L|409:174,1,64,8|0,0:0|0:0,0:0:0:0:
337,94,15153,1,2,3:2:0:0:
244,52,15300,1,2,3:2:0:0:
155,103,15447,1,10,0:0:0:0:
145,205,15594,1,2,0:0:0:0:
338,95,15742,6,0,L|469:88,2,128,2|8|0,3:2|0:0|0:0,0:0:0:0:
145,205,16477,1,2,3:2:0:0:
145,205,16624,2,0,P|140:237|142:269,1,64,10|2,0:0|3:2,0:0:0:0:
48,156,16918,6,0,P|5:110|7:47,1,128,2|8,3:2|0:0,0:0:0:0:
241,157,17506,1,2,3:2:0:0:
145,205,17653,1,2,3:2:0:0:
216,329,17800,2,0,L|220:256,1,64,10|0,0:0|0:0,0:0:0:0:
394,305,18095,5,2,3:2:0:0:
297,353,18242,1,2,3:2:0:0:
355,175,18389,2,0,L|358:111,1,64,10|0,0:0|0:0,0:0:0:0:
253,47,18683,2,0,P|228:105|244:165,1,128,2|8,3:2|0:0,0:0:0:0:
355,175,19124,1,2,3:2:0:0:
440,130,19271,6,0,P|449:177|446:194,1,64,2|2,3:2|0:0,0:0:0:0:
282,384,19565,2,0,P|273:337|276:320,1,64,8|0,0:0|0:0,0:0:0:0:
271,206,19859,1,2,3:2:0:0:
199,134,20006,1,2,3:2:0:0:
98,152,20153,1,10,0:0:0:0:
55,245,20300,1,2,3:2:0:0:
199,134,20448,6,0,L|192:6,2,128,2|8|0,3:2|0:0|0:0,0:0:0:0:
55,245,21183,1,2,3:2:0:0:
55,245,21330,2,0,P|42:274|41:306,1,64,8|2,0:0|3:2,0:0:0:0:
98,151,21624,6,0,P|86:90|36:54,1,128,2|8,3:2|0:0,0:0:0:0:
184,281,22212,1,2,3:2:0:0:
87,319,22359,1,2,3:2:0:0:
246,384,22506,2,0,P|261:348|258:318,1,64,10|0,0:0|0:0,0:0:0:0:
295,152,22800,5,2,3:2:0:0:
338,245,22947,1,2,3:2:0:0:
427,72,23095,2,0,P|388:64|359:73,1,64,10|0,0:0|0:0,0:0:0:0:
207,20,23389,2,0,P|159:58|97:51,1,128,2|8,3:2|0:0,0:0:0:0:
295,152,23977,6,0,L|314:213,1,64,2|2,3:2|0:0,0:0:0:0:
260,351,24271,2,0,L|240:289,1,64,8|0,0:0|0:0,0:0:0:0:
141,226,24565,1,2,3:2:0:0:
43,247,24712,1,2,3:2:0:0:
0,167,24859,1,10,0:0:0:0:
31,78,25006,1,2,3:2:0:0:
141,226,25153,6,0,L|127:367,2,128,2|8|0,3:2|0:0|0:0,0:0:0:0:
31,78,25889,1,2,3:2:0:0:
31,78,26036,2,0,P|55:58|86:49,1,64,10|2,0:0|3:2,0:0:0:0:
258,141,26330,6,0,P|271:81|233:32,1,128,2|8,3:2|0:0,0:0:0:0:
32,226,26918,1,2,3:2:0:0:
141,226,27065,1,2,3:2:0:0:
91,347,27212,2,0,L|154:345,1,64,10|0,0:0|0:0,0:0:0:0:
284,274,27506,5,2,3:2:0:0:
284,383,27653,1,2,3:2:0:0:
422,304,27800,2,0,L|425:368,1,64,10|0,0:0|0:0,0:0:0:0:
369,224,28095,2,0,L|366:160,1,64,2|0,3:2|3:2,0:0:0:0:
261,24,28389,1,10,0:0:0:0:
261,24,28536,1,0,3:2:0:0:
261,24,28683,6,0,B|146:24|146:24|87:73,1,192.000007324219,6|0,3:2|0:0,0:0:0:0:
9,272,29565,1,2,0:0:0:0:
9,272,29712,1,2,0:0:0:0:
9,272,29859,6,0,B|124:272|124:272|182:222,1,192.000007324219,2|0,0:0|0:0,0:0:0:0:
348,84,30742,2,0,L|359:155,1,72.0000027465821,2|0,0:0|0:0,0:0:0:0:
320,230,31036,6,0,P|359:154|430:202,1,192.000007324219,2|0,0:0|0:0,0:0:0:0:
290,360,31918,1,2,0:0:0:0:
290,360,32065,1,2,0:0:0:0:
290,360,32212,6,0,P|205:370|204:285,1,192.000007324219,2|0,0:0|0:0,0:0:0:0:
272,78,33095,1,2,0:0:0:0:
272,78,33242,1,2,0:0:0:0:
272,78,33389,6,0,B|320:93|353:64|353:64|376:121|435:120,1,192.000007324219,2|0,0:0|0:0,0:0:0:0:
330,308,34271,1,2,0:0:0:0:
330,308,34418,1,2,0:0:0:0:
330,308,34565,5,2,0:0:0:0:
192,264,34859,2,0,L|199:374,1,96.0000036621095,2|2,0:0|0:0,0:0:0:0:
74,284,35448,2,0,L|68:204,1,72.0000027465821,2|0,0:0|0:0,0:0:0:0:
71,157,35742,6,0,P|85:120|146:74,1,96.0000036621095,2|2,0:0|0:0,0:0:0:0:
209,199,36330,2,0,P|238:225|313:238,1,96.0000036621095,2|2,0:0|0:0,0:0:0:0:
476,138,36918,5,2,0:0:0:0:
476,138,37065,1,2,0:0:0:0:
476,138,37212,2,0,L|482:5,1,128,2|0,0:0|0:0,0:0:0:0:
476,138,38095,6,0,P|490:200|468:265,1,128,2|2,3:2|0:0,0:0:0:0:
394,200,38536,1,2,0:0:0:0:
316,256,38683,1,0,3:2:0:0:
276,67,38830,1,2,0:0:0:0:
276,67,38977,2,0,B|316:66|316:66|336:80,1,64,2|2,0:0|0:0,0:0:0:0:
196,148,39271,6,0,B|202:78|202:78|170:29,1,128,2|2,3:2|0:0,0:0:0:0:
88,80,39712,1,2,0:0:0:0:
111,206,39859,2,0,L|100:289,1,64,0|2,3:2|0:0,0:0:0:0:
179,368,40153,2,0,P|224:380|267:361,1,96,2|0,0:0|0:0,0:0:0:0:
311,319,40448,6,0,P|347:309|422:355,1,128,2|2,3:2|0:0,0:0:0:0:
462,265,40889,2,0,P|440:245|403:228,1,64,2|0,0:0|3:2,0:0:0:0:
228,195,41183,1,2,0:0:0:0:
228,195,41330,2,0,L|214:272,1,64,2|2,0:0|0:0,0:0:0:0:
249,114,41624,6,0,P|272:57|331:18,1,128,2|2,3:2|0:0,0:0:0:0:
350,112,42065,1,2,0:0:0:0:
501,107,42212,2,0,L|494:176,1,64,0|0,3:2|0:0,0:0:0:0:
386,291,42506,2,0,L|392:227,1,64,2|2,3:2|0:0,0:0:0:0:
249,286,42800,6,0,B|175:299|175:299|133:267,1,128,2|2,3:2|0:0,0:0:0:0:
83,183,43242,1,2,0:0:0:0:
178,76,43389,2,0,L|168:155,1,64,2|0,3:2|0:0,0:0:0:0:
249,286,43683,1,2,0:0:0:0:
249,286,43830,1,2,0:0:0:0:
249,286,43977,6,0,B|323:299|323:299|365:267,1,128,2|2,3:2|0:0,0:0:0:0:
407,181,44418,1,2,0:0:0:0:
345,107,44565,2,0,L|266:115,1,64,0|2,3:2|0:0,0:0:0:0:
194,190,44859,2,0,P|169:158|165:95,1,96,2|0,0:0|0:0,0:0:0:0:
186,46,45153,6,0,L|320:35,2,128,2|2|2,3:2|0:0|3:2,0:0:0:0:
8,120,46036,1,2,0:0:0:0:
62,303,46330,6,0,P|103:316|121:339,1,64,2|0,3:2|0:0,0:0:0:0:
193,273,46624,2,0,P|218:307|219:336,1,64,2|0,3:2|0:0,0:0:0:0:
126,215,46918,2,0,P|160:189|189:188,1,64,2|0,3:2|0:0,0:0:0:0:
245,116,47212,2,0,P|275:146|281:174,1,64,2|0,3:2|0:0,0:0:0:0:
292,292,47506,6,0,P|341:325|418:314,1,140.800004296875,6|10,3:2|0:0,0:0:0:0:
476,225,47948,2,0,L|492:85,1,140.800004296875,2|0,3:2|3:2,0:0:0:0:
400,32,48389,2,0,L|390:105,1,70.4000021484376,10|0,0:0|0:0,0:0:0:0:
261,202,48683,6,0,B|280:101|280:101|245:116,1,140.800004296875,2|10,3:2|0:0,0:0:0:0:
102,185,49124,2,0,B|66:199|66:199|85:98,1,140.800004296875,2|0,3:2|3:2,0:0:0:0:
219,35,49565,2,0,B|191:10|191:10|142:22,1,70.4000021484376,10|0,0:0|3:2,0:0:0:0:
245,116,49859,5,2,3:2:0:0:
279,199,50006,1,2,3:2:0:0:
146,295,50153,1,10,0:0:0:0:
236,279,50300,1,2,3:2:0:0:
174,124,50448,2,0,L|245:116,1,70.4000021484376,2|2,3:2|3:2,0:0:0:0:
424,180,50742,2,0,L|353:173,1,70.4000021484376,10|2,0:0|3:2,0:0:0:0:
158,326,51036,6,0,B|146:295|162:261|162:261|145:245|145:245|154:222|153:195,1,140.800004296875,2|10,3:2|0:0,0:0:0:0:
97,81,51477,2,0,P|151:39|219:49,1,140.800004296875,2|0,3:2|3:2,0:0:0:0:
424,180,51918,2,0,L|397:257,1,70.4000021484376,10|0,0:0|0:0,0:0:0:0:
255,314,52212,6,0,B|207:332|207:332|115:315,1,140.800004296875,2|10,3:2|0:0,0:0:0:0:
37,248,52653,2,0,B|63:181|11:175|38:105,1,140.800004296875,2|0,3:2|3:2,0:0:0:0:
207,139,53095,2,0,L|137:142,1,70.4000021484376,10|0,0:0|0:0,0:0:0:0:
243,28,53389,6,0,P|297:28|344:68,1,105.600003222656,2|2,3:2|3:2,0:0:0:0:
323,108,53683,1,10,0:0:0:0:
262,222,53830,2,0,B|288:283|288:283|360:265,1,140.800004296875,2|0,3:2|3:2,0:0:0:0:
439,136,54271,2,0,L|426:213,1,70.4000021484376,10|2,0:0|3:2,0:0:0:0:
323,108,54565,5,2,3:2:0:0:
227,51,54712,1,2,3:2:0:0:
135,113,54859,1,10,0:0:0:0:
151,223,55006,1,2,3:2:0:0:
306,217,55153,1,2,3:2:0:0:
227,51,55300,1,2,3:2:0:0:
151,223,55448,2,0,L|161:312,1,70.4000021484376,10|0,0:0|0:0,0:0:0:0:
323,108,55742,6,0,L|393:100,1,70.4000021484376,2|0,3:2|3:2,0:0:0:0:
135,113,56036,2,0,L|64:105,1,70.4000021484376,10|0,0:0|0:0,0:0:0:0:
306,217,56330,2,0,B|338:300|338:300|386:282,1,140.800004296875,2|10,3:2|0:0,0:0:0:0:
106,217,56918,6,0,B|74:300|74:300|25:282,1,140.800004296875,2|10,3:2|0:0,0:0:0:0:
21,175,57359,2,0,P|45:115|109:129,1,140.800004296875,2|0,3:2|3:2,0:0:0:0:
251,265,57800,2,0,P|286:227|302:177,1,105.600003222656,10|2,0:0|3:2,0:0:0:0:
255,132,58095,6,0,L|359:145,1,105.600003222656,2|2,3:2|3:2,0:0:0:0:
411,134,58389,1,10,0:0:0:0:
316,41,58536,2,0,B|238:29|238:29|182:56,1,140.800004296875,2|0,3:2|3:2,0:0:0:0:
88,158,58977,2,0,L|81:76,1,70.4000021484376,10|0,0:0|0:0,0:0:0:0:
187,187,59271,5,2,3:2:0:0:
253,276,59418,1,2,3:2:0:0:
92,376,59565,1,10,0:0:0:0:
203,376,59712,1,2,3:2:0:0:
187,187,59859,2,0,L|265:197,1,70.4000021484376,2|2,3:2|3:2,0:0:0:0:
398,276,60153,2,0,L|327:269,1,70.4000021484376,10|2,0:0|3:2,0:0:0:0:
91,375,60448,6,0,P|47:348|25:301,1,105.600003222656,2|2,3:2|3:2,0:0:0:0:
60,261,60742,1,10,0:0:0:0:
88,135,60889,2,0,B|141:106|141:106|220:125,1,140.800004296875,2|0,3:2|3:2,0:0:0:0:
354,220,61330,2,0,L|403:157,1,70.4000021484376,10|0,0:0|0:0,0:0:0:0:
218,228,61624,6,0,P|222:296|269:347,1,140.800004296875,2|10,3:2|0:0,0:0:0:0:
354,220,62065,2,0,P|401:169|405:101,1,140.800004296875,2|0,3:2|3:2,0:0:0:0:
247,22,62506,2,0,L|249:108,1,70.4000021484376,10|0,0:0|0:0,0:0:0:0:
144,185,62800,6,0,B|117:162|117:162|122:92,1,105.600003222656,2|2,3:2|3:2,0:0:0:0:
154,48,63095,1,10,0:0:0:0:
221,221,63242,2,0,B|254:214|277:225|277:225|296:211|296:211|328:228|354:220,1,140.800004296875,2|0,3:2|3:2,0:0:0:0:
435,153,63683,2,0,P|455:201|452:234,1,70.4000021484376,10|0,0:0|0:0,0:0:0:0:
386,327,63977,5,2,3:2:0:0:
279,363,64124,1,2,3:2:0:0:
190,183,64271,1,10,0:0:0:0:
188,296,64418,1,2,0:0:0:0:
386,327,64565,2,0,L|372:241,1,70.4000021484376,2|2,3:2|3:2,0:0:0:0:
177,113,64859,2,0,L|190:183,1,70.4000021484376,10|2,0:0|3:2,0:0:0:0:
227,42,65153,6,0,P|173:83|107:64,1,140.800004296875,2|10,3:2|0:0,0:0:0:0:
68,318,65595,2,0,P|122:277|188:296,1,140.800004296875,2|0,3:2|3:2,0:0:0:0:
297,359,66036,1,8,0:0:0:0:
347,241,66183,1,8,3:2:0:0:
347,241,66256,1,8,3:2:0:0:
347,241,66330,6,0,L|423:258,1,64,6|2,3:2|0:0,0:0:0:0:
512,158,66624,2,0,L|449:171,1,64,10|0,0:0|0:0,0:0:0:0:
348,114,66918,1,2,3:2:0:0:
249,141,67065,1,2,3:2:0:0:
222,240,67212,1,10,0:0:0:0:
292,314,67359,1,2,3:2:0:0:
348,113,67506,6,0,P|396:75|456:87,2,128,2|8|0,3:2|0:0|0:0,0:0:0:0:
222,240,68242,1,2,3:2:0:0:
222,240,68389,2,0,L|236:317,1,64,8|2,0:0|3:2,0:0:0:0:
116,204,68683,6,0,B|101:133|101:133|117:80,1,128,2|8,3:2|0:0,0:0:0:0:
304,287,69271,1,2,3:2:0:0:
198,323,69418,1,2,3:2:0:0:
84,289,69565,2,0,L|94:353,1,64,10|0,0:0|0:0,0:0:0:0:
222,240,69859,5,2,3:2:0:0:
186,134,70006,1,2,3:2:0:0:
313,186,70153,2,0,L|320:123,1,64,10|0,0:0|0:0,0:0:0:0:
464,33,70448,2,0,P|491:89|475:149,1,128,2|8,3:2|0:0,0:0:0:0:
288,304,71036,6,0,L|300:368,1,64,2|2,3:2|0:0,0:0:0:0:
222,240,71330,2,0,L|233:177,1,64,8|0,0:0|0:0,0:0:0:0:
163,81,71624,1,2,3:2:0:0:
68,49,71771,1,2,3:2:0:0:
0,120,71918,1,10,0:0:0:0:
26,217,72065,1,2,3:2:0:0:
163,81,72212,6,0,L|298:69,2,128,2|8|0,3:2|0:0|0:0,0:0:0:0:
26,217,72948,1,2,3:2:0:0:
26,217,73095,2,0,L|26:286,1,64,10|2,0:0|3:2,0:0:0:0:
149,350,73389,6,0,P|197:348|253:281,1,128,2|8,3:2|0:0,0:0:0:0:
57,126,73977,1,2,3:2:0:0:
26,217,74124,1,2,3:2:0:0:
164,132,74271,2,0,P|222:145|239:164,1,64,10|0,0:0|0:0,0:0:0:0:
348,256,74565,5,2,3:2:0:0:
379,165,74712,1,2,3:2:0:0:
237,241,74859,2,0,L|252:329,1,64,10|0,0:0|0:0,0:0:0:0:
377,360,75153,2,0,B|439:369|439:369|469:312,1,128,2|8,3:2|0:0,0:0:0:0:
379,165,75595,1,2,3:2:0:0:
379,165,75742,6,0,P|371:133|371:101,1,64,2|2,3:2|0:0,0:0:0:0:
238,16,76036,2,0,P|245:47|245:79,1,64,8|0,0:0|0:0,0:0:0:0:
130,54,76330,1,2,3:2:0:0:
32,81,76477,1,2,3:2:0:0:
3,179,76624,1,10,0:0:0:0:
72,254,76771,1,2,3:2:0:0:
130,54,76918,6,0,B|189:37|189:37|261:58,2,128,2|8|0,3:2|0:0|0:0,0:0:0:0:
72,254,77653,1,2,3:2:0:0:
72,254,77800,2,0,L|141:260,1,64,8|2,0:0|3:2,0:0:0:0:
329,197,78095,6,0,B|268:161|268:161|212:170,1,128,2|8,3:2|0:0,0:0:0:0:
485,214,78683,1,2,3:2:0:0:
420,304,78830,1,2,3:2:0:0:
358,141,78977,2,0,P|339:166|329:197,1,64,10|0,0:0|0:0,0:0:0:0:
172,214,79271,5,2,3:2:0:0:
238,304,79418,1,2,3:2:0:0:
299,141,79565,2,0,P|318:166|329:197,1,64,10|0,0:0|0:0,0:0:0:0:
238,304,79859,2,0,P|276:352|338:358,1,128,2|8,3:2|0:0,0:0:0:0:
501,171,80448,6,0,P|510:127|506:102,1,64,2|2,3:2|3:2,0:0:0:0:
443,23,80742,2,0,P|399:14|374:18,1,64,8|0,0:0|0:0,0:0:0:0:
254,123,81036,1,2,3:2:0:0:
191,201,81183,1,2,3:2:0:0:
92,180,81330,1,10,0:0:0:0:
66,82,81477,1,2,3:2:0:0:
255,123,81624,6,0,P|298:168|296:230,2,128,2|8|0,3:2|0:0|0:0,0:0:0:0:
92,180,82359,1,2,3:2:0:0:
92,180,82506,2,0,L|98:250,1,64,8|2,0:0|3:2,0:0:0:0:
279,332,82800,6,0,B|216:335|216:335|165:375,1,128,2|8,3:2|0:0,0:0:0:0:
168,121,83389,1,2,3:2:0:0:
92,180,83536,1,2,3:2:0:0:
247,184,83683,2,0,P|249:228|239:251,1,64,10|0,0:0|0:0,0:0:0:0:
344,121,83977,5,2,3:2:0:0:
420,180,84124,1,2,3:2:0:0:
330,322,84271,2,0,P|325:290|335:260,1,64,10|0,0:0|0:0,0:0:0:0:
344,121,84565,2,0,P|297:80|234:74,1,128,2|8,3:2|0:0,0:0:0:0:
82,150,85153,6,0,B|104:217|104:217|76:290,1,144.000005493164,6|0,3:2|3:2,0:0:0:0:
47,351,85742,1,8,0:0:0:0:
201,227,86036,2,0,L|191:177,1,48.0000018310548,2|2,3:3|0:0,0:0:0:0:
212,70,86330,6,0,P|260:69|301:94,1,96.0000036621095,2|2,0:0|3:3,0:0:0:0:
421,172,86918,1,8,0:0:0:0:
301,247,87212,2,0,B|285:285|285:285|295:319,1,72.0000027465821,2|0,0:3|0:0,0:0:0:0:
325,346,87506,6,0,B|387:367|387:367|462:336,1,144.000005493164,2|0,3:2|3:2,0:0:0:0:
489,271,88095,1,8,0:0:0:0:
402,192,88242,2,0,L|407:144,2,48.0000018310548,2|2|2,0:0|3:3|0:0,0:0:0:0:
317,262,88683,6,0,B|298:230|298:230|304:166,1,96.0000036621095,2|2,0:0|3:3,0:0:0:0:
467,57,89271,1,8,0:0:0:0:
307,16,89565,1,2,0:3:0:0:
307,16,89712,1,2,0:0:0:0:
307,16,89859,6,0,P|247:18|165:80,1,144.000005493164,2|0,3:2|3:2,0:0:0:0:
151,129,90448,1,8,0:0:0:0:
276,274,90742,2,0,L|280:327,1,48.0000018310548,2|2,3:3|0:0,0:0:0:0:
186,257,91036,6,0,L|87:261,1,96.0000036621095,2|2,0:0|3:3,0:0:0:0:
0,151,91624,1,8,0:0:0:0:
93,47,91918,2,0,L|173:42,1,72.0000027465821,2|0,0:3|0:0,0:0:0:0:
203,62,92212,6,0,B|222:108|222:108|196:160,1,96.0000036621095,2|2,3:2|0:3,0:0:0:0:
145,194,92653,1,0,3:2:0:0:
60,255,92800,2,0,L|68:311,1,48.0000018310548,10|0,0:0|0:0,0:0:0:0:
164,269,93095,2,0,P|189:282|220:309,1,64.0000024414063,2|2,0:3|0:0,0:0:0:0:
257,364,93389,6,0,P|303:371|347:354,1,96.0000036621095,2|10,3:2|0:0,0:0:0:0:
468,265,93830,1,2,0:0:0:0:
468,265,94271,2,0,L|458:315,1,48.0000018310548,8|8,0:0|0:0,0:0:0:0:
382,259,94565,6,0,B|383:221|402:206|402:206|370:190|360:153,1,128,2|2,3:2|0:3,0:0:0:0:
452,126,95006,1,2,0:0:0:0:
395,22,95153,2,0,P|364:29|336:45,1,64,8|0,3:2|0:0,0:0:0:0:
243,137,95448,2,0,P|212:129|184:113,1,64,2|2,0:3|0:0,0:0:0:0:
91,42,95742,6,0,L|97:170,1,128,2|2,3:2|0:3,0:0:0:0:
230,262,96183,1,2,0:0:0:0:
163,330,96330,2,0,B|128:337|128:337|92:331,1,64,8|0,3:2|0:0,0:0:0:0:
181,139,96624,2,0,B|212:129|212:129|243:137,1,64,2|0,0:3|0:0,0:0:0:0:
331,233,96918,6,0,B|384:276|384:276|437:249,1,128,2|2,3:2|0:3,0:0:0:0:
501,179,97359,1,2,0:0:0:0:
454,69,97506,2,0,P|422:68|391:77,1,64,8|2,3:2|0:0,0:0:0:0:
290,131,97800,2,0,P|280:100|281:68,1,64,2|2,0:3|0:0,0:0:0:0:
147,23,98095,6,0,B|124:76|170:93|140:156,1,128,2|2,3:2|0:3,0:0:0:0:
55,110,98536,1,2,0:0:0:0:
19,235,98683,2,0,L|57:304,1,64,8|0,3:2|0:0,0:0:0:0:
153,245,98977,2,0,L|231:254,1,64,2|2,3:3|0:0,0:0:0:0:
338,281,99271,6,0,P|283:309|264:375,1,128,2|2,3:2|0:3,0:0:0:0:
360,375,99712,1,2,0:0:0:0:
441,267,99859,2,0,L|441:188,1,64,8|0,3:2|0:0,0:0:0:0:
384,93,100153,1,2,0:3:0:0:
384,93,100300,1,2,0:0:0:0:
384,93,100448,6,0,P|305:93|279:28,1,128,0|2,3:2|0:3,0:0:0:0:
166,28,100889,1,2,0:0:0:0:
166,28,101036,2,0,P|162:59|170:90,1,64,8|0,3:2|0:0,0:0:0:0:
248,203,101330,2,0,B|200:226|200:226|155:215,1,96,2|0,0:3|0:0,0:0:0:0:
114,185,101624,6,0,B|50:175|50:175|-10:197,2,128,2|2|10,3:2|0:3|3:2,0:0:0:0:
198,357,102506,2,0,P|246:354|265:341,1,64,2|2,0:3|0:3,0:0:0:0:
248,203,102800,6,0,P|279:200|308:213,2,64,8|2|2,3:2|0:3|0:3,0:0:0:0:
124,124,103242,2,0,P|111:153|114:185,2,64,8|2|2,0:0|0:3|0:3,0:0:0:0:
197,10,103683,2,0,P|226:22|257:20,1,64,10|2,0:0|0:3,0:0:0:0:
424,116,103977,6,0,P|397:85|302:100,1,140.800004296875,6|10,3:2|0:0,0:0:0:0:
252,186,104418,2,0,L|270:344,1,140.800004296875,2|0,3:2|3:2,0:0:0:0:
150,273,104859,2,0,L|138:183,1,70.4000021484376,10|0,0:0|0:0,0:0:0:0:
197,85,105153,6,0,B|234:87|234:87|261:75|261:75|312:79,1,105.600003222656,2|2,3:2|3:2,0:0:0:0:
352,87,105448,1,10,0:0:0:0:
418,204,105595,2,0,B|362:210|362:210|335:237|335:237|274:242,1,140.800004296875,2|0,3:2|3:2,0:0:0:0:
173,340,106036,2,0,P|150:289|150:266,1,70.4000021484376,10|0,0:0|0:0,0:0:0:0:
200,153,106330,5,2,3:2:0:0:
172,46,106477,1,2,3:2:0:0:
3,121,106624,1,10,0:0:0:0:
63,28,106771,1,2,3:2:0:0:
200,153,106918,2,0,L|249:91,1,70.4000021484376,2|2,3:2|3:2,0:0:0:0:
64,215,107212,2,0,L|97:287,1,70.4000021484376,10|2,0:0|3:2,0:0:0:0:
265,212,107506,6,0,B|282:253|282:253|246:306,1,105.600003222656,2|2,3:2|3:2,0:0:0:0:
194,310,107800,1,10,0:0:0:0:
146,139,107948,2,0,B|199:153|199:153|247:83,1,140.800004296875,2|0,3:2|3:2,0:0:0:0:
399,66,108389,2,0,P|391:29|371:1,1,70.4000021484376,10|0,0:0|0:0,0:0:0:0:
325,159,108683,6,0,B|370:210|370:210|443:200,1,140.800004296875,2|10,3:2|0:0,0:0:0:0:
351,313,109124,2,0,P|299:315|194:355,1,140.800004296875,2|0,3:2|3:2,0:0:0:0:
96,284,109565,2,0,L|111:355,1,70.4000021484376,10|0,0:0|0:0,0:0:0:0:
167,197,109859,6,0,B|155:152|173:132|173:132|158:119|158:119|171:96|156:56,1,140.800004296875,2|10,3:2|0:0,0:0:0:0:
278,157,110300,2,0,P|307:95|374:91,1,140.800004296875,2|0,3:2|3:2,0:0:0:0:
441,227,110742,2,0,P|451:179|441:156,1,70.4000021484376,10|0,0:0|0:0,0:0:0:0:
338,237,111036,5,2,3:2:0:0:
321,346,111183,1,2,3:2:0:0:
153,277,111330,1,10,0:0:0:0:
214,369,111477,1,2,3:2:0:0:
338,237,111624,2,0,P|314:203|279:187,1,70.4000021484376,2|2,3:2|3:2,0:0:0:0:
153,277,111918,2,0,P|120:301|80:306,1,70.4000021484376,10|2,0:0|0:0,0:0:0:0:
0,139,112212,6,0,B|29:145|50:129|50:129|65:141|65:141|82:121|129:125,1,140.800004296875,2|8,3:2|0:0,0:0:0:0:
206,8,112653,1,2,0:0:0:0:
206,8,112800,2,0,L|217:102,1,70.4000021484376,2|0,3:2|3:2,0:0:0:0:
408,108,113095,2,0,L|397:14,1,70.4000021484376,10|0,0:0|3:2,0:0:0:0:
183,217,113389,6,0,P|252:212|308:251,1,140.800004296875,2|10,3:2|0:0,0:0:0:0:
221,332,113830,2,0,B|168:329|168:329|143:356|143:356|74:351,1,140.800004296875,2|0,3:2|3:2,0:0:0:0:
32,221,114271,2,0,B|6:250|6:250|8:289,1,70.4000021484376,10|0,0:0|0:0,0:0:0:0:
183,217,114565,6,0,B|199:172|199:172|170:113,1,105.600003222656,2|2,3:2|3:2,0:0:0:0:
136,81,114859,1,10,0:0:0:0:
222,20,115006,2,0,B|270:0|270:0|360:19,1,140.800004296875,2|0,3:2|3:2,0:0:0:0:
440,139,115448,2,0,L|470:65,1,70.4000021484376,10|0,0:0|0:0,0:0:0:0:
352,135,115742,5,2,3:2:0:0:
295,227,115889,1,2,3:2:0:0:
466,256,116036,1,10,0:0:0:0:
369,307,116183,1,2,3:2:0:0:
352,135,116330,2,0,L|275:148,1,70.4000021484376,2|2,3:2|3:2,0:0:0:0:
466,257,116624,2,0,L|489:332,1,70.4000021484376,10|2,0:0|3:2,0:0:0:0:
295,227,116918,6,0,B|270:242|270:242|253:326,1,105.600003222656,2|2,3:2|3:2,0:0:0:0:
247,369,117212,1,10,0:0:0:0:
148,254,117359,2,0,B|159:206|159:206|137:181|137:181|150:114,1,140.800004296875,2|0,3:2|3:2,0:0:0:0:
266,46,117800,2,0,P|226:14|186:14,1,70.4000021484376,10|0,0:0|0:0,0:0:0:0:
269,162,118095,6,0,B|345:173|345:173|387:124,1,140.800004296875,2|10,3:2|0:0,0:0:0:0:
460,198,118536,2,0,P|484:263|453:323,1,140.800004296875,2|0,3:2|3:2,0:0:0:0:
318,289,118977,2,0,P|271:281|246:284,1,70.4000021484376,10|0,0:0|0:0,0:0:0:0:
114,336,119271,6,0,B|102:294|124:273|124:273|108:252|108:252|127:225|115:193,1,140.800004296875,2|10,3:2|0:0,0:0:0:0:
21,105,119712,2,0,P|44:43|110:37,1,140.800004296875,2|0,3:2|3:2,0:0:0:0:
239,116,120153,2,0,P|278:127|311:120,1,70.4000021484376,10|0,0:0|0:0,0:0:0:0:
424,60,120448,5,2,3:2:0:0:
496,144,120595,1,2,3:2:0:0:
343,256,120742,1,10,0:0:0:0:
454,247,120889,1,2,3:2:0:0:
424,60,121036,2,0,P|377:53|354:66,1,70.4000021484376,2|2,3:2|3:2,0:0:0:0:
276,258,121330,2,0,P|310:267|343:256,1,70.4000021484376,10|2,0:0|0:0,0:0:0:0:
168,182,121624,6,0,B|190:244|190:244|162:313,1,140.800004296875,2|10,3:2|0:0,0:0:0:0:
251,369,122065,2,0,P|321:360|392:362,1,140.800004296875,2|2,3:2|3:2,0:0:0:0:
469,225,122506,1,10,0:0:0:0:
369,151,122653,1,2,3:2:0:0:
369,151,122727,1,2,3:2:0:0:
369,151,122800,6,0,P|307:164|244:159,2,128,6|10|2,3:2|0:0|3:2,0:0:0:0:
275,29,123536,1,2,0:0:0:0:
275,29,123683,2,0,L|203:25,1,64,10|2,0:0|0:0,0:0:0:0:
0,154,123977,5,2,3:2:0:0:
93,145,124124,1,2,3:2:0:0:
167,203,124271,1,10,0:0:0:0:
182,295,124418,1,2,3:2:0:0:
129,373,124565,2,0,B|68:367|68:367|33:311,1,128,2|10,3:2|0:0,0:0:0:0:
342,216,125153,6,0,P|287:243|262:306,1,128,2|10,3:2|0:0,0:0:0:0:
422,245,125595,1,2,0:0:0:0:
358,317,125742,1,2,3:2:0:0:
310,122,125889,1,2,0:0:0:0:
422,158,126036,1,10,0:0:0:0:
389,68,126183,1,2,0:0:0:0:
211,61,126330,5,2,3:2:0:0:
301,28,126477,1,2,3:2:0:0:
422,158,126624,2,0,L|363:183,1,64,10|2,0:0|3:2,0:0:0:0:
388,335,126918,2,0,P|331:357|277:327,1,128,2|10,3:2|0:0,0:0:0:0:
230,201,127359,1,2,3:2:0:0:
142,160,127506,6,0,P|93:170|41:246,2,128,2|10|2,3:2|0:0|3:2,0:0:0:0:
252,53,128242,1,2,0:0:0:0:
252,53,128389,2,0,L|269:139,1,64,10|2,0:0|0:0,0:0:0:0:
221,245,128683,5,2,3:2:0:0:
234,337,128830,1,2,3:2:0:0:
312,386,128977,1,10,0:0:0:0:
401,357,129124,1,2,3:2:0:0:
434,270,129271,2,0,B|384:226|384:226|300:254,1,128,2|10,3:2|0:0,0:0:0:0:
348,32,129859,6,0,P|308:74|241:68,1,128,2|10,3:2|0:0,0:0:0:0:
151,38,130300,1,2,0:0:0:0:
51,122,130448,2,0,L|61:206,1,64,2|0,3:2|0:0,0:0:0:0:
198,168,130742,2,0,L|188:252,1,64,8|2,0:0|0:0,0:0:0:0:
43,333,131036,2,0,L|98:364,1,64,2|2,3:2|0:0,0:0:0:0:
187,373,131330,1,10,0:0:0:0:
132,245,131477,5,2,0:0:0:0:
198,168,131624,1,2,3:2:0:0:
295,141,131771,1,2,3:2:0:0:
391,171,131918,1,10,0:0:0:0:
455,249,132065,1,2,3:2:0:0:
466,349,132212,6,0,B|383:358|383:358|337:313,2,128,2|10|2,3:2|0:0|3:2,0:0:0:0:
484,218,132948,1,2,0:0:0:0:
484,218,133095,2,0,P|484:177|469:141,1,64,10|2,0:0|0:0,0:0:0:0:
356,218,133389,5,2,3:2:0:0:
261,169,133536,1,2,3:2:0:0:
258,62,133683,1,10,0:0:0:0:
350,8,133830,1,2,3:2:0:0:
442,62,133977,2,0,P|396:110|334:121,1,128,2|10,3:2|0:0,0:0:0:0:
43,167,134565,6,0,P|104:179|148:225,1,128,2|10,3:2|0:0,0:0:0:0:
106,363,135006,1,2,0:0:0:0:
61,278,135153,1,2,3:2:0:0:
224,240,135300,1,2,0:0:0:0:
250,332,135448,1,10,0:0:0:0:
321,266,135595,1,2,0:0:0:0:
250,104,135742,5,2,3:2:0:0:
179,170,135889,1,2,3:2:0:0:
321,266,136036,2,0,P|338:222|340:199,1,64,10|2,0:0|3:2,0:0:0:0:
250,332,136330,2,0,B|180:363|180:363|118:342,1,128,2|10,3:2|0:0,0:0:0:0:
70,226,136771,1,2,3:2:0:0:
105,136,136918,6,0,B|107:91|107:91|94:61|94:61|101:5,2,128,2|10|2,3:2|0:0|3:2,0:0:0:0:
235,211,137653,1,2,0:0:0:0:
235,211,137800,2,0,P|266:205|297:211,1,64,8|2,0:0|0:0,0:0:0:0:
380,330,138095,5,2,3:2:0:0:
473,292,138242,1,2,3:2:0:0:
512,199,138389,1,10,0:0:0:0:
482,103,138536,1,2,3:2:0:0:
391,56,138683,2,0,B|341:47|341:47|300:120,1,128,2|10,3:2|0:0,0:0:0:0:
380,331,139271,6,0,B|329:340|329:340|288:267,1,128,2|10,3:2|0:0,0:0:0:0:
362,208,139712,1,2,0:0:0:0:
229,168,139859,2,0,P|193:170|172:187,1,64,2|0,3:2|0:0,0:0:0:0:
137,325,140153,2,0,P|101:323|80:306,1,64,10|0,0:0|0:0,0:0:0:0:
38,187,140448,2,0,L|35:121,1,64,2|0,3:2|0:0,0:0:0:0:
57,29,140742,1,10,0:0:0:0:
229,168,140889,1,2,0:0:0:0:
229,168,141036,2,0,P|268:162|292:170,1,64,2|2,3:2|3:2,0:0:0:0:
136,324,141330,2,0,P|107:312|87:287,1,64,10|2,0:0|3:2,0:0:0:0:
272,321,141624,5,6,3:2:0:0:
443,134,142506,2,0,L|456:44,1,76.7999976562501,2|2,0:0|3:2,0:0:0:0:
69,250,143683,1,2,0:0:0:0:
69,250,143977,6,0,L|56:340,1,76.7999976562501,2|2,3:2|0:0,0:0:0:0:
131,368,144565,2,0,L|221:381,1,76.7999976562501,2|2,0:0|0:0,0:0:0:0:
267,319,145153,2,0,B|278:275|278:275|262:248|262:248|272:206,1,115.199996484375,2|2,3:2|0:0,0:0:0:0:
330,98,146036,1,2,0:0:0:0:
330,98,146330,5,2,3:2:0:0:
432,329,147212,1,2,0:0:0:0:
432,329,147506,1,2,3:2:0:0:
232,172,148389,1,2,0:0:0:0:
232,172,148683,6,0,P|183:160|141:160,1,76.7999976562501,2|2,3:2|0:0,0:0:0:0:
83,200,149271,2,0,P|71:249|71:291,1,76.7999976562501,2|2,0:0|0:0,0:0:0:0:
136,326,149859,2,0,P|173:349|245:327,1,115.199996484375,2|2,3:2|0:0,0:0:0:0:
302,222,150742,1,2,0:0:0:0:
302,222,151036,6,0,B|377:214|377:214|423:246,2,115.199996484375,2|2|2,3:2|0:0|0:0,0:0:0:0:
233,172,152212,2,0,B|158:180|158:180|112:148,2,115.199996484375,2|2|2,3:2|0:0|0:0,0:0:0:0:
269,95,153389,6,0,L|283:4,1,76.7999976562501,2|2,3:2|0:0,0:0:0:0:
362,40,153977,2,0,L|348:131,1,76.7999976562501,2|2,0:0|0:0,0:0:0:0:
406,179,154565,2,0,P|407:225|381:256,1,76.7999976562501,2|2,3:2|0:0,0:0:0:0:
334,312,155006,1,2,0:0:0:0:
334,312,155153,2,0,P|288:313|257:287,1,76.7999976562501,2|2,3:2|0:0,0:0:0:0:
222,221,155742,6,0,P|238:167|230:110,2,115.199996484375,2|2|2,3:2|0:0|0:0,0:0:0:0:
138,231,156918,2,0,P|121:285|129:342,2,115.199996484375,2|2|2,3:2|0:0|0:0,0:0:0:0:
87,163,158095,6,0,B|101:120|101:120|94:87,1,76.7999976562501,2|0,3:2|0:0,0:0:0:0:
144,21,158683,2,0,B|187:35|187:35|220:28,1,76.7999976562501,2|2,0:0|0:0,0:0:0:0:
275,90,159271,6,0,P|268:128|271:151,1,57.5999982421876,2|0,0:0|0:0,0:0:0:0:
275,90,159565,6,0,P|282:128|301:154,1,67.1999979492188,2|0,0:0|0:0,0:0:0:0:
275,90,159859,6,0,P|297:122|330:142,1,76.8,2|0,0:0|0:0,0:0:0:0:
275,90,160153,6,0,P|307:111|353:116,1,86.3999973632813,2|0,0:0|0:0,0:0:0:0:
425,48,160448,6,0,P|459:109|446:176,1,140.800004296875,6|10,3:2|0:0,0:0:0:0:
465,279,160889,2,0,B|396:302|396:302|319:277,1,140.800004296875,2|0,3:2|3:2,0:0:0:0:
318,177,161330,2,0,L|232:204,1,70.4000021484376,10|0,0:0|0:0,0:0:0:0:
180,341,161624,6,0,B|122:355|122:355|87:315,1,105.600003222656,2|2,3:2|3:2,0:0:0:0:
67,273,161918,1,10,0:0:0:0:
132,151,162065,2,0,P|87:103|29:133,1,140.800004296875,2|0,3:2|3:2,0:0:0:0:
155,259,162506,2,0,P|191:254|222:225,1,70.4000021484376,10|0,0:0|0:0,0:0:0:0:
241,71,162800,5,2,3:2:0:0:
321,158,162947,1,2,3:2:0:0:
322,0,163094,1,10,0:0:0:0:
412,62,163241,1,2,3:2:0:0:
241,71,163389,2,0,L|170:74,1,70.4000021484376,2|2,3:2|3:2,0:0:0:0:
321,158,163683,2,0,L|391:161,1,70.4000021484376,10|2,0:0|3:2,0:0:0:0:
467,289,163977,6,0,P|427:273|374:308,1,105.600003222656,2|2,3:2|3:2,0:0:0:0:
358,352,164271,1,10,0:0:0:0:
226,315,164418,2,0,B|195:277|195:277|212:166,1,140.800004296875,2|0,3:2|3:2,0:0:0:0:
287,59,164859,2,0,P|319:97|325:120,1,70.4000021484376,10|0,0:0|0:0,0:0:0:0:
183,82,165153,6,0,B|149:92|131:80|131:80|103:95|103:95|75:78|45:92,1,140.800004296875,2|10,3:2|0:0,0:0:0:0:
65,195,165595,2,0,P|39:258|64:322,1,140.800004296875,2|0,3:2|3:2,0:0:0:0:
240,347,166036,2,0,L|160:364,1,70.4000021484376,10|0,0:0|0:0,0:0:0:0:
200,182,166330,6,0,B|187:142|187:142|194:110|194:110|183:82,1,105.600003222656,2|2,3:2|3:2,0:0:0:0:
166,31,166624,1,10,0:0:0:0:
279,137,166771,2,0,B|348:154|348:154|416:124,1,140.800004296875,2|0,3:2|3:2,0:0:0:0:
508,168,167212,2,0,L|489:235,1,70.4000021484376,10|0,0:0|0:0,0:0:0:0:
331,279,167506,5,2,3:2:0:0:
248,210,167653,1,2,3:2:0:0:
213,375,167800,1,10,0:0:0:0:
164,278,167947,1,2,3:2:0:0:
331,279,168095,2,0,L|338:357,1,70.4000021484376,2|2,3:2|3:2,0:0:0:0:
159,192,168389,1,10,0:0:0:0:
74,260,168536,1,2,3:2:0:0:
248,210,168683,6,0,B|237:279|237:279,1,70.4000021484376,2|0,3:2|3:2,0:0:0:0:
213,375,168977,1,10,0:0:0:0:
72,113,169271,2,0,P|64:80|65:45,1,70.4000021484376,2|0,3:2|3:2,0:0:0:0:
240,141,169565,2,0,P|249:174|248:210,1,70.4000021484376,10|0,0:0|3:2,0:0:0:0:
419,206,169859,6,0,B|456:133|456:133|431:80,1,140.800004296875,2|10,3:2|0:0,0:0:0:0:
330,274,170300,2,0,P|385:316|453:306,1,140.800004296875,2|0,3:2|3:2,0:0:0:0:
300,172,170742,2,0,L|195:187,1,105.600003222656,10|2,0:0|3:2,0:0:0:0:
144,176,171036,5,2,3:2:0:0:
89,294,171183,1,2,3:2:0:0:
207,349,171330,1,10,0:0:0:0:
300,172,171477,2,0,P|235:194|205:256,1,140.800004296875,2|0,3:2|3:2,0:0:0:0:
440,150,171918,2,0,L|449:219,1,70.4000021484376,10|0,0:0|0:0,0:0:0:0:
300,172,172212,5,2,3:2:0:0:
350,267,172359,1,2,3:2:0:0:
186,257,172506,1,10,0:0:0:0:
263,332,172653,1,2,3:2:0:0:
300,172,172800,2,0,L|287:93,1,70.4000021484376,2|2,3:2|3:2,0:0:0:0:
186,257,173095,2,0,L|106:270,1,70.4000021484376,10|2,0:0|3:2,0:0:0:0:
26,164,173389,6,0,P|75:178|117:150,1,105.600003222656,2|2,3:2|3:2,0:0:0:0:
155,111,173683,1,10,0:0:0:0:
300,172,173830,2,0,B|313:209|299:228|299:228|307:247|307:247|294:280|307:316,1,140.800004296875,2|0,3:2|3:2,0:0:0:0:
433,345,174271,2,0,P|397:348|367:373,1,70.4000021484376,10|0,0:0|0:0,0:0:0:0:
434,247,174565,6,0,B|447:210|433:191|433:191|441:172|441:172|428:139|441:103,1,140.800004296875,2|8,3:2|0:0,0:0:0:0:
379,7,175006,2,0,B|312:27|312:27|288:94,1,140.800004296875,2|0,3:2|3:2,0:0:0:0:
132,44,175448,2,0,L|202:24,1,70.4000021484376,10|0,0:0|0:0,0:0:0:0:
112,166,175742,6,0,B|118:223|118:223|103:258|103:258|113:302,1,140.800004296875,2|10,3:2|0:0,0:0:0:0:
265,251,176183,2,0,B|285:329|285:329|245:373,1,140.800004296875,2|0,3:2|3:2,0:0:0:0:
196,198,176624,2,0,P|227:175|269:163,1,70.4000021484376,10|0,0:0|0:0,0:0:0:0:
375,280,176918,5,2,3:2:0:0:
479,240,177065,1,2,3:2:0:0:
400,66,177212,1,10,0:0:0:0:
492,130,177359,1,2,3:2:0:0:
308,130,177506,2,0,B|237:128|237:128|186:78,1,140.800004296875,2|10,3:2|0:0,0:0:0:0:
39,141,177948,1,2,0:0:0:0:
39,141,178095,6,0,L|49:296,1,140.800004296875,2|10,3:2|0:0,0:0:0:0:
124,353,178536,1,0,0:0:0:0:
252,245,178683,2,0,P|197:210|153:258,1,140.800004296875,2|10,3:2|0:0,0:0:0:0:
273,353,179124,1,0,3:2:0:0:
273,353,179198,1,0,3:2:0:0:
273,353,179271,6,0,B|329:341|329:341|364:358|364:358|419:342,1,153.5999953125,6|10,3:2|0:0,0:0:0:0:
307,148,179712,2,0,P|370:115|416:170,1,153.5999953125,2|0,3:2|3:2,0:0:0:0:
285,253,180153,2,0,P|232:248|209:253,1,76.7999976562501,10|0,0:0|0:0,0:0:0:0:
52,322,180448,2,0,B|22:280|22:280|25:174,1,153.5999953125,2|10,3:2|0:0,0:0:0:0:
52,66,180889,2,0,P|117:101|180:64,1,153.5999953125,2|0,3:2|3:2,0:0:0:0:
285,253,181330,2,0,L|278:176,1,76.7999976562501,10|0,0:0|0:0,0:0:0:0:
20,236,181624,5,2,3:2:0:0:
115,213,181771,1,2,3:2:0:0:
171,377,181918,1,10,0:0:0:0:
187,280,182065,1,2,3:2:0:0:
20,236,182212,2,0,P|9:187|12:154,1,76.7999976562501,2|2,3:2|3:2,0:0:0:0:
187,279,182506,2,0,P|225:280|262:270,1,76.7999976562501,10|2,0:0|3:2,0:0:0:0:
312,98,182800,6,0,B|357:110|383:93|383:93|410:108|410:108|434:98|459:106,1,153.5999953125,2|10,3:2|0:0,0:0:0:0:
380,309,183242,2,0,P|309:326|262:271,1,153.5999953125,2|0,3:2|3:2,0:0:0:0:
195,80,183683,2,0,L|180:166,1,76.7999976562501,10|0,0:0|0:0,0:0:0:0:
49,263,183977,6,0,B|84:309|84:309|84:308|199:281,1,153.5999953125,2|10,3:2|0:0,0:0:0:0:
67,144,184418,2,0,P|120:90|195:80,1,153.5999953125,2|0,3:2|3:2,0:0:0:0:
302,194,184859,2,0,P|364:206|387:197,1,76.7999976562501,10|0,0:0|0:0,0:0:0:0:
321,350,185153,6,0,B|285:361|260:350|260:350|239:365|239:365|201:352|168:365,1,153.5999953125,2|8,3:2|0:0,0:0:0:0:
15,227,185595,2,0,P|57:252|85:161,1,153.5999953125,2|0,3:2|3:2,0:0:0:0:
136,36,186036,2,0,L|45:30,1,76.7999976562501,10|0,0:0|0:0,0:0:0:0:
214,98,186330,5,2,3:2:0:0:
313,165,186477,1,2,3:2:0:0:
167,298,186624,1,10,0:0:0:0:
286,282,186771,1,2,3:2:0:0:
214,98,186918,1,2,3:2:0:0:
167,298,187065,1,2,3:2:0:0:
313,165,187212,2,0,L|323:88,1,76.7999976562501,10|0,0:0|0:0,0:0:0:0:
26,170,187506,6,0,B|45:252|45:252,1,76.7999976562501,2|0,3:2|3:2,0:0:0:0:
69,341,187800,1,10,0:0:0:0:
242,90,188095,2,0,L|318:91,1,76.7999976562501,2|0,3:2|3:2,0:0:0:0:
243,300,188389,2,0,L|167:298,1,76.7999976562501,10|0,0:0|3:2,0:0:0:0:
362,366,188683,6,0,P|380:292|347:224,1,153.5999953125,2|8,3:2|0:0,0:0:0:0:
171,71,189124,2,0,B|214:98|214:98|312:68,1,153.5999953125,2|0,3:2|3:2,0:0:0:0:
101,2,189565,2,0,P|81:35|73:72,1,76.7999976562501,10|0,0:0|0:0,0:0:0:0:
212,174,189859,6,0,L|220:289,1,115.199996484375,2|0,3:2|3:2,0:0:0:0:
222,346,190153,1,10,0:0:0:0:
12,254,190300,2,0,P|66:206|124:248,1,153.5999953125,2|0,3:2|3:2,0:0:0:0:
301,183,190742,2,0,L|314:97,1,76.7999976562501,10|0,0:0|0:0,0:0:0:0:
438,204,191036,5,2,3:2:0:0:
446,301,191183,1,2,3:2:0:0:
278,312,191330,1,10,0:0:0:0:
365,356,191477,1,2,3:2:0:0:
438,204,191624,2,0,L|544:193,1,76.7999976562501,2|2,3:2|3:2,0:0:0:0:
322,225,191918,2,0,L|216:213,1,76.7999976562501,10|2,0:0|3:2,0:0:0:0:
59,336,192212,6,0,P|13:279|32:207,1,153.5999953125,2|8,3:2|0:0,0:0:0:0:
158,78,192653,2,0,P|124:37|2:50,1,153.5999953125,2|0,3:2|3:2,0:0:0:0:
141,175,193095,2,0,L|218:160,1,76.7999976562501,10|0,0:0|3:2,0:0:0:0:
375,52,193389,6,0,B|420:104|420:104|412:188,1,153.5999953125,2|10,3:2|0:0,0:0:0:0:
299,208,193830,2,0,P|259:187|235:283,1,153.5999953125,2|0,3:2|3:2,0:0:0:0:
331,365,194271,2,0,P|347:330|341:285,1,76.7999976562501,10|0,0:0|0:0,0:0:0:0:
184,355,194565,6,0,B|143:368|118:351|118:351|98:362|98:362|62:342|24:356,1,153.5999953125,2|10,3:2|0:0,0:0:0:0:
36,107,195006,2,0,P|80:168|78:244,1,153.5999953125,2|0,3:2|3:2,0:0:0:0:
181,176,195448,2,0,P|220:190|262:169,1,76.7999976562501,10|0,0:0|0:0,0:0:0:0:
369,48,195742,5,2,3:2:0:0:
465,63,195889,1,2,3:2:0:0:
441,230,196036,1,10,0:0:0:0:
501,153,196183,1,2,3:2:0:0:
369,48,196330,2,0,P|343:76|334:113,1,76.7999976562501,2|2,3:2|3:2,0:0:0:0:
441,230,196624,2,0,P|466:257|475:294,1,76.7999976562501,10|2,0:0|3:2,0:0:0:0:
190,237,196918,6,0,B|252:199|252:199|331:216,1,153.5999953125,2|10,3:2|0:0,0:0:0:0:
82,384,197359,2,0,B|26:336|26:336|18:256,1,153.5999953125,2|0,3:2|3:2,0:0:0:0:
91,138,197800,1,8,0:0:0:0:
190,237,197948,1,8,0:0:0:0:
190,237,198021,1,8,0:0:0:0:
190,237,198095,6,0,L|186:307,1,64,6|2,3:2|0:0,0:0:0:0:
296,202,198389,2,0,L|293:139,1,64,10|0,0:0|0:0,0:0:0:0:
377,46,198683,1,2,3:2:0:0:
472,84,198830,1,2,3:2:0:0:
496,183,198977,1,10,0:0:0:0:
428,260,199124,1,2,3:2:0:0:
377,46,199271,6,0,L|235:37,2,128,2|8|0,3:2|0:0|0:0,0:0:0:0:
429,260,200006,1,2,3:2:0:0:
428,260,200153,2,0,P|439:317|435:332,1,64,10|2,0:0|3:2,0:0:0:0:
298,273,200448,6,0,B|236:260|236:260|160:288,1,128,2|10,3:2|0:0,0:0:0:0:
93,332,200889,1,0,0:0:0:0:
34,220,201036,2,0,P|29:171|47:143,1,64,2|2,3:2|3:2,0:0:0:0:
156,118,201330,2,0,P|161:69|143:41,1,64,10|0,0:0|0:0,0:0:0:0:
210,200,201624,5,2,3:2:0:0:
302,172,201771,1,2,3:2:0:0:
374,284,201918,2,0,P|331:292|298:275,1,64,10|0,0:0|0:0,0:0:0:0:
387,130,202212,2,0,P|438:165|453:225,1,128,2|8,3:2|0:0,0:0:0:0:
227,36,202800,6,0,L|165:25,1,64,2|2,3:2|0:0,0:0:0:0:
147,188,203095,2,0,L|210:200,1,64,8|0,0:0|0:0,0:0:0:0:
287,321,203389,1,2,3:2:0:0:
386,297,203536,1,2,3:2:0:0:
426,202,203683,1,10,0:0:0:0:
372,115,203830,1,2,3:2:0:0:
287,321,203977,6,0,B|235:355|235:355|156:342,2,128,2|8|0,3:2|0:0|0:0,0:0:0:0:
234,141,204712,1,2,3:2:0:0:
234,141,204859,2,0,P|200:158|179:187,1,64,10|2,0:0|3:2,0:0:0:0:
58,367,205153,6,0,P|19:334|9:250,1,128,2|8,3:2|0:0,0:0:0:0:
90,213,205595,1,0,0:0:0:0:
105,72,205742,2,0,L|42:81,1,64,2|2,3:2|3:2,0:0:0:0:
209,147,206036,2,0,L|272:138,1,64,10|0,0:0|0:0,0:0:0:0:
434,168,206330,5,2,3:2:0:0:
408,75,206477,1,0,3:2:0:0:
334,212,206624,2,0,P|320:244|323:284,1,64,8|2,0:0|0:0,0:0:0:0:
196,304,206918,2,0,P|210:336|207:376,1,64,2|0,3:2|3:2,0:0:0:0:
64,289,207212,1,10,0:0:0:0:
64,289,207359,1,0,3:2:0:0:
64,289,207506,6,0,L|-5:297,2,48.0000018310548,2|0|0,0:0|0:0|0:0,0:0:0:0:
141,203,208095,2,0,L|126:142,1,48.0000018310548,0|0,0:0|0:0,0:0:0:0:
166,89,208389,2,0,L|181:28,1,48.0000018310548,0|0,0:0|0:0,0:0:0:0:
247,72,208683,6,0,P|294:86|338:69,2,96.0000036621095,2|2|0,0:0|0:0|0:0,0:0:0:0:
219,143,209418,2,0,L|233:204,2,48.0000018310548,2|0|0,0:0|0:0|0:0,0:0:0:0:
166,89,209859,6,0,B|62:91,1,96.0000036621095,2|0,0:0|0:0,0:0:0:0:
70,209,210448,2,0,L|3:203,2,48.0000018310548,0|0|2,0:0|0:0|0:0,0:0:0:0:
137,302,211036,2,0,L|143:369,2,48.0000018310548,0|0|2,0:0|0:0|0:0,0:0:0:0:
225,227,211624,1,2,0:0:0:0:
209,212,212212,6,0,L|215:145,2,48.0000018310548,2|0|0,0:0|0:0|0:0,0:0:0:0:
287,296,212800,2,0,P|309:303|333:307,1,48.0000018310548,0|0,0:0|0:0,0:0:0:0:
406,281,213095,2,0,P|413:258|417:234,1,48.0000018310548,0|0,0:0|0:0,0:0:0:0:
390,162,213389,6,0,L|291:181,2,96.0000036621095,2|2|0,0:0|0:0|0:0,0:0:0:0:
466,151,214124,2,0,P|488:162|502:180,2,48.0000018310548,2|0|0,0:0|0:0|0:0,0:0:0:0:
459,74,214565,6,0,L|360:55,1,96.0000036621095,2|0,0:0|0:0,0:0:0:0:
254,87,215153,2,0,L|263:144,2,48.0000018310548,0|0|2,0:0|0:0|0:0,0:0:0:0:
163,158,215742,2,0,L|154:215,2,48.0000018310548,0|0|2,0:0|0:0|0:0,0:0:0:0:
57,46,216330,5,2,0:0:0:0:
